#TITLE:Hanz up!;
#ARTIST:Mr.Funky;
#GENRE:HIP HOUSE;
#BANNER:Hanz up!.png;
#BACKGROUND:Hanz up!-bg.png;
#MUSIC:Hanz up!.ogg;
#OFFSET:-0.237;
#SAMPLESTART:61.749;
#SAMPLELENGTH:15;
#BPMS:0=129;
#BGCHANGES:0.833=Hanz up!.avi=1.000=0=0=0=StretchNoLoop====,
99999=-nosongbg-=1.000=0=0=0 // don't automatically add -songbackground-;
#BGSTAGE:30;

//--------------- dance-single - XLev450X-bSP ----------------
#NOTES:
     dance-single:
     XLev450X:
     Beginner:
     3:
     0,0,0,0,0:
0000
0000
0000
0000
,
0000
0000
0000
0000
,
0000
0000
0000
0000
,
0000
0000
0000
0000
,
0000
0000
0000
0010
,
0100
0010
0000
1000
,
0010
1000
0000
0001
,
0010
0001
0000
1000
,
0001
1000
0000
0010
,
0100
0001
0000
1000
,
0000
0100
0000
0010
,
0100
0010
0000
1000
,
0000
0001
0000
0001
,
1000
0001
0000
0010
,
0000
0100
0000
0001
,
0010
0100
0000
1000
,
0000
0010
0000
0100
,
0100
0000
0000
0001
,
0001
0000
0000
1000
,
1000
0000
0000
0100
,
0010
0000
0000
0010
,
0010
0000
0000
0001
,
0001
0000
0000
0100
,
0100
0000
0000
1000
,
0000
0000
0000
1001
,
0000
0000
0000
0000
,
0000
0000
0000
1001
,
0000
0000
0000
0000
,
0000
0000
0000
1001
,
0000
0000
0000
0000
,
0000
0000
0000
1001
,
0000
0000
0000
0000
,
0000
0000
0000
0010
,
0000
1000
0000
0001
,
0000
0100
0000
0010
,
0000
1000
0000
0001
,
0000
0100
0000
0010
,
0000
1000
0000
0001
,
0000
0100
0000
0010
,
0000
1000
0000
0001
,
0000
0000
0000
0001
,
0001
0000
0000
1000
,
1000
0000
0000
0010
,
0010
0000
0000
0100
,
0100
0000
0000
0001
,
0010
0000
0000
1000
,
0100
0000
0000
0100
,
0010
0000
0000
1001
,
0000
0000
0000
0010
,
0000
1000
0000
0010
,
0000
0100
0000
0001
,
0000
1000
0000
0001
,
0000
0000
0000
0010
,
0000
1000
0000
0100
,
0000
0010
0000
0001
,
0000
0100
0000
0010
,
0000
0000
0000
1001
;

//--------------- dance-single - XLev450X-BSP ----------------
#NOTES:
     dance-single:
     XLev450X:
     Easy:
     6:
     0,0,0,0,0:
0000
0000
0000
0000
,
0000
0000
0000
0000
,
0000
0000
0000
0000
,
0000
0000
0000
0000
,
0000
0000
0000
0001
,
1000
0010
0100
0001
,
0010
1000
0000
0100
,
1000
0000
0010
0000
0100
0000
0001
0010
,
0001
2002
3003
1000
,
0100
0001
0010
1000
,
0100
0010
0001
1000
,
0010
0000
0100
0010
0100
0000
1000
0000
,
0010
0001
0000
1000
,
0100
0001
0010
0100
,
1000
0000
0010
0000
1000
0000
0001
0010
,
0001
0000
1000
0100
1000
0000
2002
0000
,
0000
0000
3003
0010
,
0100
0010
0001
1000
,
0000
0100
0010
1000
,
0100
0010
0001
0101
,
0000
1010
0000
0001
,
0000
1000
0010
0100
,
1000
0000
0010
0000
0001
0000
1000
0100
,
1000
0000
0010
0100
0010
0000
0001
0000
,
1000
1001
0000
0001
,
1000
0010
0000
1000
,
0100
0001
0000
0010
,
1000
0100
0010
0001
,
1000
0010
0000
1000
,
0001
0100
0000
1000
,
0010
0100
0000
0001
,
1000
0001
0100
0010
,
0000
1001
0000
0001
,
0000
1000
0010
0100
,
0000
0001
0010
0001
,
0000
1000
0010
0100
,
0000
1000
0001
0010
,
0000
0100
0100
0001
,
0000
1000
0001
0010
,
0000
1000
0010
2002
,
0000
0000
3003
0001
,
1000
0001
0000
0010
,
1000
0010
0000
0100
,
0010
0100
0000
1000
,
0001
1001
0000
0001
,
1000
0010
0000
0100
,
0010
0100
0000
1000
,
0100
1000
0000
0020
,
0000
0000
0200
0000
0000
0330
0001
0000
,
0001
1000
0000
0100
,
0100
0010
0000
1000
,
0010
1000
0000
0010
,
0001
0000
0000
0000
0020
0000
0000
0000
0000
0030
0000
0000
0001
0000
0000
0000
,
1000
0001
0000
0100
,
0010
1000
0000
0010
,
0100
0010
0000
0001
,
0010
0002
1003
2002
,
0000
0000
3003
0000
;

//--------------- dance-single - XLev450X-DSP ----------------
#NOTES:
     dance-single:
     XLev450X:
     Medium:
     11:
     0,0,0,0,0:
0000
0000
0000
0000
,
0000
0000
0000
0000
,
0000
0000
0000
0000
,
0000
0000
0000
0000
,
0000
0000
0000
0001
,
1000
0000
0010
0100
0010
0000
0001
0010
,
0001
0000
1000
0010
1000
0000
0001
0000
,
0100
0000
0010
0100
0010
0000
1000
0001
,
1000
0010
0000
0000
0000
0000
0001
0000
,
1000
0000
0100
0010
0100
0000
0001
0000
,
1000
0000
0010
0001
0010
0000
1000
0000
,
0100
0000
0010
1000
0010
0000
0100
0000
,
0001
0000
1000
0001
0001
0001
0000
1000
,
0010
0100
0000
0010
0001
0100
1000
0001
,
0010
1000
0000
0010
0100
1000
0010
0100
,
0001
0010
0000
0001
1000
0010
0000
0001
,
1000
0010
0000
0100
0001
0100
0001
0000
,
1000
0000
0010
1000
0010
0000
0001
0000
,
1000
0000
0100
0001
1000
0000
0010
0000
,
1000
0000
0001
0010
1000
0000
0101
0101
,
0000
0000
0000
0000
1010
0000
1010
0000
0000
0000
0000
0000
0001
1000
0000
0010
,
0000
0000
0001
1000
0010
0000
0001
0000
,
1000
0000
0010
0100
0010
0000
0001
0010
,
1000
0000
0001
0010
1000
0000
0010
0000
,
0100
0000
0000
0000
1000
0000
0000
0000
0001
0000
0000
0000
1000
0000
0000
0001
,
0000
0000
0100
0000
0010
0000
0000
1000
0000
0000
0001
0000
0100
0000
0000
0010
,
0000
0000
1000
0000
0001
0000
0000
0010
0000
0010
0000
1000
0001
0000
0000
0100
,
0000
0000
1000
0000
0001
0000
0000
0010
0000
0000
1000
0000
0001
0000
0000
0100
,
0000
0000
0010
0000
1000
0000
0100
0000
0001
0010
0100
1000
0100
0000
0000
0001
,
0000
0000
0100
0000
1000
0000
0000
0010
0000
0000
1000
0000
0010
0000
0000
0100
,
0000
0000
0001
0000
1000
0000
0000
0001
0000
0001
0000
1000
0010
0000
0000
0100
,
0000
0000
1000
0000
0001
0000
0000
0010
0000
0000
1000
0000
0002
0000
0000
0000
,
0203
0000
0000
0000
0000
0000
0000
0000
2300
0000
0000
0000
0000
3000
0000
0000
0010
0000
1000
0000
0010
0000
1000
0000
0001
0000
0000
0000
0000
0000
0000
0000
,
1000
0000
0001
0010
0001
0000
0010
0000
,
1000
0000
0010
1000
0010
0000
0001
0000
,
1000
0000
0001
0100
0001
0000
1000
0000
,
0001
0000
1000
0010
1000
0000
0001
0010
,
0001
0000
0010
0100
0010
0000
1000
0100
,
1000
0000
0001
0000
1000
0000
1000
0100
,
0001
0000
0010
0100
0010
0000
0001
0000
,
1000
0000
1000
0000
1000
0000
0010
1000
,
0010
0000
0001
0010
0001
0000
0100
0000
,
1000
0000
0001
1000
0001
0000
0010
0000
,
0100
0000
0010
1000
0010
0000
0001
0000
,
0010
1001
0000
1000
,
0001
0000
0100
0001
0100
0000
1000
0000
,
0010
0000
1000
0100
0010
0000
0001
0000
,
0010
0000
1000
0010
1000
0000
0001
0000
,
0100
0000
1000
0000
0001
0001
1000
0010
,
0100
0000
0001
0010
0001
0000
0100
1000
,
0100
0000
0010
0100
0010
0000
1000
0000
,
0100
0000
0010
0100
0010
0000
0001
0000
,
0010
0100
0000
0000
0000
0000
1000
0000
,
0001
0000
1000
0010
1000
0000
0001
0000
,
0010
0000
0100
1000
0100
0000
0001
0000
,
0010
0000
1000
0100
0010
0000
0001
0000
,
1000
0000
0010
0000
0100
0000
2002
3003
,
2002
3003
2002
3003
2002
3003
0000
0000
;

//--------------- dance-single - XLev450X-ESP ----------------
#NOTES:
     dance-single:
     XLev450X:
     Hard:
     13:
     0,0,0,0,0:
0000
0000
0000
0000
,
0000
0000
0000
0000
,
0000
0000
0000
0000
,
0000
0000
0000
0000
,
0000
0000
0000
0000
0000
0000
0001
1000
,
0010
0000
1000
0010
1000
0000
0010
0000
0001
0000
0010
0000
0001
0010
0001
0000
,
0010
1000
0010
0000
0010
0100
0010
0000
0001
0010
0001
0000
1000
0000
0001
0000
,
0100
0000
1000
0000
0001
1000
0001
0000
1000
0000
0010
0000
0001
0010
0100
1000
,
0001
0000
0000
0010
0000
0000
0100
0000
0000
1000
0000
0000
0002
0000
0000
0000
0000
0000
1000
0000
0000
0000
0000
0000
2000
0000
0000
0000
0000
0000
0000
0000
3003
0000
0000
0000
0001
0000
0000
0000
0000
0000
1000
0000
0000
0000
0000
0000
,
0010
0100
0000
0001
0010
1000
0001
1000
,
0001
0000
0010
0000
1000
0000
0010
0000
0001
0000
0010
0000
1000
0000
0001
0100
,
0000
0001
0000
1000
0000
0010
0000
1000
0100
0000
0001
0000
0000
0000
0001
0000
,
1000
0001
0010
1000
0001
1000
0001
1000
,
0010
0000
1000
0000
0001
0000
0010
0001
0010
0000
1000
0000
0001
0000
0100
0000
,
1000
0000
0001
0000
0010
0000
1000
0000
0010
0000
0010
0100
0010
0000
0001
0000
,
0010
1000
0001
1000
0001
0000
1000
0001
,
0100
0000
1000
0000
0001
0000
0010
0000
0001
1000
0001
1000
0001
0000
1000
0000
,
0001
0000
0000
0000
0010
0000
0100
0000
1000
0000
0010
1000
0010
0000
0100
0000
,
0101
0000
0010
1000
1010
0000
0010
0100
,
1000
0000
0001
0000
0010
0000
0001
0010
0001
0000
1000
0000
0001
0000
0100
0000
,
1000
0000
0000
0000
0001
0000
0010
0000
1001
0000
0000
0000
1000
0001
0000
0100
,
0000
0010
1000
0001
1000
0010
1000
0010
,
0100
0000
0001
0010
0001
0000
1000
0100
,
1000
0000
0010
0000
1000
0000
0010
1000
0010
0000
0100
0000
0001
0000
1000
0000
,
0001
0000
0010
0000
1000
0000
0001
0000
1000
0001
1000
0000
0001
0000
0000
0100
,
0000
0000
1000
0000
0001
0000
0000
0010
0000
0000
0100
0000
0001
0000
0000
1000
,
0000
0000
0001
0000
0100
0000
0000
1000
0000
0001
0000
0100
0010
0000
0000
0000
,
1000
0000
0001
1000
0010
0000
0100
0000
,
1000
0000
0000
0000
0001
0000
0010
0000
1000
0001
1000
0001
1000
0000
0000
0000
,
0001
0000
0000
0000
0100
0000
0010
0000
1000
0000
0000
0000
0010
0000
0000
0100
,
0000
0000
0001
0000
1000
0000
0000
0001
0000
0100
0000
1000
0001
0000
0000
0000
,
0010
0000
1000
0000
0010
0000
0000
0100
0000
0000
1000
0000
0001
0000
0000
1000
,
0000
0000
0001
0000
0100
0000
1000
0000
0001
1000
0001
1000
0001
0000
0000
1000
,
0000
0000
0010
0000
0100
0000
0001
0000
0010
0000
1000
0000
0001
0000
0000
0100
,
0000
0000
1000
0000
0001
0000
0010
0000
0100
0000
1000
0000
0001
0000
0000
0100
,
0000
0000
1000
0000
0010
0000
0100
0000
1000
0000
0001
0000
0010
0000
0000
0100
,
0000
0000
1000
0000
0001
0000
0010
0000
1000
0000
0001
0000
0100
0000
0000
0001
,
0000
0000
1000
0000
0010
0000
0100
0000
1000
0000
0001
0000
0010
0000
0000
1000
,
0000
0000
0100
0000
0010
0000
1000
0000
0001
0000
0010
0000
0001
0010
0001
0000
,
1000
0010
1000
0000
0010
0100
0010
0000
1000
0000
0001
0000
1000
0001
1000
0000
,
0010
0000
1000
0000
0010
0100
0010
0000
1000
0000
0001
0000
1000
0000
0001
0000
,
0100
0000
1000
0000
0001
0000
0010
0001
0010
0000
1000
0000
0100
0000
1000
0000
,
0001
0100
0010
1000
0010
0000
0010
1000
,
0100
0000
0001
0000
1000
0000
0010
1000
0010
0000
0001
0000
0010
0000
0100
0000
,
1000
0000
0001
0000
0010
0000
0000
0000
1000
0000
0000
0001
1000
0000
0001
0000
,
0100
0000
1000
0000
0010
0000
1000
0010
1000
0000
0001
0000
0100
0000
1000
0000
,
0001
0000
0010
0000
1000
0000
0001
1000
0001
0000
0010
0000
1000
0000
0010
1000
,
0010
0000
0010
0000
0010
0000
0100
0001
0100
0000
0001
0000
1000
0000
0001
0000
,
0100
0000
1000
0000
0001
0000
0010
0000
1000
0001
1000
0001
1000
0000
0010
0000
,
0100
1000
0001
0010
0100
1000
0001
0010
,
1000
0000
0100
0000
0001
0000
1000
0010
1000
0000
0010
0000
0100
0000
1000
0000
,
0001
0000
0010
0000
0100
0000
1000
0000
0001
0000
1000
0001
1000
0000
0010
0000
,
0100
0000
1000
0000
0001
0000
0100
0010
0100
0010
0100
0000
0001
0000
1000
0000
,
0010
0000
0000
0000
1000
0000
0100
0000
1000
0000
0010
1000
0010
0000
0001
0000
,
0010
1000
0001
0010
1001
0000
0010
1000
,
0100
1000
0001
0010
1010
0000
0001
0010
,
0100
0000
1000
0000
0001
1000
0001
0000
1000
0000
0010
0000
1000
0000
0010
0000
,
0100
0000
1000
0000
0001
1000
0001
1000
0220
0000
0000
0000
0000
0000
0000
0000
,
0000
0000
0000
0000
,
0000
0000
0330
0000
;

//--------------- dance-single - XLev450X-CSP ----------------
#NOTES:
     dance-single:
     XLev450X:
     Challenge:
     15:
     0,0,0,0,0:
0000
0000
0000
0000
,
0000
0000
0000
0000
,
0000
0000
0000
0000
,
0000
0000
0000
0000
,
0000
0000
0000
0000
0000
0000
0000
0000
0000
0000
0000
0000
0100
1000
0010
1000
,
0100
0010
0100
0010
0001
0100
0010
1000
0010
1000
0100
0010
0001
1000
0010
1000
,
0100
1000
0001
0010
0100
0010
0001
1000
0010
1000
0100
0010
0001
1000
0100
1000
,
0100
0010
0001
0010
0001
0010
0100
1000
0010
0100
0010
0100
0001
0010
0100
1000
,
0001
0000
0010
0000
0100
0000
1000
0000
0001
0000
0000
0000
1000
0000
0000
0000
2002
0000
0000
0000
0000
3003
0000
0000
0001
0000
0000
0000
1000
0000
0001
0000
,
1000
0000
0010
0000
1000
0000
0010
0001
0010
1000
0001
0010
0100
0000
0001
1000
,
0001
0000
0010
0000
1000
0000
0010
1000
0010
1000
0001
0010
0001
0000
1000
0000
,
0001
0000
0100
0001
0100
0000
0001
0000
1000
0000
0001
1000
0001
1000
0001
0000
,
1000
0000
0001
0000
0010
0000
1000
0001
1000
0001
0010
0100
1000
0000
0001
0000
,
1000
0000
0001
0000
0010
0000
1000
0000
0010
0000
0001
0010
0001
0010
1000
0000
,
0001
0000
0100
0000
1000
0000
0001
0000
0010
0000
1000
0001
1000
0010
0100
0000
,
0001
0000
1000
0000
0010
0000
0001
0010
0001
0000
1000
0000
0100
0000
0001
0000
,
1000
0000
0010
0000
1000
0000
0001
0000
1000
0001
1000
0001
1000
0010
1000
0010
,
0000
0100
0001
0000
1000
0000
0001
0000
0100
0000
1000
0001
1000
0000
0010
0000
,
1000
0000
0010
0000
0100
0000
1000
0000
0001
0000
0010
0001
0010
0000
1000
0010
,
1000
0000
0010
0000
0100
0000
1000
0000
0001
0000
0010
0000
1000
0001
1000
0001
,
0100
0000
1000
0000
0001
0010
0001
0000
1000
0000
0001
0000
0100
0001
0000
1000
,
0000
0000
0010
0000
0100
0000
1000
0000
0001
0000
1000
0010
1000
0010
0100
0010
,
0100
0000
1000
0000
0001
0000
0100
0000
1000
0000
0001
1000
0001
1000
0010
0000
,
0100
0000
1000
0000
0001
0000
0010
0000
0001
0000
1000
0000
0010
1000
0010
0000
,
0010
0100
0010
0000
0001
0010
0001
0000
1000
0001
1000
0000
0001
0000
0100
0000
,
1000
0000
0001
0000
0010
0000
0100
0001
0100
0000
1000
0000
0010
0000
0000
0100
,
0000
0000
0001
0000
1000
0000
0000
0001
0000
0100
0000
1000
0001
0000
1000
0000
,
0010
0000
0100
0010
1000
0000
0010
1000
0010
0000
0001
0000
0010
0000
1000
0000
,
0100
0001
0100
0000
0001
1000
0100
0000
1000
0001
1000
0001
1000
0000
0010
0000
,
0001
0000
1000
0000
0100
0000
0010
1000
0010
0000
0001
0000
0100
0000
0000
0010
,
0000
0000
1000
0000
0001
0000
0000
1000
0000
0010
0000
0001
1000
0000
0001
0000
,
0100
0000
0010
0100
0001
0000
0100
0001
0100
0000
1000
0000
0100
0000
0001
0000
,
0010
1000
0010
0000
1000
0001
0010
0100
1000
0001
0100
0010
1000
0000
0001
0000
,
0100
0000
1000
0000
0001
0000
0010
1000
0010
0000
0100
0000
0001
1000
0000
0001
,
0000
0100
0000
1000
0001
0000
1000
0000
0010
0000
1000
0000
0010
1000
0000
0010
,
0000
0100
0000
0001
0000
1000
0001
0000
1000
0000
0010
0000
1000
0000
0010
0100
,
0000
0001
0000
1000
0010
0000
1000
0000
0001
0000
0010
0000
0001
1000
0000
0001
,
0000
0100
0000
1000
0000
0001
0000
1000
0000
0010
0000
0100
0010
0000
1000
0001
,
0000
0100
0000
1000
0000
0001
0000
0100
0000
0000
1000
0000
0001
0000
1000
0010
,
0000
1000
0000
0001
0000
0100
0000
1000
0000
0001
0000
0000
0001
1000
0010
1000
,
0010
0100
1000
0001
0010
0100
1000
0001
1000
0010
1000
0001
1000
0000
0001
1000
,
0001
0000
0100
0000
0001
0000
0100
1000
0100
0001
1000
0100
0010
0000
1000
0001
,
1000
0000
0100
0000
0001
0000
0100
0001
0100
0001
1000
0100
1000
0000
0001
0000
,
1000
0000
0010
1000
0010
0000
1000
0000
0001
0000
1000
0001
1000
0001
1000
0000
,
0001
0000
1000
0000
0100
0000
0001
1000
0001
1000
0100
0010
0001
0000
1000
0000
,
0001
0000
1000
0000
0100
0000
0001
0000
0100
0000
1000
0100
1000
0100
0001
0000
,
1000
0000
0010
0000
0001
0000
1000
0000
0100
0000
0001
1000
0001
0100
0010
0000
,
1000
0000
0001
0000
0100
0000
1000
0100
1000
0000
0001
0000
0010
0000
1000
0000
,
0001
0000
0100
0000
0001
0000
1000
0000
0001
1000
0001
1000
0001
0000
1000
0000
,
0010
0000
1000
0010
1000
0000
0001
0000
0010
0000
0001
1000
0001
0000
0010
0000
,
0001
0000
0010
0000
0001
0100
0001
0000
1000
0010
1000
0000
0010
0000
0100
0000
,
1000
0000
0001
0010
0001
0000
1000
0000
0001
0000
0100
0001
1000
0000
0001
0000
,
0010
0000
1000
0000
0001
0100
1000
0010
1000
0100
0001
1000
0010
0000
1000
0000
,
0010
0000
1000
0010
1000
0000
0001
0000
0010
0000
1000
0001
1000
0000
0001
0000
,
0010
0000
0100
0000
0001
1000
0001
1000
0010
1000
0010
1000
0001
0000
0010
0000
,
1000
0001
1000
0000
0010
0000
1000
0000
0010
0100
0010
0000
1000
0000
0001
0000
,
0010
0000
1000
0000
0001
0100
0010
1000
0002
0000
0003
0000
0100
1000
0100
0010
,
0100
1000
0001
1000
0100
1000
0001
0100
0010
2002
0000
0000
0000
0000
0000
0000
,
0000
0000
0000
0000
,
0000
0000
3003
0000
;
