#TITLE:華爛漫 -Flowers- (RGR-Special);
#ARTIST:TЁЯRA;
#TITLETRANSLIT:Hana Ranman -Flowers- (RGR-Special);
#ARTISTTRANSLIT:TERRA;
#GENRE:HYPER JAPANESQUE 2;
#MUSIC:Hana Ranman -Flowers- (RGR-Special).ogg;
#BANNER:Hana Ranman -Flowers- (RGR-Special).png;
#BACKGROUND:Hana Ranman -Flowers- (RGR-Special)-bg.png;
#CDTITLE:./CDTITLES/DDR SuperNOVA.png;
#SAMPLESTART:88.497;
#SAMPLELENGTH:15;
#SELECTABLE:YES;
#OFFSET:0.000;
#BPMS:0.000=160;
#STOPS:168.000=1.125;

//--------------- dance-single - STЯXM (Storm & Lev) ----------------
#NOTES:
     dance-single:
     STЯXM (Storm & Lev):
     Challenge:
     16:
     0,0,0,0,0:
0000
0000
0000
0000
,
0000
0000
0000
0000
,
0000
0000
0000
0000
,
0000
0000
0000
0000
,
0000
0000
0000
0000
,
0000
0000
0000
0000
,
1000
0000
0100
0010
0100
0000
1000
0010
1000
0000
0010
0000
0100
0000
0001
1000
,
0100
0000
1000
0010
1000
0000
0100
0010
0001
0000
0010
0000
0100
0000
0010
0000
,
0001
0000
0010
0100
0010
0000
0001
0000
1000
0000
0010
1000
0100
0000
0010
0000
,
0001
1000
0010
1000
0001
0010
1000
0001
0100
0010
0001
1000
0010
0000
0001
0000
,
0010
0000
0100
1000
0001
0000
1000
0000
0010
0000
1000
0100
1000
0000
0010
0000
,
1000
0000
0001
0000
0010
0000
0100
0000
0010
0000
0001
0010
0100
0010
1000
0000
,
0001
0000
0010
0100
0010
0000
0001
0000
0010
0000
0100
0010
0001
0000
0010
0000
,
0100
0000
1000
0000
0001
0000
1000
0000
0100
1000
0010
0100
0001
1000
0010
0100
,
1000
0000
0100
0010
0001
0000
0010
0000
0100
0000
0010
0001
0010
0000
0100
0000
,
0010
0000
0001
0010
0100
0000
1000
0000
0010
0000
1000
0100
1000
0000
0001
0000
,
0010
0000
0100
0010
0001
0000
0010
0000
0100
0000
0001
1000
0010
1000
0010
0100
,
0010
0000
0010
0100
1000
0100
1000
0000
0010
0000
1000
0100
0001
0000
1000
0000
,
0100
0000
0010
0001
0100
0000
0010
1000
0001
0000
0100
0010
1000
0000
0001
0100
,
0010
0000
0001
1000
0010
0000
0100
1000
0001
0000
0100
0010
1000
0000
0001
0000
,
1000
0000
0001
0100
0010
0000
1000
0001
0010
0000
0100
0001
0100
0000
1000
0010
,
0100
0000
0001
1000
0010
0000
0100
0001
0100
0000
1000
0000
0010
0000
0100
0000
,
0001
0000
0010
0001
0010
0000
1000
0010
1000
0000
0001
0100
0010
0000
1000
0001
,
1000
0000
0100
0010
0100
0000
0010
0001
1000
0000
0010
0100
0001
0000
1000
0000
,
0010
0000
0100
0001
1000
0000
0010
0000
0100
0000
0001
1000
0010
0000
0100
0000
,
0002
0000
0003
0000
2000
0000
3000
0000
0100
0000
0020
0000
0000
0000
0000
0030
,
1000
0000
0001
0100
0010
0000
0001
1000
0100
0000
0010
0001
1000
0000
0100
0001
,
0010
0000
0000
0000
0000
0000
1000
0000
0001
0000
1000
0000
0010
0000
0000
0000
0000
0000
0100
0000
0000
0001
0000
0000
0100
0000
0000
0000
0000
0000
0010
0000
0000
1000
0000
0000
0010
0000
0000
0000
0000
0000
0100
0000
0000
0000
0000
0000
,
0001
0000
1000
0010
1000
0000
0001
0100
0010
0000
1000
0100
0001
0000
0010
1000
,
0001
0000
0000
0000
0000
0000
0100
0000
0001
0000
1000
0000
0010
0000
0000
0000
0000
0000
0100
0000
0000
0000
0000
0000
0001
0000
0000
1000
0000
0000
0100
0000
0000
0001
0000
0000
0100
0000
0000
0000
0000
0000
0010
0000
0000
1000
0000
0000
,
0001
0000
0100
1000
0010
0000
0001
1000
0010
0000
1000
0100
0001
0000
1000
0010
,
0100
0000
0000
0000
0000
0000
0010
0000
0001
0000
1000
0000
0010
0000
0000
0000
0000
0000
0100
0000
0000
0010
0000
0000
0100
0000
0000
0000
0000
0000
0001
0000
0000
0000
0000
0000
0100
0000
0000
0000
0000
0000
1000
0000
0000
0000
0000
0000
,
0001
0000
0100
1000
0100
0000
0001
0010
0001
0000
0100
1000
0010
0000
0100
0001
,
1000
0000
0001
1000
0010
0000
0100
0000
0001
1000
0010
0100
0001
1000
0000
0100
,
0020
0000
0000
0030
0002
0000
0000
0003
,
2000
0000
0000
3000
0020
0000
0000
0030
,
0200
0000
0000
0300
0002
0003
2000
3000
,
0200
0000
0000
0000
0000
0000
0300
0000
0020
0000
0000
0030
0100
0000
0001
0000
,
1000
0001
0100
0000
0010
0001
1000
0010
,
0100
0000
0001
0000
1000
0000
0000
0000
0001
0000
1000
0010
0100
0000
1000
0001
,
0010
0000
0001
0000
0010
0000
0000
0000
1000
0000
0001
0000
0100
0000
0000
0001
,
0020
0000
0000
0030
1000
0000
0100
0000
0001
1000
0001
1000
0010
0100
0010
1000
,
0200
0000
0000
0300
0001
0000
1000
0000
0010
0000
0000
0000
0100
0000
0001
0000
,
1000
0000
0000
0000
0010
0000
0100
0001
1000
0000
0010
0000
0100
0000
0000
0000
,
0001
1000
0001
0000
0100
0010
1000
0000
,
0001
0000
0100
0000
0010
0001
1000
0000
0100
0001
0010
0000
0200
0000
0000
0300
,
0001
1000
0010
0000
0100
0001
1000
0000
,
0001
0000
0010
0000
1000
0000
0001
1000
0100
0000
0001
0000
0010
0000
0000
0000
,
0001
1000
0010
0000
0100
0001
1000
0000
,
0010
0000
0100
0000
0001
0000
0000
0010
1000
0000
0001
0000
0020
0000
0000
0030
,
0001
0000
0100
0000
1000
0000
0001
0100
0010
0000
0001
1000
0100
0000
0010
0001
,
1000
0000
0000
0000
0000
0000
0100
0000
0000
0001
0000
0000
0010
0000
0000
0000
0000
0000
1000
0000
0001
0000
1000
0000
0010
0000
0000
0000
0000
0000
0100
0000
0000
0001
0000
0000
0100
0000
0000
0000
0000
0000
0010
0000
0000
1000
0000
0000
,
0010
0000
0100
0000
0001
0000
1000
0010
1000
0000
0001
0100
0010
0000
1000
0100
,
0001
0000
0000
0000
0000
0000
0010
0000
0000
1000
0000
0000
0001
0000
0000
0000
0000
0000
0100
0000
0001
0000
1000
0000
0010
0000
0000
0000
0000
0000
0100
0000
0000
0000
0000
0000
0001
0000
0000
1000
0000
0000
0100
0000
0000
0001
0000
0000
,
0100
0000
0010
1000
0001
0000
0100
1000
0010
0000
0001
1000
0010
0000
1000
0100
,
0001
0000
0000
0000
0000
0000
1000
0000
0000
0010
0000
0000
0100
0000
0000
0000
0000
0000
0010
0000
0001
0000
1000
0000
0010
0000
0000
0000
0000
0000
0100
0000
0000
0010
0000
0000
0100
0000
0000
0000
0000
0000
0001
0000
0000
0000
0000
0000
,
0100
0000
1000
0000
0001
0000
0100
1000
0100
0000
0001
0010
0001
0000
0100
1000
,
0010
0000
0100
0001
1000
0000
0001
1000
0010
0000
0100
0000
0001
1000
0010
0100
,
0001
1000
0010
0100
0010
0000
0001
0000
1000
0000
0010
0000
0000
0100
0000
0000
,
0010
0000
0001
0000
1000
0000
0010
0100
0001
0000
0000
1000
0000
0000
0010
0000
,
0000
0100
0000
0000
0001
0000
1000
0001
0010
0000
0100
0001
1000
0000
0000
0010
,
0000
0000
0100
0000
1000
0010
0001
0000
0011
0000
0100
0000
1010
0000
0100
0000
,
0001
1000
0100
0001
0010
0000
0100
1000
0100
0000
0001
0100
0010
0000
0001
0000
,
0000
1000
0001
0010
1000
0000
0001
0100
1000
0000
0010
0000
0100
0000
0001
0000
,
0000
1000
0000
0000
0010
0000
0100
1000
0001
0000
0010
1000
0001
0000
0100
0000
,
0000
0001
0000
0000
0100
0000
1000
0000
0001
0000
0010
0000
0001
1000
0100
1000
,
0100
0010
0001
1000
0010
0000
0100
0000
0010
0000
0100
0000
0001
0000
1000
0000
,
0010
0000
1000
0000
0100
0010
0001
0010
0001
1000
0100
1000
0020
0000
0000
0000
,
0000
0000
0000
0030
;
