#TITLE:HYPER MACHINE;
#ARTIST:XLev450X vs. Yunosuke and Paisley Parks;
#MUSIC:HYPER MACHINE.ogg;
#BANNER:HYPER MACHINE.png;
#BACKGROUND:HYPER MACHINE-bg.png;
#SAMPLESTART:84.817;
#SAMPLELENGTH:15;
#BPMS:0=160;
#BGSTAGE:15;

//--------------- dance-single - XLev450X-bSP ----------------
#NOTES:
     dance-single:
     XLev450X:
     Beginner:
     3:
     0,0,0,0,0:
0000
0000
0000
0000
,
0000
0000
0000
0000
,
0000
0000
0000
0000
,
0000
0000
0000
0000
,
0000
0000
0000
0000
,
0000
0000
0000
0000
,
0000
0000
0000
0000
,
0000
0000
0000
0000
,
0000
0000
0001
0001
,
0001
0000
1000
1000
,
1000
0000
0010
0010
,
0010
0000
0100
0100
,
0100
0000
0001
1000
,
0001
0000
0010
1000
,
0010
0000
0100
0001
,
0100
0000
1001
0000
,
0000
0000
1000
0000
,
0001
0000
0010
1000
,
0010
0000
0100
0000
,
0010
0000
0001
0001
,
1000
0000
0010
0010
,
0000
0000
1000
1000
,
0000
0000
0001
0001
,
0000
0000
1001
0000
,
0000
0000
0100
0000
,
0010
0000
1000
0000
,
0000
0000
0001
0000
,
0100
0000
0001
0000
,
0000
0000
0010
0000
,
0100
0000
0010
0000
,
0000
0000
1000
0000
,
0010
0000
1000
0000
,
0000
0000
0000
0000
,
0000
0000
0000
0000
,
0000
0000
0000
0000
,
0000
0000
0000
0000
,
0000
0000
0001
0000
,
1000
0000
0010
0000
,
0100
0000
1000
0000
,
0001
0000
1000
0000
,
0000
0000
0010
0000
,
0000
0000
0001
0000
,
0000
0000
0100
0000
,
0000
0000
1000
0000
,
0000
0000
0010
0000
,
0000
0000
0000
0000
,
0000
0000
1000
0000
,
0000
0000
0010
0000
,
0000
0000
0001
0000
,
0000
0000
0000
0000
,
0000
0000
0010
0000
,
0000
0000
0100
0000
,
0000
0000
0010
0000
,
0000
0000
1000
0000
,
0000
0000
0001
0000
,
1000
0000
0000
0000
,
0000
0000
0010
0000
,
1000
0000
0010
0000
,
0000
0000
0001
0000
,
0100
0000
0001
0000
,
0000
0000
0010
0000
,
0100
0000
0010
0000
,
0000
0000
1000
0000
,
0010
0000
1000
0000
,
0000
0000
0001
0000
,
0000
0000
1000
0000
,
0000
0000
0010
0000
,
0000
0000
0100
0000
,
0001
0000
0010
0000
,
0000
0000
1000
0000
,
0000
0000
0010
0000
,
0000
0000
2002
0000
,
0000
3003
0000
0000
;

//--------------- dance-single - XLev450X-BSP ----------------
#NOTES:
     dance-single:
     XLev450X:
     Easy:
     6:
     0,0,0,0,0:
0000
0000
0000
0000
,
0000
0000
0000
0000
,
0000
0000
0000
0000
,
0000
0000
0000
0000
,
0000
0000
0000
0000
,
0000
0000
0000
0000
,
0000
0000
0000
0000
,
0000
0000
0000
0000
,
0000
0000
0001
1000
,
0001
0000
0010
1000
,
0010
0000
0100
0010
,
0001
0010
0100
1000
,
0001
0000
0010
1000
,
0010
0000
0100
0010
,
0100
0000
0001
1000
,
0001
1000
2002
0000
,
0000
3003
0001
0000
,
1000
0000
0010
1000
,
0010
0000
0100
0000
,
0001
0000
0010
0100
,
0001
1000
0001
0000
,
0100
0000
1000
0010
,
0100
0000
0001
0010
,
0001
1000
0202
0000
,
0000
0303
1000
0000
,
0010
0000
0001
0100
,
0001
0000
1000
0000
,
0010
0000
0100
0010
,
0100
0000
0001
0010
,
0100
0000
1000
0100
,
0010
0000
1000
0001
,
1000
0000
0220
0000
,
0000
0330
1001
0000
,
0000
0000
0000
0000
,
0000
0000
0000
0000
,
0000
0000
0000
0000
,
0000
0000
1000
0000
,
0001
0000
0010
1000
,
0010
0000
0100
0001
,
0010
1000
2002
0000
,
0000
3003
0010
0000
,
1000
0100
0010
0000
,
0001
0001
1000
0000
,
0010
0100
0010
0000
,
0001
0000
1000
0000
,
0010
0000
0100
0000
,
0001
0000
1000
0000
,
0001
1000
0010
0000
,
0100
0000
0001
0000
2000
0002
0000
0000
,
0000
0000
0000
0000
,
3003
0000
2020
3030
,
0001
0000
1000
0001
,
0100
0000
0010
0000
,
1000
0010
0100
0000
,
0001
0010
1000
0001
,
0010
0100
2002
0000
,
0000
3003
1000
0000
,
0001
0010
0100
0000
,
1000
0010
0001
0010
,
0100
1000
0001
0000
,
1000
0000
0010
1000
,
0010
0000
0100
0010
,
0100
0000
0001
1000
,
0010
0100
0001
0000
,
1000
0000
0010
0010
,
0100
0000
0001
0001
,
1000
0000
0010
1000
,
0100
0000
0010
0001
,
0010
0000
0100
1000
,
0001
0010
0100
1000
,
0001
0000
0010
0000
1000
0001
1000
0000
,
0010
0100
0010
0000
2002
0000
0000
0000
,
0000
3003
0000
0000
;

//--------------- dance-single - XLev450X-DSP ----------------
#NOTES:
     dance-single:
     XLev450X:
     Medium:
     10:
     0,0,0,0,0:
0000
0000
0000
0000
,
0000
0000
0000
0000
,
0000
0000
0000
0000
,
0000
0000
0000
0000
,
0000
0000
0000
0000
,
0000
0000
0000
0000
,
0000
0000
0000
0000
,
0000
0000
0000
0000
,
0000
0000
0001
1000
,
0010
0100
0001
1000
,
0010
0000
1000
0100
,
0001
0010
1000
0010
,
0100
0000
0010
1000
,
0010
0100
0001
0010
,
1000
0000
0010
0000
0001
0010
0001
0000
,
0010
1000
0010
0000
0002
0000
1000
0000
,
1000
1003
0010
1000
,
0010
0000
0001
1000
,
0001
0100
0010
1000
,
0001
0000
0010
0000
0100
0001
1000
0000
,
0010
1000
0100
0000
1000
0000
0001
0000
,
1000
0100
0010
0001
,
1000
0010
1000
0100
,
0010
0000
0000
0000
0001
0000
0000
0000
0020
0000
0000
1000
0000
0000
1030
0000
,
0001
1000
0001
0000
1000
0000
0001
0000
,
0010
1000
0010
0100
,
0011
0000
1000
0001
,
0100
1000
0010
0100
,
1010
0000
0001
1000
,
0001
0000
0100
0010
,
1000
0000
0000
0000
0010
0100
0010
0000
,
1000
0001
1000
0000
2002
0000
0000
0000
,
0000
3003
1001
0000
,
0000
0000
0000
0000
,
0000
0000
0000
0000
,
0000
0000
0000
0000
,
0000
0000
1000
0001
,
0010
0000
1000
0010
,
0100
0000
0010
0000
0001
0010
0001
0000
,
0010
1000
0010
0000
0022
0000
0000
0000
,
0000
0033
1000
0000
,
0001
0100
0010
0000
,
1000
0100
0001
0010
,
1000
0001
1000
0010
,
0100
0001
0010
0101
,
0000
1010
0000
0110
,
0000
0011
0001
0000
,
1000
0000
0001
0010
,
1000
0000
0010
0000
0100
0010
0000
0000
,
0001
0000
0000
1000
0000
0000
0000
0000
,
0001
0000
0010
0000
0100
0010
0100
0000
,
1000
0000
0000
0001
0000
1000
0000
0000
,
0010
0100
0001
0001
,
1000
0000
0010
1000
,
0100
0000
0000
0000
0010
0100
0010
0000
,
0001
0010
0001
0000
0202
0000
0000
0000
,
0000
0303
1000
0001
,
0010
0100
0010
1000
,
0001
0010
0001
0000
1000
0000
0100
0000
,
0001
0010
1000
0100
,
1010
0000
1000
0010
,
0100
0001
0010
0100
,
1000
0000
0010
0000
1000
0010
1000
0000
,
0001
0100
0001
0000
1000
0000
0010
0000
,
1001
0000
1000
0100
,
0001
0010
0100
1000
,
1010
0000
0010
0100
,
0010
0001
0010
0100
,
0101
0000
0010
1000
,
0001
0010
0100
1000
,
0010
0000
0100
0000
0001
0010
0001
0000
,
1000
0000
0000
0010
0000
0000
1000
0000
0000
0000
0000
0000
0001
0000
0100
0000
1000
0000
0010
0000
0001
0000
0100
0000
,
0001
0100
1000
0020
0000
0000
0000
0000
0000
0000
0000
0000
,
0000
0000
0000
0000
,
0000
0000
0030
0000
;

//--------------- dance-single - XLev450X-ESP ----------------
#NOTES:
     dance-single:
     XLev450X:
     Hard:
     13:
     0,0,0,0,0:
0000
0000
0000
0000
,
0000
0000
0000
0000
,
0000
0000
0000
0000
,
0000
0000
0000
0000
,
0000
0000
0000
0000
,
0000
0000
0000
0000
,
0000
0000
0000
0000
,
0000
0000
0000
0000
,
0000
0000
0000
0000
0001
1000
0010
0100
,
1000
0001
0010
0001
1000
0010
0100
1000
,
0010
0001
0010
0000
1000
0100
1000
0010
,
0100
0001
0010
1000
0001
0100
1000
0010
,
0001
0010
1000
0000
0001
1000
0010
0100
,
1000
0001
0010
0100
1000
0001
0010
1000
,
0001
0000
0100
0000
0010
0000
1000
0000
0100
0010
0100
1000
0010
0100
0001
0100
,
0010
1000
0001
0100
0010
1000
0010
0100
0002
0000
0000
0000
1000
0000
0000
0000
,
1000
0000
1000
1003
0001
0000
1000
0000
,
0010
0100
1000
0010
0001
0010
0100
1000
,
0001
0000
0101
0000
0010
1000
0010
0000
,
0100
1000
0010
0000
0001
1000
0100
1000
,
0001
0010
1000
0000
0001
0000
0100
0000
,
1000
0001
1000
0000
0010
1000
0100
0010
,
0001
0010
1000
0000
0001
0010
0100
1000
,
0001
0000
0010
0000
1000
0000
0001
0000
0100
0000
0000
0001
0000
0000
1000
0000
,
0010
1000
0001
0000
1000
0010
1000
0000
,
0001
0010
0001
0000
0100
1000
0001
0010
,
1000
0001
0100
0000
0010
1000
0010
0000
,
0001
0010
0001
0000
0100
1000
0001
1000
,
0010
1000
0010
0000
0011
0000
1010
0000
,
0010
0100
0010
0000
0110
0000
1010
0000
,
0010
0001
0010
0000
1000
0001
1000
0010
,
0100
0000
0001
0000
1000
0000
0010
0000
1000
0000
0000
0001
0000
0000
0100
0000
,
0010
0000
0000
1000
0000
0000
0001
0000
0020
0000
0000
0000
0000
0000
0030
0000
,
1000
0000
0000
0001
0000
0000
0100
0000
0010
0000
0000
1000
0000
0000
0001
0000
,
0010
0000
0000
0100
0000
0000
1000
0000
0002
0000
0000
0000
0000
0000
0003
0000
,
1000
0000
0000
0010
0000
0000
0100
0000
0001
0000
0000
1000
0000
0000
0010
0000
,
2000
0000
0000
0000
0000
0000
0000
0000
0000
0000
0000
0000
0000
0000
0000
0000
0002
0000
0000
0000
0000
0000
0000
0000
0000
3003
0000
0000
0000
0000
0000
0000
1010
0000
0000
0000
0000
0000
0000
0000
0000
0000
0000
0000
0000
0000
0000
0000
0110
0000
0000
0000
0000
0000
0000
0000
0000
0000
0000
0000
0000
0000
0000
0000
,
0101
1010
0011
1100
,
0101
0000
1010
0000
0010
0001
1000
0100
,
0001
0000
1000
0000
0010
0000
1000
0000
0001
0000
0000
0100
0000
0000
1000
0000
,
0002
0000
2000
3003
0001
0000
1000
0000
,
0010
0100
0010
0000
0001
0010
0001
0000
,
1000
0010
1000
0000
0101
0000
0010
0000
,
1000
0000
0000
0010
0000
0000
1000
0000
0000
0000
0000
0000
0100
0000
0010
0000
0001
0000
0100
0000
0001
0000
0100
0000
,
0001
1000
0100
1000
0010
0100
0001
0000
0000
1000
0000
0000
,
0010
0100
0001
1000
,
0010
0000
0000
1000
0000
0000
0001
1000
0100
0001
0010
1000
,
0100
0001
1000
0010
0001
1000
0100
0010
0001
1000
0001
0100
,
0010
0000
1000
0000
0001
0000
0200
0000
0000
0300
0000
0000
0011
0000
0000
0011
0000
0000
0000
0000
0000
0000
0000
0000
,
1000
0000
0000
0001
0000
0000
0100
0000
,
1000
0000
0010
0000
1000
0010
1000
0000
,
0001
0000
0000
0100
0000
1000
0000
0000
,
0001
0000
0010
0000
1000
0010
1000
0000
,
0010
0001
0010
0000
0100
1000
0100
0000
,
0010
0001
0010
0000
1000
0010
0100
0001
,
0010
0100
1000
0010
1001
0000
1001
0000
,
1001
0000
1001
0000
0010
1000
0100
0010
,
0001
0010
1000
0010
0100
1000
0001
0010
,
0100
1000
0001
0000
0010
1000
0010
0000
,
0001
0010
0001
0000
0100
1000
0100
0001
,
0010
0100
1000
0000
0010
1000
0010
0100
,
0010
0000
0001
0000
0100
1000
0010
0000
,
1000
0010
0100
0000
0010
0001
0010
0100
,
1000
0001
0010
1000
0010
0100
0001
0010
,
1000
0000
0001
0000
0010
1000
0010
0000
,
0010
0000
0100
0000
0001
0010
0001
0000
,
1000
0000
0001
0000
1000
0010
1000
0000
,
0001
0010
0001
0000
0100
0010
0100
0000
,
1000
0010
1000
0000
0001
1000
0010
0100
,
1000
0001
0010
1000
0001
0100
0010
1000
,
0001
1000
0010
0100
1000
0001
0010
1000
,
0001
0000
0000
1000
0000
0000
0010
0000
0000
0001
0100
0000
0010
0000
0001
0000
1000
0000
0100
0000
1000
0000
0001
0000
,
0010
0001
1000
0020
0000
0000
0000
0000
0000
0000
0000
0000
,
0000
0000
0000
0000
,
0000
0000
0030
0000
;
