#TITLE:HOTTEST PARTY;
#GENRE:MEGAMIX;
#MUSIC:HOTTEST PARTY.ogg;
#BANNER:HOTTEST PARTY.png;
#BACKGROUND:HOTTEST PARTY-bg.png;
#SAMPLESTART:2.3;
#SAMPLELENGTH:15;
#BPMS:0=145
,77=130.06
,141=140
,233=130
,300=120
,368.5=150
,548.5=170
;
#STOPS:554.5=0.176
,561.5=0.353
,577=0.529
;
#BGSTAGE:22;
#BGCHANGES:0.000=HOTTEST PARTY.avi=1.000=1=0=0=StretchNoLoop==CrossFade==,
99999.000=-nosongbg-=1.000=0=0=0=StretchNoLoop====
;
#FGCHANGES:;

//--------------- dance-single - ----------------
#NOTES:
     dance-single:
     :
     Challenge:
     16:
     0,0,0,0,0:
0000
0000
0000
0000
,
0000
0000
0000
0000
,
0000
0000
0000
0000
,
0000
0000
0000
0000
,
2000
0010
3002
0100
,
1003
0001
2002
3003
,
0002
0000
0000
0010
0000
0000
0013
0000
2000
0000
0000
0010
0000
0000
3010
0000
,
0020
0000
0000
0100
0000
0000
1030
0000
0200
0000
0000
0010
0000
0000
0310
0000
,
0001
0010
0100
1000
0010
0100
0001
0100
,
0001
0100
0001
0100
0010
0001
1000
0010
0100
0000
0000
0000
0010
0000
0000
0000
,
0001
0000
0000
1000
0100
0000
0010
0000
1000
0000
0001
0000
0010
0000
0100
0000
,
0001
0000
0000
1000
0100
0000
0010
0000
1000
0000
0001
0000
0010
0000
0100
0000
,
1000
0000
0010
0100
0000
0100
0001
0000
1000
0000
0100
0010
0000
0010
0001
0000
,
1000
0000
0100
0001
0000
0100
1000
0000
2002
0000
0000
0000
3003
0000
0000
0000
,
1010
0000
0000
1010
0000
0000
1010
0000
0011
0000
0000
0011
0000
0000
0011
0000
,
1100
0000
0000
1100
0000
0000
1100
0000
0101
0000
0000
0101
0000
0000
0101
0000
,
0010
0100
1000
0010
0100
0001
0010
0100
,
1000
0100
0010
0001
1000
0001
1000
0001
1000
0000
0000
0000
0110
0000
0000
0000
,
0001
0010
1000
0000
0000
0000
1000
0010
0001
0000
0000
0000
0001
0100
1000
0000
,
0000
0000
1000
0100
0001
0000
0000
0000
0000
0000
0000
0000
0000
0000
0000
0000
,
0000
0000
0000
0000
,
0000
0000
0000
0000
,
0000
0000
0000
0000
,
0000
0000
0000
0000
0001
0000
1000
0100
0010
0000
0001
0000
0100
0000
1000
0000
,
0100
0000
0001
0000
1000
0000
0010
0100
0001
0000
1000
0000
0100
0000
0001
0000
,
0100
0000
1000
0000
0010
0000
1000
0100
1000
0000
0010
0000
0100
0000
0001
0010
,
0001
0100
0000
0100
0010
0100
0000
0010
,
0010
0000
0000
0000
1000
0000
0010
1000
0100
0000
0010
0000
0001
0000
1000
0000
,
0100
0000
0001
0000
0100
0000
0010
0001
0100
0000
0010
0000
1000
0000
0001
0000
,
0010
0000
1000
0000
0010
0000
0001
0100
0001
0000
0010
0000
0100
0000
1000
0010
,
1000
0100
0000
0100
0010
0100
0000
0010
,
0010
0000
0000
0000
0001
0000
0000
0001
0000
0000
0101
0000
0000
0000
1000
0000
,
0010
0000
1000
0010
0100
0000
0000
0100
0000
0000
0101
0000
0000
0000
0001
0000
,
1000
0000
0001
0100
0010
0000
0000
0010
0000
0000
1010
0000
0000
0000
1000
0000
,
0010
0000
1000
0001
0100
0000
0000
0100
0000
0000
0110
0000
0000
0000
1000
0000
,
0010
1000
0000
0000
0000
0000
0000
0000
,
0000
0000
0000
0000
,
0000
0000
1000
0100
0010
0000
0001
0100
,
0010
2002
0000
0000
,
3003
0000
0001
0100
0010
0100
0001
0100
,
0010
0000
1000
0100
0010
0100
1000
0100
,
0010
0000
0001
0000
0010
0000
1000
0010
,
0001
0000
1000
0100
0010
0001
0100
0000
,
1001
0000
1000
0010
1000
0010
0000
0010
,
0100
0002
0023
0230
,
2300
0000
0000
0000
3001
0000
0100
0000
0001
0000
0000
0000
1000
0000
0000
0100
,
0000
0000
0010
0000
0001
0000
0000
1000
0000
0000
1000
0000
0001
0000
0000
0000
,
1001
0000
1000
0010
0100
0010
1000
0010
,
0100
0000
0001
0010
0100
0010
0001
0010
,
0100
0000
1000
0000
0100
0000
0001
0100
,
1000
0000
0001
0010
0100
1000
0010
0000
,
1001
0000
0001
0100
0001
0100
0000
0100
,
0010
0000
0000
0000
1000
0000
0000
0000
1000
0000
0100
0000
0010
0000
0000
0001
,
0000
0001
1000
0100
1000
0100
0001
0000
,
0001
0100
2000
0000
0000
0000
0002
0000
,
3003
0000
1001
0000
0001
0100
0001
0100
,
0010
0000
1000
0000
1000
0100
1000
0100
,
0010
0000
0000
0000
1000
0000
0010
0000
0100
0000
0001
0000
1000
0000
0000
0001
,
0000
1001
0000
0000
0000
0000
0000
0000
,
0000
2000
0000
0000
3001
0100
1000
0100
,
0010
0001
0010
2000
0000
3100
0010
0002
,
0000
0000
1003
0000
0010
0100
0001
0000
2000
0000
0000
0000
3100
0000
0001
0000
,
0100
0000
1000
0000
0100
0000
0010
0000
0001
0000
1000
0001
1000
0000
0020
0000
,
0000
2030
0000
0000
3001
0010
1000
0010
,
0100
0001
0100
2000
0000
3010
0100
0002
,
0000
0000
1003
0000
0100
0010
0001
0000
2000
0000
0000
0000
3010
0000
0001
0000
,
0010
0000
1000
0000
0010
0000
0100
0000
0001
0000
1000
0001
1000
0000
0100
0000
,
0100
0010
0001
1000
0010
0100
0001
1000
,
0100
0100
1000
0001
0100
0010
1000
0001
,
0010
0010
0001
1000
0010
0100
0001
1000
,
0100
0100
1000
0001
0100
0010
1000
0011
,
0000
0001
1000
0001
0100
0010
1000
0001
,
0010
0010
0001
1000
0010
0100
0001
1000
,
0100
0100
1000
0001
0100
0010
1000
0001
,
0010
0000
0001
0010
0001
0000
0002
0003
0010
0100
1000
0000
0001
0000
0100
0000
,
0001
0000
0010
0000
0000
0100
0000
0000
1000
0000
0001
0000
0000
0000
0100
0000
,
0000
0000
0010
0000
0000
0001
0000
0000
1000
0000
0001
0000
0000
0000
0010
0000
,
0000
0000
2000
0000
3000
0000
0001
1000
0010
0000
0100
0000
1000
0000
0010
0000
,
1000
0000
0001
0010
0001
0000
1000
0000
0010
0000
0100
1000
0100
0000
0010
0000
,
0100
0000
0002
0000
0000
0000
0003
0000
0010
1000
0100
0000
0001
0000
1000
0000
,
0010
0000
0100
0000
0000
0001
0000
0000
1000
0000
0010
0000
0000
1000
0000
0000
,
0001
0010
0100
1000
0010
0100
0010
0001
,
1000
0000
0020
0000
0030
0000
0100
0000
0001
0000
1000
0010
0100
0000
0001
0000
,
0100
0000
0001
0000
0000
0010
0000
0000
1000
0000
0010
0000
0000
0001
0000
0000
,
0100
0000
0001
0000
0000
0100
0000
0000
1000
0000
0010
0000
0000
0100
0000
0000
,
0001
1000
0001
0100
0010
1000
0001
0100
,
0010
0000
1000
0010
0001
1000
0001
0000
0100
0000
0001
0000
1000
0010
0000
0100
,
0001
0010
0001
1000
0010
0100
0000
0001
,
0000
1000
0000
0010
0100
0001
0000
1000
,
0010
0000
0001
0010
0001
0000
1000
0000
0010
0000
0100
0000
0000
0000
1000
0000
,
0000
0000
0001
0100
0001
0100
0010
0000
1000
0000
0001
0000
0100
0000
0010
0000
,
0000
0000
1000
0100
0001
0000
0100
0000
0010
0000
1000
0000
0001
0010
0100
0001
,
1100
0000
0000
1000
0000
0001
0000
0010
0000
0001
0000
1000
0000
0100
0000
1000
0000
0001
0000
0100
0000
0001
0000
1000
,
0000
0010
0000
2000
0000
0000
0000
0000
0000
0000
0000
0000
0000
0000
0000
0000
0000
0000
0000
0000
0000
0000
0000
0000
,
0000
3002
0000
0000
0000
0000
0000
0003
,
1000
0010
0000
0000
0000
0100
0000
0000
,
0000
0110
0000
1010
0000
0101
0000
1001
,
0000
0000
1000
0000
1000
0001
0000
0001
0000
0010
0000
0100
0000
0010
0001
0000
,
1000
0000
0001
0000
0001
1000
0000
1000
0000
0010
0000
0100
0000
0010
1000
0000
,
0001
0000
1000
0000
1000
0001
0000
0001
0000
1000
0000
0100
0000
0010
0100
0000
,
1000
0000
0001
0000
0001
1000
0000
1000
0000
0001
0000
0100
0000
0010
0100
0000
,
0001
0000
1000
0000
0010
0000
1000
0010
0000
0100
0000
1000
0000
0100
0001
0000
,
0100
0000
0001
0000
0010
0000
0001
0010
0000
0100
0000
0001
0000
0100
1000
0000
,
0100
0000
1000
0000
0010
0000
1000
0010
0000
0001
0000
0010
0000
1000
0010
0000
,
1000
0000
0001
0000
0010
0000
0001
0010
0000
1000
0000
0010
0000
0001
0010
0000
,
0001
0000
1000
0000
0001
0010
0000
1000
0000
0001
0000
0100
0000
0010
0001
0000
,
1000
0000
0001
0000
1000
0010
0000
0001
0000
1000
0000
0100
0000
0010
1000
0000
,
0001
0000
1000
0000
0001
0100
0000
1000
0000
0001
0000
0010
0000
0100
0001
0000
,
1000
0000
0001
0000
1000
0100
0000
0001
0000
1000
0000
0010
0000
0100
1000
0000
,
0001
0000
0100
0000
0000
0110
0000
0000
0101
0000
0000
0000
0000
0000
0000
0000
,
0000
0000
0000
0000
,
0000
0101
0010
1000
0100
0010
0001
0100
,
0010
0000
1000
0000
0010
0000
0100
0000
0001
0010
0100
1000
0100
0000
0010
0000
,
0100
1000
0010
0100
0001
1000
0100
0010
,
0100
0000
2000
0000
0000
0000
0010
0000
0000
0000
3001
0010
0100
1000
0100
0000
,
1000
1010
0100
0001
0010
0100
1000
0010
,
0100
0000
0001
0000
0100
0000
0010
0000
1000
0100
0010
0001
0010
0000
0100
0000
,
0010
0001
0100
0010
1000
0001
0010
0100
,
0010
0001
0110
0000
1100
0001
1000
1001
,
0000
0000
0010
0000
0010
0001
0000
0001
1000
0000
1000
0000
1000
0100
0000
0100
,
0010
0000
0010
0000
0010
0001
0000
0001
1000
0000
2002
0000
0000
0000
3003
0000
,
0000
0000
0100
0000
0100
0001
0000
0001
1000
0000
1000
0000
1000
0100
0000
0100
,
0010
0000
0010
0000
0010
0001
0000
0001
1000
0000
2002
0000
0000
0000
3003
0000
,
0000
0000
0001
0000
0000
1010
0000
0000
0100
0000
0010
0000
0000
0101
0000
0000
,
1000
0000
0001
0000
0000
0011
0000
0000
0100
0000
1000
0000
0000
1100
0000
0000
,
0010
1002
0000
0100
0000
0020
0000
0000
,
0000
0033
0000
1000
0000
0001
0000
1001
,
0000
0000
0100
0000
0100
1000
0000
1000
0100
0000
0100
0000
0100
0010
0000
0010
,
0001
0000
0001
0000
0001
1000
0000
1000
0100
0000
2200
0000
0000
0000
3300
0000
,
0000
0000
0010
0000
0010
0001
0000
0001
1000
0000
1000
0000
1000
0100
0000
0100
,
0010
0000
0010
0000
0010
0001
0000
0001
0010
0000
0011
0000
0100
0000
1000
0000
,
0100
0020
0000
0001
0000
0130
0000
1000
,
0001
0000
0101
0000
0100
0010
1000
0000
0100
0010
0001
0000
0100
0010
1000
0000
,
0100
0010
0001
0000
0000
0000
1001
0000
0000
0000
1000
0002
0000
0010
0000
0000
,
0013
0000
0001
0100
0000
0001
0010
0000
0100
0000
1000
0002
0000
0010
0000
0000
,
0013
0000
1000
0000
0000
0000
1100
0000
0000
0000
0010
0200
0000
0001
0000
0000
,
0310
0000
0001
1000
0000
0010
0100
0000
0001
0000
0020
0100
0000
1000
0000
0000
,
0130
0000
0000
0000
,
0000
0000
0000
0000
,
0000
0000
0000
0000
,
0000
0000
0000
0000
1000
0001
0100
0010
,
1001
0000
0101
0010
0100
1010
0000
0101
,
0000
0011
2001
0000
3010
1100
0000
0110
,
0000
0000
0011
0000
1002
0000
0000
0000
0103
0000
0000
0001
1000
0010
0100
0010
,
1000
0100
0010
0001
0100
0000
0010
0000
0001
1000
0000
1000
0100
0000
0010
0001
,
1000
0000
0010
1000
0100
0000
0010
0000
0001
0100
0000
0100
0010
0000
1000
0100
,
0010
0000
0001
0100
0001
0000
0010
0000
0100
1000
0000
0001
0100
0000
0001
0000
,
0010
0100
0000
1000
0010
0000
0100
0010
1000
0001
0010
0100
1000
0001
0100
0010
,
1000
0001
0010
0100
1000
0001
0010
0000
0001
0100
0000
0010
1000
0000
0001
0010
,
0100
0000
1000
0001
0100
0000
0001
0000
0010
0100
0000
1000
0001
0000
1000
0010
,
0100
0000
0001
1000
0100
0000
0010
0000
0001
1000
0000
0010
1000
0000
0100
0000
,
0010
0001
0000
1000
0100
0000
0010
0001
0100
1000
0100
0010
1000
0001
0010
0100
,
1000
0001
1000
0010
0100
0001
0010
0001
0100
0010
1000
0100
0010
0000
0001
0000
,
0011
0000
0110
0000
1100
0000
1000
0001
0010
0100
1000
0010
0100
0000
0001
0000
,
1001
0000
1010
0000
1100
0000
0010
0001
1000
0001
0000
0100
0010
0000
1000
0100
,
1000
0010
0000
1000
0001
0000
0010
0001
0100
1000
0010
0100
0001
1000
0100
0001
,
1000
0010
0100
1000
0010
0001
0100
0010
1000
0001
0010
0001
1000
0000
0100
0000
,
1100
0000
1001
0000
0101
0000
0010
1000
0100
1000
0001
0010
0001
0000
0100
0000
,
0011
0000
0101
0000
1001
0000
0010
1000
0100
0010
0000
0001
0100
0000
0001
1000
,
0100
0010
0000
0001
1000
0000
0010
0100
0001
1000
0100
0001
1000
0010
0001
0100
,
0010
1000
0001
1000
0100
0010
0110
0000
0000
0000
0000
0000
0011
0000
0001
0100
,
1000
0010
0100
0000
0101
0000
0000
0000
1000
0001
2200
0000
0000
0000
0000
0000
,
0000
0000
0000
0000
,
0000
0000
0000
0000
,
0000
3300
0000
0000
;

//--------------- dance-double - ----------------
#NOTES:
     dance-double:
     :
     Challenge:
     16:
     0,0,0,0,0:
00000000
00000000
00000000
00000000
,
00000000
00000000
00000000
00000000
,
00000000
00000000
00000000
00000000
,
00000000
00000000
00000000
00000000
,
20000000
00000000
00000000
01000000
00000000
00000000
31000000
00000000
00020000
00000000
00000000
00100000
00000000
00000000
00130000
00000000
,
02000000
00000000
00000000
00100000
00000000
00000000
03100000
00000000
00200000
00000000
00000000
00000000
00000000
00000000
00300000
00000000
,
00010000
00000000
00000000
00001000
00000000
00000000
00010000
00000000
00000100
00000000
00000000
00000001
00000000
00000000
00000010
00000000
,
00010000
00000000
00000000
10000000
00000000
00000000
00010000
00000000
00000100
00000000
00000000
00000001
00000000
00000000
00000010
00000000
,
10000000
00010000
01000000
00001000
00000010
00000000
00000100
00000001
,
00000010
00002000
00010000
00010000
00020000
00000000
00033000
00000000
,
20020000
30030000
00000000
10000000
00100000
01000000
00100000
10000000
,
00020000
00000000
00030000
00002000
00003000
01000000
00010000
00100000
,
00001000
00000000
00000000
00000100
00000000
00000000
00000001
00000000
00001000
00000000
00000000
00010000
00000000
00000000
10000000
00000000
,
00100000
00000000
00000000
00010000
00000000
00000000
01000000
00000000
00002000
00000000
00000000
00000000
00003000
00000000
00000000
00000000
,
10000000
00000000
00000000
00010000
00000000
00000000
00100000
00000000
10000000
00000000
00000000
00010000
00000000
00000000
01000000
00000000
,
00001000
00000000
00000000
00000100
00000000
00000000
00000001
00000000
00000010
00000000
00000000
00001000
00000000
00000000
00010000
00000000
,
00000100
00010000
00000010
00010000
00000010
00100000
00001000
00010000
,
00001000
00010000
00000010
00100000
00000010
00100000
00000010
00010000
00002000
00000000
00000000
00000000
00003000
00000000
00000000
00000000
,
10000000
01000000
10000000
00000000
00000000
00000000
00010000
00100000
00010000
00000000
00000000
00000000
00001000
00000100
00001000
00000000
,
00000000
00000000
00000001
00000010
00000002
00000000
00000000
00000000
00000000
00000000
00000003
00000000
00000000
00000000
00000000
00000000
,
00000000
00000000
00000000
00000000
,
00000000
00000000
00000000
00000000
,
00000000
00000000
00000000
00000000
,
00000000
00000000
00001000
00010000
00100000
10000000
00010000
00100000
,
01000000
00001000
01000000
00100000
00010000
10000000
00100000
00010000
,
00001000
00000100
00000001
00000010
00000100
00010000
00000010
00000100
,
00010000
00001000
00000010
00001000
00000100
00010000
00001000
00000000
,
00011000
00000000
00010000
00001000
00000010
00000001
00001000
00000010
,
00000100
00010000
00000100
00000010
00001000
00000001
00000010
00001000
,
00010000
01000000
10000000
00100000
01000000
00001000
00100000
01000000
,
00001000
00010000
00100000
00010000
01000000
00001000
00000000
00001000
,
00010000
00000000
00000000
00000000
00001000
00000000
00000000
00001000
00000000
00000000
00001000
00000000
00000000
00000000
00000010
00000000
,
00000001
00000000
00001000
00000001
00001000
00000000
00000000
00001000
00000000
00000000
00001000
00000000
00000000
00000000
00000100
00000000
,
00010000
00000000
00001000
00010000
00001000
00000000
00000000
00001000
00000000
00000000
00001000
00000000
00000000
00000000
01000000
00000000
,
00010000
00000000
00100000
01000000
00100000
00000000
00000000
00100000
00000000
00000000
00100000
00000000
00000000
00000000
01000000
00000000
,
01000000
00000000
00000000
00000000
,
00000000
00000000
00000000
00000000
,
00000000
00000000
00000010
00000000
00001000
00000010
00001000
00000000
,
00000010
00010000
00002000
00000000
00000000
00000000
00000000
00000000
,
00003000
00000000
10000000
00100000
10000000
00100000
01000000
00100000
,
01000000
00000000
00010000
01000000
00010000
01000000
00001000
00010000
,
00001000
00010000
00001000
00000010
,
00001000
00010000
01000000
00010000
,
00001000
00000000
00000010
00000100
00001000
00000000
00000100
00000000
,
00010000
00000000
00001000
01000000
00010000
00000000
00100000
00000000
,
01000000
00000000
00000000
00000000
00010000
00000000
00000000
00000000
01000000
00000000
00100000
00000000
00010000
00000000
00000000
00010000
,
00000000
00000000
01000000
00000000
00001000
00000000
00000000
00001000
00000000
00000000
00010000
00000000
00000100
00000000
00000000
00000000
,
00000110
00000000
00000001
00000010
00000001
00000010
00000100
00000010
,
00000100
00000000
00001000
00000100
00001000
00000100
00010000
00001000
,
00010000
00001000
00010000
00100000
,
00010000
00001000
00000100
00001000
,
00010000
00000000
00100000
01000000
00010000
00000000
01000000
00000000
,
00001000
00000000
00010000
00000100
00001000
00000000
00000010
00000000
,
00000100
00000000
00001000
00000000
00000100
00000010
00001000
00000000
,
00000100
00000010
00000001
00000000
00000100
00000000
00001000
00000000
,
00010000
00000000
00011000
00000000
00001000
01000000
00001000
01000000
,
00010000
00000000
00100000
00000000
01000000
10000000
01000000
10000000
,
00010000
00000000
00000000
00000000
00010000
00000000
00001000
00000000
01000000
00000000
00010000
00000000
00100000
00000000
00000000
01000000
,
00000000
01100000
00000000
00000000
00000000
00000000
00000000
00000000
,
00000000
00002000
00000000
00000000
00003010
00000100
00001000
00010000
,
00100000
00010000
00001000
00000200
00000000
00001300
00010000
00200000
,
00000000
00000000
10300000
00000000
00010000
10000000
00010000
00000000
02000000
00000000
00000000
00000000
03010000
00000000
00100000
00000000
,
10000000
00100000
00001000
00010000
00000010
00001000
00100000
20000000
,
00000000
30020000
00000000
00000000
00130000
01000000
00010000
00001000
,
00000010
00001000
00010000
02000000
00000000
03010000
00001000
00000020
,
00000000
00000000
00000031
00000000
00001000
00000001
00001000
00000000
00000200
00000000
00000000
00000000
00001300
00000000
00000010
00000000
,
00000001
00000000
00000010
00000000
00001000
00000000
00010000
00000000
01000000
00000000
00001000
00010000
00000010
00000000
00001000
00000000
,
00001000
00000100
00010000
00001000
01000000
00010000
10000000
00100000
,
01000000
01000000
00001000
00010000
00000100
00001000
00000001
00000010
,
00000100
00000100
00000010
00001000
00010000
00001000
01000000
00100000
,
10000000
00010000
01000000
00001000
00010000
00000010
00001000
00000110
,
00000000
00000010
00010000
00001000
00100000
00010000
10000000
01000000
,
00100000
00100000
00001000
00010000
00000010
00001000
00000001
00000100
,
00000010
00000010
00000100
00001000
00010000
00001000
00100000
01000000
,
10000000
00010000
00100000
20020000
00000000
30030000
00010000
01000000
,
00010000
00000000
00000100
00000000
00000000
00000001
00000000
00000000
00001000
00000000
00010000
00000000
00000000
00000000
01000000
00000000
,
00000000
00000000
00020000
00000000
00000000
10000000
00000000
00000000
10000000
00000000
10030000
00000000
00000000
00000000
01100000
00000000
,
00000000
00020000
00000000
00000000
00002000
00000000
00033000
00000110
,
00000000
00000000
00000001
00000010
00000001
00000000
00001000
00000000
00100000
00000000
10000000
01000000
10000000
00000000
00100000
00000000
,
00001000
00000000
00000002
00000000
00000000
00000000
00000000
00000003
00010000
00000000
10000000
00000000
00100000
00000000
00010000
00000000
,
00001000
00000020
00000000
00000000
00000100
00002000
00000000
00003030
,
00000001
00002000
00000000
00000000
00013000
20000000
00000000
00000000
,
31000000
00000000
00022000
00000000
00000000
00000000
00000000
00000000
00033000
00000000
10000000
01000000
00010000
00000000
00000100
00000000
,
00000001
00000020
00000000
00000030
00001000
00020000
00000000
00030000
,
10000000
02000000
00000000
03000000
00010000
00002000
00000000
00003200
,
00000300
00022000
00000000
00000000
00000000
00000000
00000000
00000000
,
00000000
00000000
00000000
00000000
00000000
00000000
00000000
00033000
,
00000000
10000000
00010000
01000000
00010000
02000000
00000000
03100000
,
00000000
00020000
00000000
10030000
00000000
00010000
00001000
00000010
,
00000001
00000010
00001000
00100000
10000000
02000000
00000000
03100000
,
00000000
00010000
00001000
00000001
00000100
00000010
00001000
00100000
,
00010000
00000000
00001000
00010000
00100000
00000000
00010000
00000000
00000010
00000000
00000100
00000000
00000010
00000000
00000001
00000010
,
00000001
00000000
00000000
00010000
00000000
00001000
00000000
00100000
00000000
00001000
00000000
00010000
00000000
00000100
00000000
00010000
00000000
00001000
00000000
01000000
00000000
00001000
00000000
00010000
,
00000000
00000010
00000000
00002000
00000000
00000000
00000000
00000000
00000000
00000000
00000000
00000000
00000000
00000000
00000000
00000000
00000000
00000000
00000000
00000000
00000000
00000000
00000000
00000000
,
00000000
00003002
00000000
00000000
00000000
00000000
00000000
00000003
,
00001000
00000010
00000000
00000000
00000000
00000100
00000000
00000000
,
00000000
00000110
00000000
00001010
00000000
00010010
00000000
00011000
,
00000000
00000000
00001000
00000000
00001000
00010000
00000000
00010000
00000000
00100000
00000000
01000000
00000000
00100000
10000000
00000000
,
00100000
00000000
00010000
00000000
00010000
00001000
00000000
00001000
00000000
00000100
00000000
00000010
00000000
00000100
00000001
00000000
,
00000100
00000000
00001000
00000000
00001000
00010000
00000000
00010000
00000000
00100000
00000000
10000000
00000000
00100000
01000000
00000000
,
00100000
00000000
00010000
00000000
00010000
00001000
00000000
00001000
00000000
00000100
00000000
00000001
00000000
00000100
00000010
00000000
,
00000100
00000000
00000001
00000000
00000010
00000000
00000001
00000010
00000000
00001000
00000000
00010000
00000000
00001000
00010000
00000000
,
01000000
00000000
00100000
00000000
00010000
00000000
00100000
00010000
00000000
00001000
00000000
00000100
00000000
00001000
00000100
00000000
,
00000010
00000000
00000001
00000000
00000010
00000000
00000001
00000010
00000000
00000100
00000000
00001000
00000000
00010000
00100000
00000000
,
00010000
00000000
10000000
00000000
01000000
00000000
10000000
01000000
00000000
00100000
00000000
00010000
00000000
00001000
00000100
00000000
,
00001000
00000000
00000001
00000000
00001000
00000010
00000000
00001000
00000000
00010000
00000000
01000000
00000000
00001000
01000000
00000000
,
00001000
00000000
00100000
00000000
00010000
00100000
00000000
00010000
00000000
00001000
00000000
00000100
00000000
00010000
00000100
00000000
,
00010000
00000000
00000100
00000000
00001000
00000100
00000000
00001000
00000000
00010000
00000000
00100000
00000000
00001000
00010000
00000000
,
00001000
00000000
01000000
00000000
00010000
01000000
00000000
00010000
00000000
00001000
00000000
00000010
00000000
00010000
00001000
00000000
,
00010000
00000000
00001000
00000000
00000000
01010000
00000000
00000000
01001000
00000000
00000000
00000000
00000000
00000000
00000000
00000000
,
00000000
00000000
00000000
00000000
,
00000000
00010010
00001000
00000100
00000001
00000100
00001000
00000001
,
00000010
00000000
00001000
00000000
00010000
00000000
00001000
00000000
00100000
00010000
00100000
01000000
10000000
00000000
00100000
00000000
,
01000000
00010000
00100000
10000000
00010000
01000000
00010000
00001000
,
00000100
00000000
00000020
00000000
00000000
00000000
00000100
00000000
00000000
00000000
00001030
00000100
00001000
00000100
00010000
00000000
,
00000000
01001000
00010000
00100000
10000000
00100000
00010000
10000000
,
01000000
00000000
00010000
00000000
00001000
00000000
00010000
00000000
00000100
00001000
00000100
00000010
00000001
00000000
00000100
00000000
,
00000010
00001000
00000100
00000001
00001000
00000010
00001000
00010000
,
00100000
00010000
00011000
00000000
00010100
00100000
10000000
10010000
,
00000000
00000000
00100000
00000000
00100000
10000000
00000000
10000000
01000000
00000000
01000000
00000000
01000000
00100000
00000000
00100000
,
00001000
00000000
00001000
00000000
00001000
00010000
00000000
00010000
00001000
00000000
00022000
00000000
00000000
00000000
00033000
00000000
,
00000000
00000000
00000100
00000000
00000100
00000010
00000000
00000010
00000001
00000000
00000001
00000000
00000001
00000100
00000000
00000100
,
00000010
00000000
00000010
00000000
00000010
00001000
00000000
00001000
00000001
00000000
00002002
00000000
00000000
00000000
00003003
00000000
,
00000000
00000000
00000010
00000000
00000000
00000101
00000000
00000000
00001000
00000000
00010000
00000000
00000000
00010100
00000000
00000000
,
00001000
00000000
00010000
00000000
00000000
01010000
00000000
00000000
00100000
00000000
00010000
00000000
00000000
11000000
00000000
00000000
,
00100000
10020000
00000000
00100000
00000000
00002000
00000000
00000000
,
00000000
00033000
00000000
00000010
00000000
00000100
00000000
00001001
,
00000000
00000000
00000010
00000000
00000010
00000001
00000000
00000001
00000100
00000000
00000100
00000000
00000100
00001000
00000000
00001000
,
00010000
00000000
00010000
00000000
00010000
00100000
00000000
00100000
01000000
00000000
02200000
00000000
00000000
00000000
03300000
00000000
,
00000000
00000000
10000000
00000000
10000000
01000000
00000000
01000000
00010000
00000000
00010000
00000000
00010000
00001000
00000000
00001000
,
00000010
00000000
00000010
00000000
00000010
00000001
00000000
00000001
00001000
00000000
00001100
00000000
00000001
00000000
00000010
00000000
,
00000001
00002000
00000000
00000001
00000000
00003010
00000000
00010000
,
00001000
00000000
00011000
00000000
00001000
00010000
00000100
00000000
00010000
00001000
01000000
00000000
00001000
00010000
00000010
00000000
,
00010000
00001000
00100000
00000000
00000000
00000000
10010000
00000000
00000000
00000000
10000000
02000000
00000000
00100000
00000000
00000000
,
03100000
00000000
00010000
01000000
00000000
00010000
00100000
00000000
01000000
00000000
00010000
00002000
00000000
00000010
00000000
00000000
,
00003010
00000000
00000100
00000000
00000000
00000000
00001100
00000000
00000000
00000000
00000010
00000200
00000000
00000001
00000000
00000000
,
00000310
00000000
00001000
00000001
00000000
00000100
00000010
00000000
00000100
00000000
00002000
00010000
00000000
00100000
00000000
00000000
,
01003000
00000000
00000000
00000000
,
00000000
00001001
00000000
00000010
00000000
00001000
00000000
00000100
,
00000010
00000001
00000100
00001000
,
00010000
00011000
00010000
00100000
,
10000000
00000000
01000000
00000000
00100000
00010000
00001000
00000000
,
00000010
00000000
00000100
00000000
00000001
00000100
00000010
00000000
,
00000001
00000000
00000000
00001000
00000000
00000000
00010000
00000000
00000000
01000000
00100000
10000000
,
01000000
00000000
00000000
00000000
00000000
00000000
00000000
00000000
00100000
00000000
00000000
00000000
01000000
00000000
00000000
00000000
00000000
00000000
00001000
00000000
00000000
00000000
00000000
00000000
00000000
00000000
00000000
00000010
00000000
00000000
00000000
00000000
00000000
00000000
00000000
00000000
00001010
00000000
00000000
00000000
00000000
00000000
00000000
00000000
00000000
00000000
00000000
00000000
,
00010000
00000000
00100000
00000000
10000000
00000000
00010000
00000000
00000000
01000000
00000000
00000000
01010000
00000000
00000000
00000000
,
00100000
10000000
01000000
00010000
01000000
10000000
00100000
10000000
,
01000000
00000000
00010000
00000000
00000000
00000000
01000000
00100000
01000000
00100000
00001000
00010000
00001000
00010000
00000010
00000100
,
00000010
00000100
00000001
00001000
00000001
00001000
00000100
00000000
00000000
00000010
00000000
00000000
00000110
00000000
00000000
00000000
,
00000001
00000000
00001000
00000000
00000100
00000000
00010000
00000000
00000000
00100000
00000000
00000000
10100000
00000000
00000000
00000000
,
00100000
01000000
00010000
10000000
01000000
00100000
01000000
00010000
,
00001000
00000000
00100000
00000000
00000000
00000000
00010000
01000000
00010000
01000000
00001000
00010000
00001000
00010000
00000100
00001000
,
00000100
00001000
00000001
00000010
00000001
00000010
00000100
00000000
00000000
00000010
00000000
00000000
00000110
00000000
00000001
00000000
,
00000100
00000000
00000010
00000000
00001000
00000000
00000100
00000000
00000000
00000010
00000000
00000000
00001001
00000000
00001000
00000000
,
00000010
00000001
00000100
00001000
00000100
00000001
00000010
00000001
,
00000100
00000000
00001000
00000000
00000000
00000000
00000100
00000010
00000100
00000010
00010000
00001000
00010000
00001000
00100000
01000000
,
00100000
01000000
10000000
00010000
10000000
00010000
01000000
00000000
00100000
00000000
10000000
00000000
00100000
00000000
01000000
00000000
,
00010000
01000000
00100000
00010000
00001000
00000010
00001000
00010000
,
00001000
00000000
00000100
00000000
00000001
00000000
00001000
00000100
00001000
00000100
00010000
00001000
00010000
00001000
01000000
00010000
,
01000000
00010000
10000000
00100000
10000000
00100000
20000000
00000000
00000000
00000000
30020000
00000000
00000000
00000000
00130000
00010000
,
01000000
00100000
10000000
00010000
00100000
01000000
10000000
00000000
00000000
00000000
00000000
00000000
01000000
00000000
00010000
00001000
,
00010000
00000000
00000110
00000000
00001001
00000000
00000000
00000000
00000100
00000020
00000200
00000000
00000000
00000000
00000000
00000000
,
00000000
00000000
00000330
00000000
;
