#TITLE:HOTTEST PARTY 2;
#GENRE:MEGAMIX;
#MUSIC:HOTTEST PARTY 2.ogg;
#BANNER:HOTTEST PARTY 2.png;
#BACKGROUND:HOTTEST PARTY 2-bg.png;
#SAMPLESTART:2.551;
#SAMPLELENGTH:15;
#BPMS:0=135
,72=140
,151=107.7
,152=102
,153=100
,185=170
,249=169.78
,314=157
,381=128
,437=143.55
,442.5=143.76
,500.5=175
,569=192;
#BGCHANGES:0=HOTTEST PARTY 2.mp4=1.000=1=0=0=StretchNoLoop==CrossFade==,
99999.000=-nosongbg-=1.000=0=0=0=StretchNoLoop====;
#BGSTAGE:22;

//--------------- dance-single - Fred-104 & KONAMI [X-WORLD]-CSP ----------------
#NOTES:
     dance-single:
     Fred-104 & KONAMI [X-WORLD]:
     Challenge:
     17:
     0,0,0,0,0:
0000
0000
0000
0000
,
0000
0000
0000
0000
,
1100
0000
0010
0000
0001
0000
0010
0000
0000
0000
0100
0000
0000
1000
0100
0000
,
0010
0001
0010
1000
0010
0100
1000
0010
,
0011
0000
0001
0010
1000
0100
0010
0001
,
0010
0001
0100
1000
0000
1000
0100
0001
,
0101
0000
0100
0000
1000
0000
0100
0000
0000
0000
0010
0000
0000
0001
0010
0000
,
0100
1000
0100
0001
0000
0100
1000
0100
,
0010
0100
1000
0010
0100
0010
0001
0010
,
1000
0001
1000
0001
1000
0001
0100
0010
1000
0001
0000
0000
,
0011
0000
0100
0000
1000
0000
0100
0000
0000
0000
0010
0000
0000
0001
0010
0000
,
0100
1000
0100
0001
0100
0010
0001
0100
,
1100
0000
1000
0100
0011
0010
0100
1000
,
0100
1000
0010
0001
0000
0001
0010
1000
,
1010
0000
0010
0000
0001
0000
0010
0000
0000
0000
0100
0000
0000
1000
0100
0000
,
0010
0001
0010
1000
0000
0010
0001
0010
,
0100
0000
0001
0100
0010
0000
1000
0010
,
0011
0010
0100
0010
1100
0100
0010
0100
,
1001
0000
0000
0000
1100
0000
0010
0000
0001
0000
0100
0001
0000
0010
0001
0000
,
0010
0000
0000
0000
0101
0000
0010
0000
1000
0000
0100
1000
0000
1000
0010
0000
,
0100
0000
0000
0000
0011
0000
0100
0000
1000
0000
0100
1000
0000
0010
1000
0000
,
1010
0000
0000
0000
0101
0000
0001
0000
0010
0000
0100
1000
0000
0001
0010
0000
,
0011
0000
MMMM
0000
0010
0000
0100
0000
0001
0000
1000
0010
0000
1000
0100
0000
,
1100
0000
MMMM
0000
0100
0000
0001
0000
0010
0000
0100
0010
0000
0010
0001
0000
,
1001
0000
MMMM
0000
0100
0000
0010
0000
0001
0000
0100
0001
0000
1000
0010
0000
,
1010
0000
MMMM
0000
0101
0000
0001
0000
0010
0000
0100
1000
0000
0001
0010
0000
,
0000
0110
0100
1000
MMMM
1010
1000
0101
,
MMMM
0011
0001
0100
MMMM
0110
1000
1100
,
MMMM
1001
0001
0010
MMMM
0110
0010
0101
,
MMMM
1010
0010
0100
MMMM
1100
0001
0010
,
1001
0100
0001
0010
1000
0100
1000
0010
,
1001
0100
0010
0001
0100
0001
0010
1000
,
1100
0100
0010
0001
0101
0100
0010
1000
,
1100
MMMM
1001
MMMM
0110
MMMM
1001
0100
,
0210
0000
0301
0010
1000
0010
0001
0100
,
2001
0000
3100
0010
0001
0010
0100
1000
,
1020
0000
0031
1000
0100
0001
0100
0010
,
1002
0000
0103
MMMM
2001
0000
3100
MMMM
,
0100
0000
0000
0000
1000
0000
0001
0010
0100
0000
0010
0000
0001
0000
1000
0010
,
0100
0000
0010
0000
1000
0000
0100
0010
0001
0010
0001
0010
0001
0000
0000
0000
,
0100
0000
0010
0000
1000
0000
0100
0010
0100
0000
1000
0000
1001
0000
0000
0000
,
0001
0000
0100
0000
0010
0000
1000
0010
0100
0001
0100
0001
1000
0100
1000
0100
,
0010
0000
0001
0000
1000
0000
0010
1000
0010
0000
0100
0000
0001
0000
0010
0001
,
0010
0000
0001
0000
0100
0000
0010
1000
0001
0000
0010
0001
1000
0000
0000
0002
,
0000
0000
1003
0000
0100
0000
0010
0001
0010
0000
0000
0000
0002
0000
0000
1003
,
0010
0100
0001
0010
0100
0000
0010
0001
0010
0100
1000
0000
0001
0100
0001
0100
,
0010
1000
0010
1000
0001
0000
1000
0001
0100
0000
0001
0000
0010
0001
1000
0000
,
0010
0000
0100
0001
1000
0000
0100
0010
0001
0000
1000
0000
0010
1000
0100
0000
,
1000
0000
0010
0100
0001
0000
0100
0001
0010
0000
0100
0000
1000
0010
0100
0000
,
0010
0000
1000
0001
0100
0000
0001
0010
0100
0000
1000
0000
0010
1000
0100
0000
,
0010
0000
0001
0000
1000
0000
0001
1000
0100
0000
0010
0000
0001
0100
0010
0000
,
0100
0000
0001
0010
0100
0000
1000
0010
0100
0000
0010
0000
1000
0010
0100
0000
,
0001
0000
1000
0000
0001
0000
0100
0001
0010
0000
0100
0000
1000
0100
0010
0000
,
0001
0000
1000
0001
0100
0000
0001
1000
0010
0000
1000
0000
0100
0000
0010
0000
,
0001
0000
1000
0000
0001
0000
1000
0000
0000
0000
0000
0000
0001
0000
0000
0100
0000
0000
0001
0000
0000
0100
0000
0000
0001
0000
0000
0000
0000
0000
1000
0000
0000
0100
0000
0000
1000
0000
0000
0100
0000
0000
1000
0000
0000
0000
0000
0000
,
0010
0100
0010
0000
1000
0010
1000
0000
0010
0100
0010
0000
1000
0100
0010
0001
,
1000
0000
0001
0000
0100
0001
0100
0001
0100
0000
0010
0100
0010
0100
0010
0000
,
1000
0010
1000
0000
0001
0010
0001
0010
0100
0000
1000
0010
1000
0010
0100
0000
,
0001
0000
2000
3002
1003
0000
0010
1000
0001
0000
0010
0100
1000
0000
0100
0000
,
0010
0000
0010
0000
0001
0000
0010
0001
1000
0000
0010
1000
0100
0000
1000
0000
,
0001
0000
0001
0000
1000
0100
1000
0000
0001
0100
0001
0000
1000
0100
1000
0100
,
0010
0001
0010
0001
0010
0000
1000
0000
0010
0000
0100
0000
0001
0000
1000
0000
,
0100
0000
0110
0000
1001
0000
0001
0100
,
0001
0010
0100
0110
0000
1100
0001
0010
,
0100
1000
1100
0000
0101
0000
1000
0100
,
0010
0001
0100
0110
0000
1010
0001
1000
,
0010
0100
0101
0000
1010
0000
0001
1000
,
0100
0010
0001
0011
0000
0110
1000
0010
,
0100
0001
0101
0000
1100
0000
0001
0010
,
0100
1000
0010
1000
0100
0001
1000
0010
,
0001
0100
0110
0000
1010
0000
1000
0100
,
1000
0010
0100
0110
0000
0101
1000
0010
,
0100
0001
0011
0000
0110
0000
0001
0100
,
0010
1000
0100
0110
0000
0011
1000
0001
,
0100
0010
1010
0000
0101
0000
1000
0001
,
0010
0100
1000
1100
0000
0110
0001
0100
,
0010
1000
1010
0000
0011
0000
1000
0100
,
0010
0001
0100
0001
0100
1000
0001
0010
,
1000
0100
1020
0000
0001
0000
0100
0000
,
0130
0000
0000
0000
1000
0010
0100
0001
1000
0000
0001
0000
0010
0000
0100
0010
,
0001
0000
0100
0000
0001
0010
0100
1000
0001
0000
1000
0000
0010
0000
0100
0010
,
1000
0000
1000
1000
0010
0100
0100
0001
,
0010
0100
0020
0000
0000
0001
0031
0000
,
1001
0000
0000
0000
0001
0100
0010
1000
0001
0000
1000
0000
0100
0000
0010
0100
,
1000
0000
0010
0000
1000
0100
0010
0001
1000
0000
0001
0000
0100
0000
0010
0100
,
0001
0000
0001
0001
0100
0010
0010
1000
,
0100
0000
0010
0000
0001
0000
0000
0001
0000
0000
0001
0000
1000
0000
0000
0000
,
1001
0000
0000
0000
0001
0010
0100
0010
0001
0000
1000
0010
0100
0010
1000
0000
,
0001
0100
0010
0000
0000
0000
1010
0000
0000
0000
1000
0010
1000
0000
0001
0000
,
1001
0000
0000
0000
0001
1000
0010
1000
0001
0000
0100
0000
0010
1000
0001
0100
,
0001
0000
0010
0000
0100
0000
1000
0010
1000
0000
0001
0010
0001
0000
0000
0000
,
1001
0000
0000
0000
1000
0100
1000
0100
0010
0000
0001
0000
0010
0100
1000
0001
,
0010
0000
0000
0000
0001
0100
0001
0100
0010
0000
1000
0000
0010
0100
0001
1000
,
0010
0000
0000
0000
1000
0000
0001
0010
0100
0000
1000
0010
0100
0000
0001
0100
,
0010
1000
0010
1000
0010
0000
0000
0110
0000
0000
0000
0000
0000
0000
0000
0000
,
0000
0000
0000
0000
1000
0100
0000
0000
0001
0010
0000
0000
1000
0100
0000
0000
,
0001
0010
0000
0000
0001
0100
0000
0000
1000
0010
0000
0000
0001
0100
0000
0000
,
0001
0000
1000
0000
0001
0010
0000
0000
0001
0010
0100
0001
0100
0010
0000
0000
,
0001
0000
0000
0000
1000
0010
0000
0000
1000
0010
0100
1000
0100
0010
0000
0000
,
1000
0000
0000
0000
1000
0010
0000
0000
1000
0010
0000
0000
1000
0100
0000
0000
,
1000
0100
0000
0000
0001
0000
0010
0000
0001
0000
0010
0000
0001
0000
0100
0000
,
0001
0100
0010
0100
0001
0000
0000
0100
0010
0000
0000
0000
1000
0000
0000
0001
,
0010
0000
0000
0000
0100
0000
0000
0010
0100
0000
0000
0000
1000
0000
0000
0001
,
1000
0000
0100
0000
0010
0000
0000
0100
0010
0000
0000
0000
0001
0000
0000
1000
,
0001
0000
0000
0000
0110
0000
0000
0000
1010
0000
0000
0000
0001
0000
0000
1000
,
0001
0000
1000
0000
0100
0000
0000
0010
0100
0000
0000
0000
1000
0000
0000
0001
,
1000
0000
0000
0000
0001
0000
0000
0100
0010
0000
0000
0000
1000
0000
0000
0001
,
1000
0000
0001
0000
0100
0000
0000
0010
0100
0000
0000
0000
0001
0000
0000
1000
,
0001
0000
1000
0000
0011
0000
0000
0000
1100
0000
0000
0000
1000
0000
0000
0001
,
1000
0000
0010
0000
1010
0000
0000
1001
0000
0000
1001
0000
0000
0000
0000
0000
,
0000
0000
0000
0000
0110
0000
0000
1001
0000
0000
1001
0000
0000
0000
0000
0000
,
0000
0000
0000
0000
0100
0000
0000
0001
1000
0000
0100
0000
0010
0000
0000
0001
,
1000
0000
0010
0000
0100
0000
0000
0001
1000
0000
0100
0000
0001
0000
0000
1000
,
0001
0000
0010
0000
0100
0000
0000
1000
0100
0000
1000
0000
0001
0000
0000
1000
,
0100
0000
1000
0000
0010
0000
0000
1000
0001
0000
0010
0000
0100
0000
0000
0100
,
0000
0000
0100
1000
0100
0000
0000
1000
0001
0000
0100
0000
0010
0000
0000
1000
,
0001
0000
0010
0000
0100
0000
0000
1000
0001
0000
0100
0000
1000
0000
0000
0001
,
1000
0000
0010
0000
0100
0000
0000
0001
0100
0000
0001
0000
1000
0000
0000
0001
,
0100
0000
0001
0000
0010
0000
0000
0001
1000
0000
0010
0000
0100
0000
0000
0100
,
0000
0100
0010
0000
1100
0000
0010
0000
,
0101
0000
0000
0000
1000
0100
0010
0001
0010
0000
0000
0000
0001
0000
0000
0010
,
0001
0000
0000
0001
0100
0000
0000
0100
0001
0000
0000
0001
0100
0000
0000
0100
,
0010
0000
0000
0010
1000
0000
0000
1000
0010
0000
0000
0010
0100
0000
0000
0100
,
0010
0000
0000
0001
0100
0000
0000
0000
0011
0000
0000
0000
0110
0000
0000
0000
,
1010
0000
0000
0000
0001
0010
0100
1000
0100
0000
0000
0000
0000
0000
0000
0000
,
0000
0000
0000
0110
,
1001
0000
0000
0000
1000
0000
0100
0000
0010
0000
0011
0000
0000
0000
0001
1000
,
0100
0000
1000
0000
0010
0000
0100
0000
0001
0000
0101
0000
0000
0000
1000
0100
,
0010
0000
0001
0000
1000
0000
0100
0000
1000
0000
1100
0000
0000
0000
0001
1000
,
0010
0000
0100
0000
0001
0000
1000
0000
0010
0000
1010
0000
0000
0000
1000
0100
,
0010
0000
0010
0000
0001
0000
0100
0000
0010
0000
0110
0000
0000
0000
0001
0100
,
0001
0000
0010
0000
0100
0000
1000
0000
0001
0000
1001
0000
0000
0000
1000
0010
,
1000
0100
0001
0100
0001
0100
1000
0010
,
1000
0010
1010
0100
0001
0101
0000
1001
,
0001
1000
0001
1000
0001
0000
0010
0000
0100
0000
1001
0000
0000
0000
1000
0001
,
0010
0000
0001
0000
0100
0000
0010
0000
1000
0000
0110
0000
0000
0000
0001
0010
,
0100
0000
1000
0000
0001
0000
0010
0000
0001
0000
1010
0000
0000
0000
1000
0001
,
0100
0000
0010
0000
1000
0000
0001
0000
0100
0000
0011
0000
0000
0000
0001
0010
,
0100
0000
0100
0000
1000
0000
0010
0000
0100
0000
1001
0000
0000
0000
1000
0010
,
1000
0000
0100
0000
0010
0000
0001
0000
1000
0000
0101
0000
0000
0000
0001
0100
,
0001
0000
0010
0000
0110
0000
0100
0000
1000
0000
0010
0000
0100
0000
0000
0001
,
0100
0000
0000
0001
2000
0000
0000
0000
0000
0000
0000
0000
3000
0000
0000
0000
,
0001
1000
0001
1000
1001
0000
1000
0000
0100
0000
0020
0000
0000
0000
0130
0000
,
1001
0000
0000
0000
0001
0000
0100
0010
1000
0000
0100
0000
0010
0000
0001
1000
,
0010
0000
0100
0000
0001
0010
0001
0010
0001
0000
1000
0000
0010
0100
0010
0100
,
0010
0000
1000
0000
0001
0000
1000
0010
0100
0000
0001
0000
1000
0000
0100
0010
,
0001
0000
1000
0000
0001
0000
0100
0001
0010
0000
0100
1000
0010
0000
0000
0000
,
0110
0000
0100
0000
0001
0000
0100
0010
1000
0000
1200
0000
0000
0000
1300
0000
,
0100
0000
0010
0000
1000
0000
0001
0100
0001
0000
0201
0000
0000
0000
0310
0000
,
1000
0001
1000
0100
0001
1000
0010
0001
,
1000
0100
0120
0000
0000
0000
1000
1000
,
0031
0000
0000
0000
1100
0000
0100
0010
0001
0000
1000
0001
0100
0000
0001
0010
,
0100
0000
1000
0010
0100
0000
0010
0001
1000
0000
0001
0100
0001
0100
0010
1000
,
0010
0000
1000
0000
0001
0010
0100
1000
0020
0000
0000
0000
1030
0001
0100
0010
,
2000
0000
0000
0000
3001
0000
0100
0010
1000
0000
0100
0010
0001
0000
0100
0010
,
1000
0000
0001
0000
0010
0000
0100
1000
0010
0000
0100
0001
1000
0000
0001
0100
,
0010
0000
1000
0001
0010
0000
0100
1000
0001
0000
1000
0010
0100
0000
0001
0000
,
1001
0000
0000
0000
1000
0100
1000
0100
0020
0000
0000
0000
0031
0100
0001
0100
,
0020
0000
1030
0010
0100
0001
0101
0000
,
1001
0000
0000
0000
0001
0000
0100
0010
1000
0000
0100
0000
0010
0001
1000
0000
,
0001
0000
0010
0100
1000
0000
0010
0100
0001
0000
0010
0100
1000
0010
0100
0001
,
1000
0000
0001
0000
0100
0000
0010
1000
0100
0000
1000
0000
0010
0100
0001
0000
,
0100
0000
0010
0001
0100
0000
0010
1000
0001
0000
0010
0100
1000
0001
0100
0001
,
1000
0000
0001
0000
1000
0100
1000
0100
0010
0001
0010
0001
1000
0010
1000
0010
,
0100
0001
0100
0001
1000
0100
0010
0001
0010
0100
1000
0010
0100
0001
0100
0010
,
1000
0001
0010
0100
1000
0100
0001
0010
0200
0000
0000
0000
0301
0100
1000
0010
,
0200
0000
0000
0000
0301
0100
0010
1000
0100
0010
0001
0100
0010
0000
0000
0000
,
2002
0000
0000
0000
,
3003
0000
0000
0000
;

//--------------- dance-double - XLev450X and Fred-104 & KONAMI [X-WORLD]-CDP ----------------
#NOTES:
     dance-double:
     XLev450X and Fred-104 & KONAMI [X-WORLD]:
     Challenge:
     17:
     0,0,0,0,0:
00000000
00000000
00000000
00000000
,
00000000
00000000
00000000
00000000
,
00000010
00000001
00000100
00000001
00000010
00000100
00000010
00000100
,
00010000
00001000
00000100
00001000
00010000
01000000
10000000
00000000
,
00110000
01000000
10000000
00000000
10100000
01000000
00010000
00100000
,
01000000
00010000
00001000
00000100
00000001
00001000
00000100
00000000
,
00001010
00000010
00001000
00000020
00000000
00000130
00000010
00000000
,
00000101
00000001
00001000
00000200
00000000
00000310
00001000
00010000
,
00000010
00001000
00000100
00010000
00000010
00000100
00001000
00010000
,
00100000
10000000
00100000
01000000
00010000
01000000
00010000
10000000
01000000
00010000
00000000
00000000
,
00100000
10000000
00100000
01000000
00000000
00001000
00010000
00000100
,
00000010
00000001
00000010
00000100
00000000
00001000
00000010
00000100
,
00001100
00000000
00011000
00000000
00010000
01000000
10000000
00100000
,
01000000
00100000
10000000
01000000
00010000
00001000
00000100
00000000
,
00000101
00001000
00000100
00000020
00000000
00000031
00000100
00001000
,
01000000
00010000
01000000
20000000
00000000
31000000
00010000
00100000
,
01000000
10000000
00010000
00100000
,
01000000
00100000
00001000
00010000
00000010
00000100
00000001
00000010
,
00001001
00000000
00000000
00000000
00000001
00000000
00000010
00000000
00000100
00000000
00000010
00000001
00000000
00000100
00000001
00000000
,
00001000
00000000
00000000
00000000
00001010
00000000
00010000
00000000
00000010
00000000
00001000
00000010
00000000
00010000
00001000
00000000
,
01000000
00000000
00000000
00000000
00011000
00000000
01000000
00000000
00001000
00000000
00010000
01000000
00000000
00010000
00001000
00000000
,
00010000
00000000
00000000
00000000
01100000
00000000
00010000
00000000
00100000
00000000
00010000
01000000
00000000
00010000
00100000
00000000
,
00110000
00000000
MMMMMMMM
00000000
10000000
00000000
01000000
00000000
00100000
00000000
01000000
10000000
00000000
00100000
10000000
00000000
,
01000000
00000000
MMMMMMMM
00000000
01010000
00000000
00001000
00000000
01000000
00000000
00010000
01000000
00000000
00001000
00010000
00000000
,
00001000
00000000
MMMMMMMM
00000000
00011000
00000000
00000010
00000000
00010000
00000000
00001000
00010000
00000000
00000010
00010000
00000000
,
00011000
00000000
MMMMMMMM
00000000
01001000
00000000
00010000
00000000
00100000
00000000
01000000
10000000
00000000
00010000
00100000
00000000
,
00000000
10100000
10000000
01000000
MMMMMMMM
00110000
00100000
01001000
,
MMMMMMMM
00110000
00010000
00001000
MMMMMMMM
00001100
00000100
00011000
,
MMMMMMMM
00001010
00001000
00000100
MMMMMMMM
00000011
00000001
00000110
,
MMMMMMMM
00001001
00000001
00000100
MMMMMMMM
00000110
00000010
00001000
,
00010000
01000000
10000000
00100000
10000000
00010000
01010000
00100000
,
00010000
00001000
00100000
00010000
00001000
00000100
00001100
MMMMMMMM
,
00000011
00000100
00001000
00000010
00000100
00001000
00011000
00000000
,
00011000
MMMMMMMM
01100000
MMMMMMMM
11000000
MMMMMMMM
10010000
01000000
,
00210000
00000000
01300000
10000000
00010000
00100000
00001000
00000100
,
00000002
00000000
00000013
00000100
00000010
00000001
00001000
00000010
,
00001200
00000000
00000310
00000001
00001000
00000100
00010000
00100000
,
20000000
00000000
00000000
00000000
31000000
00000000
00100000
00000000
01000000
00000000
10000000
00010000
00100000
10000000
00100000
01000000
,
00020000
00000000
00030000
00000000
00001000
00000000
00010000
00001000
00000100
00000000
00000010
00000000
00000100
00000000
00001000
00010000
,
00100000
00000000
01000000
00000000
00010000
00000000
10000000
01000000
00100000
00010000
00100000
00010000
00100000
00000000
00000000
00000000
,
00001000
00000000
00010000
00000000
00000010
00000000
00000100
00000010
00000100
00000000
00000001
00000000
00001001
00000000
00000000
00000000
,
00001000
00000000
00000001
00000000
00000100
00000000
00000010
00001000
00000010
00010000
00001000
00000000
01000000
00010000
01000000
00010000
,
10000000
00000000
00100000
00000000
10000000
00000000
01000000
00010000
00001000
00000000
00010000
00000000
00001000
00000000
00010000
01000000
,
10000000
00000000
00010000
00000000
01000000
00000000
00001000
00010000
00000100
00000000
00001000
00000100
00000001
00000000
00000000
00000200
,
00000000
00000000
00000310
00000000
00000001
00000000
00000100
00001000
00010000
00000000
00000000
00000000
00000200
00000000
00000000
00010300
,
00001000
00000000
01000000
00000000
00010000
00000000
10000000
00100000
10000000
00100000
00010000
00000000
00001000
00000100
00001000
00000100
,
00000001
00000100
00000001
00000100
00000010
00000001
00000100
00000000
00001000
00000000
00010000
01000000
10000000
00000000
00010000
00000000
,
01000000
00000000
00010000
10000000
00100000
00000000
10000000
00010000
00100000
10000000
00100000
01000000
00010000
00000000
00001000
00000000
,
00000001
00000000
00001000
00000010
00000100
00000000
00000001
00000000
00001000
00000000
00000100
00000000
00000010
00000001
00000100
00000001
,
00001000
00000000
00010000
00000000
10000000
00000000
01000000
00000000
00100000
00000000
00010000
00000000
00100000
00010000
10000000
00100000
,
02000000
03000000
00010000
10000000
00100000
00001000
00000010
00000100
,
00000001
00001000
00020000
10000000
01000000
10000000
01030000
00100000
,
00010000
00100000
00010000
01000000
20000000
00000000
30000000
00000000
00000000
00000000
00020000
00000000
00000000
00000000
00030000
00000000
,
02200000
00000000
00000000
00000000
03300000
00000000
00011000
00011000
,
00000001
00001000
00000010
00000100
00000001
00000000
00000100
00000000
00001000
00000000
00000001
00000000
00000100
00000000
00010000
00000000
,
10000000
00010000
01000000
10000000
00010000
00000000
00100000
00000000
00001000
00000000
00000100
00000001
00001000
00000010
00000100
00000001
,
00001000
00100000
00020000
00100000
00130000
00002000
00000100
00003100
,
00020000
00000000
00000000
00030000
00001000
00000010
00000001
00001000
,
00000100
00000001
00001000
00000010
00000100
00000000
00000001
00000000
00000100
00000000
00001000
00000000
00100000
00000000
10000000
00000000
,
01000000
00010000
00000100
00000001
00000010
00001000
00010000
00100000
,
10000000
01000000
00110000
00000000
00001100
00000000
00000011
00000000
,
00011000
00000000
00001000
00000001
00000010
00001000
00010000
01000000
,
10000000
00000000
10100000
00000000
01010000
00000000
00001000
00010000
,
00000010
00001000
00000001
00001000
00000000
00000100
00010000
00001000
,
01000000
00010000
10010000
00000000
11000000
00000000
00010000
00100000
,
01000000
10000000
00010000
00100000
00000000
00001000
00010000
00000100
,
00001000
00000001
00001001
00000000
00000011
00000000
00001000
00000100
,
00000010
00000001
00001000
00000100
00000000
00010000
00001000
00100000
,
00010000
01000000
01100000
00000000
10100000
00000000
10000000
01000000
,
00100000
00010000
10000000
00100000
00010000
00001000
00010000
00000100
,
00001000
00000010
00001010
00000000
00000101
00000000
00001000
00000100
,
00001000
00000001
00000010
00000100
00000000
00010000
00001000
01000000
,
00010000
00100000
00110000
00000000
11000000
00000000
00010000
00100000
,
00001000
00010000
00000100
00010000
00000000
00000010
00001000
00000001
,
00001000
00000100
00001100
00000000
00000101
00000000
00001000
00000001
,
00000100
00001000
00010000
00001000
00000000
01000000
00010000
00100000
,
10000000
00100000
01100000
00000000
11000000
00000000
00010000
10000000
,
01000000
00010000
00001000
00000010
00001000
00010000
00000100
00001000
,
00000001
00000100
00000000
00000000
00022000
00000000
00000000
00000000
,
00033000
00000000
00000000
00000000
00001000
00000000
01000000
00010000
01000000
00000000
00010000
00100000
00010000
00000000
10000000
01000000
,
10000000
01000000
00100000
00000000
00010000
00000000
00100000
00001000
00100000
00000000
00001000
00010000
00001000
00000000
00010000
00000100
,
00001000
00000100
00001000
00000000
00000002
00000000
00000000
00000000
00000103
00000000
00000200
00000000
00000000
00000000
00001300
00000000
,
00002000
00023000
00100000
00002000
,
00033000
00000000
00000000
00000000
00010000
00000000
00000010
00001000
00000010
00000000
00001000
00000100
00001000
00000000
00000001
00000010
,
00000001
00000010
00000100
00000000
00001000
00000000
00000100
00010000
00000100
00000000
00010000
00001000
00010000
00000000
00001000
00100000
,
00010000
00100000
00010000
00000000
10000000
00000000
00100000
00000000
00100000
00000000
00010000
00000000
00001000
00000000
00001000
00000000
,
00000100
00000000
00000001
00000000
00000010
00000000
00000000
00000100
00000000
00000000
00000010
00000000
00002002
00000000
00000000
00000000
,
00003003
00000000
00000000
00000000
00000001
00001000
00000100
00001000
00000001
00000000
00000100
00000010
00001000
00000010
00001000
00000000
,
00000100
00010000
00001000
00000000
00000000
00000000
00011000
00000000
00000000
00000000
00010000
00100000
10000000
00000000
00000000
00000000
,
10010000
00000000
00000000
00000000
00010000
00100000
01000000
10000000
00010000
00000000
01000000
00000000
00010000
00100000
00001000
00010000
,
00001000
00000000
00010000
00000000
00000100
00000000
00001000
00000010
00001000
00000000
00000001
00000010
00000001
00000000
00000000
00000000
,
00001001
00000000
00000000
00000000
00001000
00000100
00000010
00000000
00000001
00000100
00000001
00001000
00000001
00000000
00001000
00000000
,
00001010
00000000
00000000
00000000
00000010
00010000
00001000
00000000
00010000
00001000
01000000
00010000
01000000
00000000
00100000
00000000
,
10100000
00000000
00000000
00000000
10000000
00000000
00010000
00100000
01000000
00000000
10000000
01000000
00100000
00000000
00001000
00100000
,
00001000
00010000
00001000
00010000
00000100
00000000
00000000
00000110
00000000
00000000
00000000
00000000
00000000
00000000
00000000
00000000
,
00000000
00000000
00000000
00000000
10000000
00000000
00000000
01000000
00010000
00000000
00000000
00000000
00001000
00000000
00000000
00000010
,
00000001
00000000
00000000
00000000
00000010
00000000
00000000
00000100
00000010
00000000
00000000
00000000
00000001
00000000
00000000
00000000
,
00000100
00000000
00001000
00010000
00001000
00000000
00000000
00000000
01000000
00000000
00010000
01000000
00010000
00000000
00000000
00000000
,
01000000
00000000
00001000
00010000
00001000
00000000
00000000
00000000
00010000
00000000
00001000
00010000
00001000
00000000
00000000
00000000
,
01000000
00000000
10000000
01000000
00010000
00001000
00000010
00000001
,
00000100
00000001
00000010
00000001
00000010
00001000
00010000
00100000
,
01000000
00100000
10000000
00100000
01000000
00000000
00000000
00010000
01000000
00000000
00000000
00000000
00010000
00000000
00000000
10000000
,
01000000
00000000
00010000
00001000
00000000
00000010
00000000
00000100
,
00000001
00000100
00001000
00000100
00001000
00000000
00010000
00000010
,
00010000
00000000
00000000
00000000
00011000
00000000
00000000
00000000
01000000
00000000
00100000
00000000
10000000
00000000
00000000
01000000
,
00000000
10000000
00100000
00000000
00001000
00000000
00000010
00000000
,
00000100
00000001
00000100
00000000
00000001
00000020
00000001
00000000
,
00000100
00000031
00001000
00100000
,
01000000
10000000
01000000
00000000
00010000
00000000
01000000
00010000
,
00000010
00000000
00000000
00000000
00001100
00000000
00000000
00011000
00000000
00000000
00110000
00000000
00000000
00000000
00000000
00000000
,
00100000
00000000
10000000
00000000
10010000
00000000
00000000
11000000
00000000
00000000
10100000
00000000
00000000
00000000
00100000
00000000
,
00010000
00000000
00001000
00000000
00000001
00000000
00000000
00000001
00000010
00000000
00000000
00000010
00000100
00000000
00000000
00000100
,
00010000
00000000
00001000
00010000
00001000
00000000
00000000
00001000
00100000
00000000
00000000
00100000
01000000
00000000
00000000
01000000
,
10000000
00000000
00100000
10000000
00100000
00000000
00000000
00100000
01000000
00000000
00000000
01000000
00010000
00000000
00000000
00010000
,
00100000
00000000
00001000
00100000
00001000
00000000
00000000
00001000
00010000
00000000
00000000
00010000
00000100
00000000
00000000
00000100
,
00001000
00000000
00000000
00000000
00000001
00000000
00000000
00000001
00000010
00000000
00000000
00000010
00001000
00000000
00000000
00001000
,
00010000
00000000
00100000
00010000
00100000
00000000
00000000
00100000
10000000
00000000
00000000
10000000
00010000
00000000
00000000
00010000
,
01000000
00000000
00100000
01000000
00100000
00000000
00000000
00100000
00010000
00000000
00000000
00010000
00001000
00000000
00000000
00001000
,
00000010
00000000
00000001
00000010
00000001
00000000
00000000
00000001
00000100
00000000
00000000
00000100
00001000
00000000
00000000
00001000
,
00000100
00000000
00000000
00000000
00000001
00000000
00000000
00000100
00000001
00000000
00000000
00000000
00000010
00000000
00000000
00001000
,
00000010
00000000
00000000
00000000
00001000
00000000
00000000
00010000
00001000
00000000
00000000
00000000
00100000
00000000
00000000
01000000
,
00100000
00000000
00000000
00000000
00010000
00000000
00000000
00010000
10000000
00000000
00000000
10000000
01000000
00000000
00000000
01000000
,
00100000
00000000
00000000
00100000
10000000
00000000
00000000
10000000
00100000
00000000
00000000
00100000
00010000
00000000
00000000
00010000
,
00001000
00000000
00000000
00000000
00000010
00000000
00000000
00000001
00000010
00000000
00000000
00000000
00000100
00000000
00000000
00001000
,
00000100
00000000
00000000
00000000
00001000
00000000
00000000
00010000
00001000
00000000
00000000
00000000
00000000
00000000
00000000
00000000
,
00000000
00000000
00000000
20010000
,
30010000
00000000
00000000
00000000
10000000
00000000
00100000
00000000
01000000
00000000
00010000
00000000
00000000
00000000
00100000
00001000
,
00100000
00001000
00010000
00100000
01000000
00001000
00010000
00100000
,
01000000
00000000
00001000
00000000
00010000
00000000
00001000
00000000
00000010
00000000
00000001
00000000
00000000
00000000
00001000
00000001
,
00001000
00000010
00010000
00000100
00000010
00001000
00010000
00000100
,
00000010
00000000
00001000
00000000
00010000
00000000
00000010
00000000
00000100
00000000
00001000
00000000
00000000
00000000
00010000
00001000
,
00010000
00001000
01000000
00001000
00010000
00100000
01000000
00001000
,
00010000
00100000
01000000
10000000
01000000
00010000
00100000
00001000
,
00010000
00000100
00001100
00001000
00000010
00000110
00000000
00001001
,
00000001
00001000
00000001
00001000
00000001
00000000
00000010
00000000
00000100
00000000
00000110
00000000
00000000
00000000
00000010
00000001
,
00000010
00000100
00001000
00000100
00010000
00001000
00000100
00001000
,
00010000
00000000
00100000
00000000
01000000
00000000
00100000
00000000
10000000
00000000
10100000
00000000
00000000
00000000
00100000
01000000
,
00100000
10000000
01000000
00100000
00001000
00010000
00001000
00100000
,
01000000
00000000
10000000
00000000
00100000
00000000
00010000
00000000
00001000
00000000
00011000
00000000
00000000
00000000
00010000
00000100
,
00001000
00000010
00000100
00001000
00010000
00001000
00000010
00000001
,
00001000
00000000
00000100
00000000
00000010
00000001
00000010
00000000
00000100
00000010
00000100
00000000
00001000
00000000
00000000
00000100
,
00010000
00000000
00000000
00001000
00020000
00000000
00000000
00000000
00000000
00000000
00000000
00000000
00030000
00000000
00000000
00000000
,
00001000
00010000
00001000
00010000
00000001
00000000
00000000
00000000
00000011
00000000
00000011
00000000
00000000
00000000
00001100
00000000
,
00001100
00011000
00011000
00100000
10000000
01000000
00010000
00100000
,
00010000
01000000
10000000
00010000
00001000
00010000
00012000
00000000
,
00003001
00000000
00000001
00000000
00000001
00001000
00000010
00000000
00000100
00001000
00010000
00000000
01000000
00010000
00100000
01000000
,
10000000
00000000
00010000
00000000
00000100
00000000
00000001
00000000
00000010
00000000
00000100
00000000
00000001
00000010
00000001
00000010
,
00000100
00001000
00000100
00001000
00000001
00000000
00000100
00000000
00000010
00000000
00000100
00000000
00001000
00010000
00100000
00010000
,
00100000
00000000
01000000
00000000
10000000
00100000
00010000
00000000
01000000
00100000
00010000
00000000
01000000
00010000
00100000
00001000
,
00010000
00000000
00000010
00000000
00000001
00000000
00000001
00001000
00000100
00000000
00000100
00000001
00000010
00000000
00000010
00001000
,
00000100
00000000
00000100
00000000
00010000
00100000
01000000
10000000
00010000
01000000
00100000
10000000
00010000
00001000
00010000
00001000
,
00010000
00000100
00001000
00000100
00010000
00000000
00001000
00000000
00000001
00000000
00000100
00000000
00000010
00000001
00001000
00000000
,
00000000
00002000
00103000
00000000
00000000
00100000
00010000
00000000
00000000
00000000
11000000
00000000
00010000
00000000
00100000
00000000
,
10000000
00000000
00100000
00000000
00010000
00000000
10000000
00000000
01000000
00000000
00010000
00000000
00100000
00000000
10000000
01000000
,
00010000
00000000
00001000
00000000
00000000
00000000
00012000
00000000
00000000
00000000
00003010
00000000
00000000
00000000
00000001
00000010
,
00000100
00001000
00000001
00000100
00000010
00000000
00001000
00000000
00012000
00000000
00013000
00000000
01000000
00100000
10000000
00000000
,
00000000
00000000
10010000
00000000
00000000
00000000
01000000
00000000
00010000
00000000
00100000
00000000
00001000
00000100
00001000
00000100
,
00000010
00001000
00000010
00001000
00000001
00000000
00000010
00001000
00000010
00000000
00001000
00000100
00001000
00000000
00010000
00001000
,
00010000
00000000
00100000
00010000
00100000
00000000
10000000
00000000
01000000
00000000
00010000
00100000
00010000
00000000
00000000
00000000
,
00011000
00000000
00000010
00000100
00001000
00100000
10000000
01000000
,
00010000
00000000
01000000
00000000
10000000
00000000
00001000
00100000
00000000
00000000
00001000
00010000
00000100
00000000
00001000
00000000
,
00000010
00000100
00000001
00001000
00010000
10000000
00100000
00010000
,
00100000
01000000
10000000
00010000
00001000
00000100
00000001
00000100
,
00000100
00000000
00000100
00000000
00000001
00000010
00000100
00001000
00000010
00000100
00000001
00000010
00000100
00001000
00000100
00001000
,
00000001
00000100
00000001
00001000
00010000
00100000
10000000
01000000
10000000
00100000
00010000
00100000
10000000
01000000
00100000
00010000
,
10000000
00100000
01000000
00010000
10000000
00000000
00100000
00010000
00001000
00000000
00000010
00000100
00000001
00000000
00001000
00000100
,
00010000
00000000
00100000
01000000
10000000
00000000
00100000
00010000
10000000
00000000
00100000
01000000
10010000
00000000
00000000
00000000
,
00022000
00000000
00000000
00000000
,
00033000
00000000
00000000
00000000
;
