#TITLE:HEROES;
#ARTIST:ビートまりお Prod. by Yuta Imai & L.E.D.-G;
#ARTISTTRANSLIT:beatMARIO Prod. by Yuta Imai & L.E.D.-G;
#GENRE:HARD MIXTURE;
#MUSIC:HEROES.ogg;
#BANNER:HEROES.png;
#BACKGROUND:HEROES-bg.png;
#CDTITLE:./CDTitles/bm IIDX 33 Sparkle Shower.png;
#SAMPLESTART:33.865;
#SAMPLELENGTH:15;
#OFFSET:-0.136;
#BPMS:0=185;
#BGSTAGE:28;

//--------------- dance-single - XLev450X-bSP ----------------
#NOTES:
     dance-single:
     XLev450X:
     Beginner:
     4:
     0,0,0,0,0:
0000
0000
0000
0000
,
0000
0000
0000
0000
,
0000
0000
0000
0000
,
0000
0000
0000
0000
,
0000
0000
0000
0000
,
0000
0000
0000
0000
,
0001
1000
0001
0000
,
0010
1000
0010
0000
,
0100
0000
0100
0000
,
1001
0000
0000
0000
,
0001
0000
1000
0000
,
0001
0000
0000
0000
,
0010
0000
1000
0000
,
0010
0000
0000
0000
,
0100
0000
0001
0000
,
0100
0000
0000
0000
,
0001
0000
0010
0000
,
1000
0000
0000
0000
,
0001
0001
0001
0000
,
1000
1000
1000
0000
,
0010
0010
0010
0000
,
0100
0100
0100
0000
,
0010
0001
0010
0000
,
0100
1000
0100
0000
,
0001
1000
0001
0000
,
2002
0000
0000
3003
,
0001
0000
0000
0000
,
0001
0000
0000
0000
,
0001
0000
0000
0000
,
0000
0000
0000
0000
,
1000
0000
0000
0000
,
1000
0000
0000
0000
,
1000
0000
0000
0000
,
0000
0000
0000
0000
,
0010
0000
0100
0000
,
0010
0000
0000
0000
,
1000
0000
0010
0000
,
1000
0000
0000
0000
,
0001
0000
0100
0000
,
0001
0000
0000
0000
,
0001
0000
1000
0000
,
0001
0000
0000
0000
,
2002
0000
0000
0000
,
0000
0000
0000
3003
,
0010
0000
0010
0000
,
0010
0000
0001
0000
,
1000
0000
0001
0000
,
0100
0000
0000
0000
,
0100
0000
0100
0000
,
0100
0000
1000
0000
,
0001
0000
0100
0000
,
0010
0000
0000
0000
,
0010
0000
0001
0000
,
0010
0000
0000
0000
,
0100
0000
1000
0000
,
0100
0000
0000
0000
,
1000
0000
1000
0000
,
0001
0000
0000
0000
,
0001
0000
1000
0000
,
2002
0000
0000
3003
,
0001
0000
0000
0000
,
0001
0000
0000
0000
,
0001
0000
0000
0000
,
0000
0000
0000
0000
,
1000
0000
0000
0000
,
1000
0000
0000
0000
,
1000
0000
0000
0000
,
0000
0000
0000
0000
,
0010
0000
0100
0000
,
0010
0000
0000
0000
,
1000
0000
0010
0000
,
1000
0000
0000
0000
,
0001
0000
0100
0000
,
0001
0000
0000
0000
,
0001
0000
1000
0000
,
0001
0000
0000
0000
,
2002
0000
0000
0000
,
0000
0000
0000
3003
,
0001
1000
0001
0000
,
0010
0000
0100
0000
,
1000
0100
1000
0000
,
0100
0000
0010
0000
,
0001
0001
0010
0000
,
1000
1000
0100
0000
,
0001
0000
1000
0000
,
0001
0000
0000
0000
,
0010
0000
1000
0000
,
0010
0000
0000
0000
,
0100
0000
0010
0000
,
0100
0000
0000
0000
,
0001
0000
1000
0000
,
0001
0000
0000
0000
,
0010
0000
1000
0000
,
0010
0000
0000
0000
,
1001
0000
0000
0000
;

//--------------- dance-single - XLev450X-BSP ----------------
#NOTES:
     dance-single:
     XLev450X:
     Easy:
     8:
     0,0,0,0,0:
0000
0000
0000
0000
,
0000
0000
0000
0000
,
0000
0000
0000
0000
,
0000
0000
0000
0000
,
0000
0000
0000
0000
,
0000
0000
0000
0000
,
0010
1000
0100
0001
,
0001
0100
0001
0000
0010
0000
1000
0000
,
1000
0100
0010
0000
0001
0010
0100
0000
,
2002
0000
0000
3003
,
0001
1000
0100
0010
,
0010
0010
0100
0000
0001
0000
0010
0000
,
1000
0100
0001
0010
,
0001
0001
0100
0000
1000
0000
0001
0000
,
1000
0010
1000
0000
0010
0000
0100
0000
,
0100
0100
0010
0000
0001
0000
0010
0000
,
1000
0100
0001
0010
,
2002
0000
0000
3003
,
0010
1000
0100
0001
,
0010
0100
1000
0010
,
1000
0100
1000
0000
0010
0000
0001
0000
,
0010
0100
0001
0000
,
0001
1000
0100
0001
,
0010
0100
1000
0001
,
1000
0001
1000
0000
0010
1000
0010
0000
,
2002
0000
0000
3003
,
0110
0000
0000
0100
0000
0001
0000
1000
,
0000
0010
0100
2002
,
3003
0000
0000
0010
0000
0100
0000
0001
,
0000
0010
0100
2002
,
3003
0001
1000
0100
,
0010
0000
1000
0000
0010
1000
0010
0000
,
0001
0000
0000
1000
0000
0000
2002
0000
,
0000
0000
0000
3003
,
0010
1000
0100
0010
,
0001
0010
0100
1000
,
0001
1000
0001
0000
0010
0000
1000
0000
,
0100
0010
0100
0000
,
0001
0010
0001
0000
0100
0000
1000
0000
,
0010
1000
0010
0000
0100
0000
0010
0000
,
0001
0010
0001
0000
1000
0001
1000
0000
,
2002
0000
0000
3003
,
1000
0001
0100
0010
,
1000
0001
1000
0000
0010
0000
1001
0000
,
0010
1000
0100
0010
,
0001
0010
0001
0000
0010
1000
0010
0000
,
0100
1000
0001
1000
,
0001
0000
0000
1000
0000
0000
0002
0000
2000
0000
0000
0000
3003
0000
0000
0000
,
0010
0000
1000
0000
0010
0100
0010
0000
,
0001
1000
0001
0000
,
1000
0000
0100
0000
0001
0100
0001
0000
,
2002
0000
0000
3003
,
0010
1000
0100
0010
,
0001
0010
0100
0000
,
1000
0100
0001
0010
,
1000
0100
0001
0000
,
1000
0000
0000
0000
0001
0000
0000
0000
1000
0000
0000
0001
0000
0000
0010
0000
,
0100
0000
0000
0000
1000
0000
0000
0000
0100
0000
0000
0010
0000
0000
0001
0000
,
0010
0100
1000
0001
,
2002
0000
0000
3003
,
0110
0000
0000
0100
0000
0001
0000
1000
,
0000
0010
0100
2002
,
3003
0000
0000
0010
0000
0100
0000
0001
,
0000
0010
0100
2002
,
3003
0000
0001
0100
1000
0000
0100
0000
,
0010
0000
1000
0000
0010
1000
0010
0000
,
0001
0000
0000
1000
0000
0000
2002
0000
,
0000
0000
0000
3003
,
0010
1000
0100
0010
,
0001
0010
0100
1000
,
0001
1000
0001
0000
0010
0000
1000
0000
,
0100
0010
0100
0000
,
0001
0010
0001
0000
0100
0000
1000
0000
,
0010
1000
0010
0000
0100
0000
0010
0000
,
0001
0010
0001
0000
1000
0001
1000
0000
,
2002
0000
0000
3003
,
1000
0001
0100
0010
,
1000
0001
1000
0000
0010
0000
2002
3003
,
0010
1000
0100
0001
,
0010
0100
1000
0001
,
1000
0000
0010
0000
1000
0100
1000
0000
,
0010
0001
1000
0000
,
0010
0100
0010
0001
,
0010
0100
1000
0000
,
0001
1000
0010
0100
,
2002
0000
0000
3003
,
0010
1000
0010
0000
,
0001
0010
0001
0000
,
0100
0100
0010
1000
,
0001
0000
1000
0000
,
0010
0000
1000
0010
,
0100
0001
0010
0000
,
1000
0001
1000
0010
,
2002
0000
0000
3003
,
0010
0000
0001
0000
,
1000
0001
1000
0000
,
2002
0000
0000
0000
,
3003
0000
0000
0000
;

//--------------- dance-single - XLev450X-DSP ----------------
#NOTES:
     dance-single:
     XLev450X:
     Medium:
     12:
     0,0,0,0,0:
0000
0000
0000
0000
,
0000
0000
0000
0000
,
0000
0000
0000
0000
,
0000
0000
0000
0000
,
0000
0000
0000
0000
,
0000
0000
0000
0000
,
0001
0000
1000
0000
0010
0000
0000
0100
0000
0000
0001
0000
0010
0000
1000
0000
,
0100
0000
0010
0000
0001
0000
0000
0100
0000
0000
1000
0000
0010
0000
0000
0000
,
0010
1000
0010
1000
0001
0010
0100
0010
,
2002
0000
0000
0000
0000
0000
0000
3003
,
0001
1000
0001
0000
0010
1000
0100
0000
,
0010
0001
0010
0100
1000
0001
0001
0000
,
1000
1000
1000
0000
0010
0010
0100
0000
,
0010
0001
0010
0000
0100
1000
0100
0000
,
0001
0000
1000
0000
0100
0010
0001
0000
,
0010
0100
1000
0001
0010
0000
1000
0000
,
0100
0010
0001
0000
0010
0100
0010
0000
,
1000
0000
0000
0001
0000
0000
1000
0000
0000
0001
0000
0000
2002
0000
3003
0000
,
0010
1000
0010
0000
0001
0010
0001
0000
,
0100
0010
0100
0000
0010
1000
0010
0000
,
0001
0010
0100
1000
0001
0000
1000
0000
,
0100
0001
0010
0000
0100
0000
1000
0000
,
0001
0001
0001
0100
1000
1000
1000
0001
,
0010
0010
0100
1000
0100
0010
1000
0000
,
0001
0000
0000
0010
0000
0000
1000
0000
0000
0010
1000
0000
0010
0000
0001
0000
,
2002
0000
0000
3003
,
2002
3003
0000
1000
0000
0100
0000
0010
,
0000
0000
0001
0010
0001
0000
0100
0000
,
1001
0000
0000
0010
0000
1000
0000
0100
,
0000
0000
0001
0100
0001
0000
0010
0000
,
1001
0001
1000
0010
,
1000
0000
0100
0010
0100
0000
0010
0000
,
0001
0000
0000
1000
0000
0000
2002
0000
,
0000
0000
0000
3003
,
0010
0000
1000
0000
0100
0001
0100
0000
,
0010
0000
1000
0000
0001
1000
0001
0000
,
0010
1000
0010
0000
0010
0000
0001
0000
,
0100
0010
0100
0000
0010
0000
0001
0000
,
0001
0010
0001
0000
0100
1000
0100
0000
,
0010
1000
0010
0000
0010
0100
0010
0000
,
0001
0000
1000
0000
0001
1000
0001
0000
,
2002
0000
0000
3003
,
0010
1000
0010
0000
0100
0010
0100
0000
,
0001
0010
0100
0000
1000
0000
2002
3003
,
0001
1000
0010
1000
,
0100
0010
0100
0000
0001
0010
0001
0000
,
0100
1000
0100
0000
0010
1000
0010
0000
,
0010
0000
0000
0100
0000
0000
0001
0000
2000
0000
0000
0000
3001
0000
0000
0000
,
0010
1000
0010
0000
0001
0000
0100
0000
,
0001
0100
0001
0000
0001
0000
1000
0000
,
0010
1000
0100
0000
0010
0001
0010
0000
,
1001
0000
0000
0000
,
0001
0000
1000
0000
0010
1000
0100
0000
,
0010
0001
0010
0000
0010
0100
0010
0000
,
0001
0000
0010
0000
1000
0100
0000
0000
,
0010
0001
0010
0000
0100
1000
0010
0000
,
1000
0000
0000
0000
0001
0000
0000
0000
0100
0000
0000
0001
0000
0000
1000
0000
,
0010
0000
0000
0000
0100
0000
0000
0000
0010
0000
0000
1000
0000
0000
0100
0000
,
0010
0001
0010
0000
0010
0100
0010
0000
,
2000
0000
0001
0000
0002
0000
0000
3003
,
2002
3003
0000
1000
0000
0100
0000
0010
,
0000
0000
0001
0010
0001
0000
0100
0000
,
1001
0000
0000
0010
0000
1000
0000
0100
,
0000
0000
0001
0100
0001
0000
0010
0000
,
1001
0000
0001
0100
1000
0000
0010
0000
,
1000
0000
0100
0010
0100
0000
0010
0000
,
0001
0000
0000
1000
0000
0000
2002
0000
,
0000
0000
0000
3003
,
0010
0000
1000
0000
0100
0001
0100
0000
,
0010
0000
1000
0000
0001
1000
0001
0000
,
0010
1000
0010
0000
0010
0000
0001
0000
,
0100
0010
0100
0000
0010
0000
0001
0000
,
0001
0010
0001
0000
0100
1000
0100
0000
,
0010
1000
0010
0000
0010
0100
0010
0000
,
0001
0000
1000
0000
0001
1000
0001
0000
,
2002
0000
0000
3003
,
0010
1000
0010
0000
0100
0010
0100
0000
,
0001
0010
0100
0000
1000
0000
2002
3003
,
0001
0000
1000
0000
0010
0100
0010
0000
,
0010
1000
0100
0000
0010
0001
0010
0000
,
0001
0000
0001
0000
0100
1000
0001
0000
,
1000
0100
0010
0000
,
1000
0000
0100
0000
0010
0001
0010
0000
,
0010
1000
0100
0010
,
0001
0010
0001
0000
0100
1000
0100
0000
,
0001
1000
1001
0000
,
0001
1000
0100
0001
,
0100
0000
0010
0000
1000
0010
1000
0000
,
0010
0001
0100
0001
,
1000
0000
0001
0000
0100
0001
1000
0000
,
0010
0000
0100
1000
0010
0000
1000
0000
,
0001
0000
1000
0000
0010
1000
0010
0000
,
0001
0100
1000
0010
,
1000
0000
0000
0001
0000
0000
0100
0000
0000
0001
0000
0000
0100
0000
0000
0000
,
0001
0000
0000
0000
1000
0000
0000
0000
0100
0000
0000
0010
0000
0000
0001
0000
,
1000
0000
0000
0100
0000
0000
0001
0000
0010
0000
0000
0000
1000
0000
0000
0000
,
2002
0000
0000
0000
,
3003
0000
0000
0000
;

//--------------- dance-single - XLev450X-ESP ----------------
#NOTES:
     dance-single:
     XLev450X:
     Hard:
     15:
     0,0,0,0,0:
0000
0000
0000
0000
,
0000
0000
0000
0000
,
0000
0000
0000
0000
,
0000
0000
0000
0000
,
0000
0000
0000
0000
,
0000
0000
0000
0000
,
0001
0000
1000
0000
0010
0000
0000
0100
0000
0000
0001
0000
1000
0000
0010
1000
,
0100
0000
0001
0000
1000
0000
0000
0001
0000
0000
0010
0000
1000
0000
0001
0000
,
0010
0000
0100
0000
1000
0000
0000
0001
0000
0000
0010
0000
1000
0001
0010
0100
,
2000
0000
0000
0000
0001
0000
0000
0000
0001
0000
0000
0001
0000
0000
3001
0000
,
0010
1000
0010
0000
0001
0010
0001
0000
,
1000
0100
0001
0010
1000
0001
0010
0000
,
0010
1000
0100
0010
0001
0010
0100
1000
,
0001
0010
1000
0100
0010
1000
0010
0000
,
0001
0010
1000
0100
0010
0001
0010
0000
,
0001
0010
0010
0100
1000
0001
0010
0100
,
2000
0000
0001
0001
0001
0000
3001
0000
,
1000
0000
0000
0001
0000
0000
1000
0000
0000
0001
0000
0000
1000
0000
0001
1000
,
0001
0010
1000
0010
0001
0000
0010
0000
,
0100
1000
0100
0001
0010
1000
0001
0000
,
1000
0100
0010
0000
0001
0010
0100
0000
,
1000
0001
0010
0100
0010
0000
1001
0000
,
0001
1000
0010
0100
0010
0001
0010
0100
,
1000
0001
0010
1000
0010
0000
1000
0000
,
0100
0000
0000
0010
0000
0000
0100
0000
0000
1000
0010
0000
0100
0000
0001
0000
,
2002
0000
0000
0000
0000
0000
0000
3003
,
2002
3003
0000
1000
0000
0100
0000
0010
,
0000
0000
0001
1000
0001
0000
0220
0000
,
0330
0000
0000
0010
0000
1000
0000
0100
,
0000
0000
0001
0010
0100
0000
2002
0000
,
3003
0001
1000
0100
,
0010
0001
0100
1000
,
0001
0000
0000
1000
0000
0000
0020
0000
,
0200
0000
0000
0330
,
0001
1000
0001
0000
0010
1000
0100
0000
,
0010
0001
0010
0000
0100
1000
0100
0000
,
0001
1000
0100
0010
0001
0010
0100
0000
,
0001
1000
0010
0000
0010
0100
0010
0000
,
0001
0010
0100
1000
0100
0001
0010
1000
,
0100
0001
0010
0100
0001
0010
0100
0010
,
1000
0100
0010
0001
1000
0100
0010
0001
0010
0001
0010
0100
1000
0001
0100
1000
,
0020
0000
0000
0030
,
0001
1000
0010
0100
0010
0001
0010
0100
,
1000
0001
0010
0100
0010
0100
2002
3003
,
0001
0010
0001
0000
1000
0000
0010
0000
0100
0000
0010
0000
1000
0000
0001
0000
,
0010
1000
0010
0000
0100
0000
0001
0000
0010
0000
0100
0000
0001
0000
0000
0000
,
0100
0010
0100
0000
0010
0000
1000
0000
0001
0000
0010
0000
0100
0000
0000
0000
,
0010
0000
0000
1000
0000
0000
0010
0000
1000
0000
0001
1000
0001
0000
0000
0000
,
0001
0010
0100
1000
0100
0000
0001
0000
0010
0000
1000
0000
0001
0000
0000
0000
,
1000
0010
1000
0000
0010
0100
0010
0000
,
0001
0010
0100
1000
0001
0010
0100
0010
,
1002
1000
1000
1003
,
0010
1000
0010
0000
0001
0010
0001
0000
,
0100
1000
0100
0001
0010
0100
1000
0000
,
0010
1000
0100
0000
0010
0001
0010
0000
,
0100
1000
0100
0001
0010
0100
0001
0000
,
1000
0000
0001
0000
1000
0000
0010
0000
0001
0000
0000
0100
0000
0000
1000
0000
,
0010
0000
1000
0000
0001
0000
1000
0000
0010
0000
0000
1000
0000
0000
0001
0000
,
1000
0000
0010
1000
0100
0010
0001
1000
0010
0001
0100
1000
0001
0010
0100
1000
,
0002
0000
1000
0000
2000
0000
0000
3003
,
2002
3003
0000
1000
0000
0100
0000
0010
,
0000
0000
0001
1000
0001
0000
0220
0000
,
0330
0000
0000
0010
0000
1000
0000
0100
,
0000
0000
0001
0010
0100
0000
2002
0000
,
3003
0000
0001
0100
1000
0000
0100
0000
,
0010
0001
0100
1000
,
0001
0000
0000
1000
0000
0000
0020
0000
,
0200
0000
0000
0330
,
0001
1000
0001
0000
0010
1000
0100
0000
,
0010
0001
0010
0000
0100
1000
0100
0000
,
0001
1000
0100
0010
0001
0010
0100
0000
,
0001
1000
0010
0000
0010
0100
0010
0000
,
0001
0010
0100
1000
0100
0001
0010
1000
,
0100
0001
0010
0100
0001
0010
0100
0010
,
1000
0100
0010
0001
1000
0100
0010
0001
0010
0001
0010
0100
1000
0001
0100
1000
,
0020
0000
0000
0030
,
0001
1000
0010
0100
0010
0001
0010
0100
,
1000
0001
0010
0100
0010
0100
2002
3003
,
0010
1000
0010
0000
0001
0010
0001
0000
,
1000
0100
0001
0010
1000
0100
0001
0000
,
0010
1000
0100
0000
0010
0001
0010
0000
,
1000
0010
0100
0010
1000
0001
0010
0000
,
1000
1000
0100
0010
0001
0010
0100
1000
,
0001
0010
1000
0100
0010
0001
0010
0000
,
0010
1000
0100
0000
0010
0001
0010
0000
,
0010
0100
0010
1000
0001
0010
1000
0000
,
0001
0000
1000
0000
0100
0001
0010
0000
,
0010
1000
0100
0000
0010
0001
0010
0000
,
0100
1000
0010
0100
0010
0001
0010
0000
,
1000
0100
0010
0001
0010
0100
1000
0000
,
0001
1000
0001
0000
0010
0000
1000
0001
,
1000
0000
0010
1000
0100
0000
0010
0001
,
0010
0100
1000
0001
0010
1000
0100
0001
,
0010
0000
0000
0001
0000
0000
1000
0000
1000
0000
0002
0000
2000
0000
3003
0000
,
2002
0000
3003
0000
0001
1000
0001
1000
0001
0000
1000
0100
0000
0001
0010
0000
,
1000
0000
0001
0000
1000
0000
0010
0001
0010
0000
0100
1000
0100
0010
0001
0010
,
2000
0000
0000
0000
,
3000
0000
0000
0000
;
