#TITLE:HELL SCAPER;
#ARTIST:L.E.D.LIGHT-G;
#GENRE:GABBAH;
#MUSIC:HELL SCAPER.ogg;
#BANNER:HELL SCAPER.png;
#BACKGROUND:HELL SCAPER-bg.png;
#CDTITLE:/CDTitles/bm GOTTAMIX.png;
#SAMPLESTART:24.36;
#SAMPLELENGTH:15;
#OFFSET:0.89;
#BPMS:0=190
,144=195
,160=200;
#BGSTAGE:29;

//--------------- dance-single - L.E.V.DARK-G-bSP ----------------
#NOTES:
     dance-single:
     L.E.V.DARK-G:
     Beginner:
     3:
     0,0,0,0,0:
0000
0000
0000
0000
,
0000
0000
0000
0000
,
0000
0000
0000
0000
,
1000
0000
0000
0000
,
0010
0000
0000
0000
,
0001
0000
0001
0000
,
0001
0000
0000
0000
,
1000
0000
1000
0000
,
1000
0000
0000
0000
,
0010
0000
0100
0000
,
0010
0000
0000
0000
,
0001
0000
1000
0000
,
0001
0000
0000
0000
,
1001
0000
0000
0000
,
0000
0000
0000
0000
,
0010
0000
0000
0000
,
0100
0000
0000
0000
,
0001
0000
0000
0000
,
1000
0000
0000
0000
,
0100
0000
0000
0000
,
0010
0010
0000
0000
,
0001
0001
0000
0000
,
1000
1000
0000
0000
,
0100
0100
0000
0000
,
0001
1000
0001
0000
,
0010
1000
0010
0000
,
0100
0010
0100
0000
,
0101
0000
0000
0000
,
0001
0000
1000
0000
,
0001
0000
0010
0000
,
1000
0000
0100
0000
,
0001
0000
0000
0000
,
0010
0000
1000
0000
,
0010
0000
0100
0000
,
0001
0000
1000
0000
,
0001
0000
0000
0000
,
1000
0000
0001
0000
,
1000
0000
0000
0000
,
0010
0000
1000
0000
,
0010
0000
0000
0000
,
0100
0000
0010
0000
,
0100
0000
0000
0000
,
0001
0000
0000
0000
,
0000
0000
0000
0000
,
1000
0000
0000
0000
,
0010
0000
0000
0000
,
0001
0000
0000
0000
,
0010
0000
0000
0000
,
1000
0000
0001
0000
,
1000
0000
0000
0000
,
0010
0000
0010
0000
,
0010
0000
0000
0000
,
0100
0000
0000
0000
,
1000
0000
0000
0000
,
0001
0000
1000
0000
,
0001
0000
0100
0000
,
0010
0000
1000
0000
,
0010
0000
0001
0000
,
0100
0000
0001
0000
,
0100
0000
1000
0000
,
0010
0000
0001
0000
,
1000
0000
0010
0000
,
1000
0000
0100
0000
,
0010
0000
0001
0000
,
0010
0000
0100
0000
,
1000
0000
0001
0000
,
0010
0000
1000
0000
,
0100
0000
0001
0000
,
1000
0001
1000
0000
,
0010
1000
0010
0001
,
0110
0000
0000
0000
,
0000
0000
0000
0000
,
0000
0000
0000
0000
,
0000
0000
0000
0000
,
1001
0000
0000
0000
;

//--------------- dance-single - L.E.V.DARK-G-BSP ----------------
#NOTES:
     dance-single:
     L.E.V.DARK-G:
     Easy:
     7:
     0,0,0,0,0:
0000
0000
0000
0000
,
0000
0000
0000
0000
,
0000
0000
0000
0000
,
0110
0000
0000
0000
,
2002
0000
0000
3003
,
0001
1000
0010
0000
,
0010
1000
0001
0100
,
1000
0001
1000
0000
,
0001
0000
1000
0000
0010
0100
0010
0000
,
1000
0001
1000
0001
,
1000
0000
0010
0000
1000
0010
1000
0000
,
0001
0000
0010
0000
0100
0001
0100
0000
,
0001
0000
1000
0000
0001
1000
0001
0000
,
2002
0000
0000
0000
,
0000
0000
0000
3003
,
0220
0000
0000
0000
0000
0000
0000
0330
,
0002
0000
0010
0000
2003
0100
0000
0100
,
3020
0000
0000
1000
0000
0000
1000
0000
0000
1000
0000
0000
1030
0000
0000
0000
,
0002
0000
0000
0000
0000
0000
1000
0000
0000
0000
0000
0000
0203
0000
0000
0010
0000
0000
0000
0000
0000
0310
0000
0000
,
0002
0000
0000
0000
0000
0000
0000
0000
0000
0000
0000
0000
0000
0000
0000
0000
0000
0000
2000
0000
0000
3003
0000
0000
,
0001
0000
1000
0000
0010
1000
0100
0010
,
0001
0000
1000
0001
0000
0100
0000
1000
,
0100
0000
0001
0000
1000
0010
1000
0000
,
0001
0000
0010
1000
0000
0001
0000
0100
,
0001
0000
1000
0000
0010
1000
0010
0000
,
0001
0000
0010
0001
0000
1000
0000
0001
,
0100
0000
0001
0000
1000
0001
1000
0000
,
0002
0000
0000
0000
0000
0000
2000
3003
,
0000
0001
0000
1000
0000
0010
0001
1000
,
0000
0010
0000
1000
0100
0001
0010
0100
,
0000
0001
0000
1000
0000
0010
1000
0010
,
0000
0001
0000
0010
0001
1000
0010
1000
,
0000
0010
0000
1000
0000
0001
1000
0001
,
0000
0000
0000
0000
0010
0000
0000
0000
0000
0000
0000
0000
1000
0000
0000
0000
0000
0100
0000
0000
0000
0000
0010
0000
0000
0000
0000
0000
0001
0000
0000
0000
,
0000
1000
0000
0001
0000
1000
0010
1000
,
0000
0001
0000
0010
0000
1000
0001
1000
,
0001
0000
1000
0000
0001
0000
1000
0001
,
0010
0000
0000
0000
0001
0000
0000
0000
1000
0000
0000
0010
0000
0000
0001
0000
,
0000
1000
0000
0001
0000
1000
0010
1000
,
0000
0001
0000
0100
0001
0100
1000
0100
,
0001
0000
1000
0000
0001
0000
1000
0010
,
1000
0000
0000
0000
0001
0000
0000
0000
1000
0000
0000
0001
0000
0000
0100
0000
,
0000
0001
0000
1000
0000
0010
0000
1000
,
0000
0010
0000
0100
0000
0001
1000
0000
,
0001
1000
0001
0000
0001
0010
0001
0000
,
1000
1000
0002
1003
,
0001
1000
0100
0000
0010
0001
1000
0001
,
0020
0000
0000
0000
0000
0000
0200
0330
,
0001
0000
1000
0000
0001
0000
0000
1000
,
0000
0001
0000
0000
1000
0000
0001
0000
,
1000
0000
0010
0000
0100
0000
0010
0100
,
0000
0010
0000
0100
0010
0000
0100
0000
,
0010
0000
0100
0000
,
2002
0000
0000
3003
,
1000
0000
0001
0000
0100
0001
0010
0100
,
1000
0000
0001
1000
0000
0010
0000
0001
,
0010
0000
1000
0000
0001
0100
0001
0000
,
1000
0000
0100
0001
0000
1000
0000
0010
,
1000
0000
0001
0000
0100
0001
0100
0000
,
1000
0000
0100
1000
0000
0001
0000
1000
,
0010
0000
1000
0000
0001
1000
0001
0000
,
2000
0000
0000
0000
0002
0000
0000
3003
,
0001
0000
1000
0000
0010
1000
0010
0000
,
0001
0000
1000
0001
0010
0100
1000
0001
,
1000
0000
0010
0000
1000
0010
1000
0000
,
0001
0000
0010
0001
0010
1000
0100
0001
,
1000
0000
0001
0000
1000
0001
1000
0000
,
0010
0000
1000
0010
0001
0100
0010
1000
,
0001
0000
1000
0000
0010
1000
0010
0000
,
0002
0000
0000
0003
,
2002
0000
0000
0000
,
0000
0000
0000
0000
,
0000
0000
0000
0000
,
0000
0000
0000
3003
,
0110
0000
0000
0000
;

//--------------- dance-single - L.E.V.DARK-G-DSP ----------------
#NOTES:
     dance-single:
     L.E.V.DARK-G:
     Medium:
     11:
     0,0,0,0,0:
0000
0000
0000
0000
,
0000
0000
0000
0000
,
0000
0000
0000
0000
,
1001
0000
0000
0000
,
0202
0000
0000
0303
2020
0000
0000
3030
,
0001
0000
1000
0000
0010
1000
0010
0000
,
0001
0000
0010
0000
0001
1000
0001
0000
,
0001
0000
1000
0000
0010
1000
0010
0000
,
0010
0100
0010
1000
0001
1000
0010
0000
,
1000
0000
0001
0000
0010
0001
0010
0000
,
1000
0000
0010
0000
1000
0010
1000
0000
,
0001
0000
1000
0000
0001
1000
0001
0000
,
0010
1000
0010
0100
0001
1000
0010
0001
,
2000
0000
0000
0000
,
0000
0000
0000
0000
,
0002
0000
0000
0000
0000
0000
0000
3003
,
0001
0000
0010
0000
1000
0001
0010
0100
,
1000
0000
0000
0001
0000
0000
0100
0000
,
0010
0000
1000
0000
0001
1000
0001
1000
,
0020
0000
0000
0000
0000
0000
0200
0330
,
0001
0000
1000
0000
0010
1000
0010
0000
,
0001
0000
0000
1000
0000
0000
0001
0000
0000
0000
0100
0000
1000
0000
0000
0000
,
0001
0000
1000
0000
0001
1000
0001
0000
,
0010
0000
0000
1000
0000
0000
0001
0000
0000
0000
0100
0000
1000
0000
0000
0000
,
0001
0000
1000
0000
0010
1000
0010
0000
,
0100
0000
0000
0001
0000
0000
1000
0000
0000
0000
0010
0000
1000
0000
0000
0000
,
0010
0000
1000
0000
0001
0010
0001
0000
,
2000
0000
0000
0000
0000
0000
0002
3003
,
0000
0100
0000
0001
0000
1000
0100
1000
,
0000
0010
0000
0100
0001
1000
0001
1000
,
0000
0010
0000
1000
0000
0100
0010
0001
,
0000
0100
0000
0010
0000
1000
0010
1000
,
0000
0001
0000
0010
0000
0001
0100
0010
,
0000
0000
1000
0000
0000
0000
0001
0000
0100
0000
0000
0100
0000
0000
0100
0000
,
0000
0010
0000
1000
0000
0100
0000
0010
,
0000
0001
0000
1000
0000
0001
0100
0010
,
0000
1000
0000
0100
0000
1000
0000
0010
,
0000
0000
0100
0000
0000
0000
0001
0000
0010
0000
0000
0010
0000
0000
0010
0000
,
0000
0100
0000
1000
0000
0010
0000
1000
,
0000
0001
0000
0100
0000
0001
1000
0001
,
0000
0010
0000
0100
0000
1000
0000
0010
,
0000
0000
0100
0000
0000
0000
0001
0000
1000
0000
0000
1000
0000
0000
1000
0000
,
0002
0023
0230
2300
,
3200
0310
2000
3100
0002
0013
2000
3100
,
0001
1000
0001
0000
0010
1000
0010
0000
,
0001
0000
0010
0100
0010
0000
1000
0000
0001
0000
0100
0000
0001
0000
0000
0000
,
1000
0010
1000
0000
0010
1000
0010
0000
,
0002
0000
0000
0000
0000
0000
2000
3003
,
0001
0010
0100
1000
0001
0000
0000
1001
,
0000
1010
0000
0010
1000
0100
0001
0010
,
1000
0000
0001
0000
1000
0010
1000
0001
,
0000
0100
0000
1000
0001
1000
0010
1000
,
0202
0303
2020
3030
,
0220
0000
0000
0000
0000
0000
0000
0330
,
1000
0000
0001
0000
0100
0001
0100
0000
,
1000
0000
0000
0001
0000
0000
1000
0000
0000
0000
0010
0000
0001
0000
0000
0000
,
1000
0000
0001
0000
1000
0001
1000
0000
,
0100
0000
0000
0001
0000
0000
1000
0000
0000
0000
0010
0000
0001
0000
0000
0000
,
1000
0000
0001
0000
0100
0001
0100
0000
,
0010
0000
0000
1000
0000
0000
0001
0000
0000
0000
0100
0000
0001
0000
0000
0000
,
0100
0000
0001
0000
1000
0100
1000
0000
,
0002
1000
1000
1000
2000
0000
0000
3003
,
0110
0000
1000
0000
0001
0100
0010
0000
,
1010
0000
0000
0011
0000
0000
0110
0000
0000
1100
0000
0000
1001
0000
0000
0000
,
0110
0000
0001
0000
0010
0100
1000
0000
,
1100
0000
0000
0101
0000
0000
0110
0000
0000
1001
0000
0000
1100
0000
0000
0000
,
0110
0000
0001
0000
1000
0010
0100
0000
,
0101
0000
0000
1001
0000
0000
1100
0000
0000
1001
0000
0000
0011
0000
0000
0000
,
0110
0000
1000
0000
0001
0010
0100
0000
,
1000
0001
1000
0001
1000
0001
1000
0001
,
2002
0000
0000
0000
,
0000
0000
0000
0000
,
0000
0000
0000
0000
,
0000
0000
0000
3003
,
0110
0000
0000
0000
;

//--------------- dance-single - L.E.V.DARK-G-ESP ----------------
#NOTES:
     dance-single:
     L.E.V.DARK-G:
     Hard:
     16:
     0,0,0,0,0:
0000
0000
0000
0000
,
0000
0000
0000
0000
,
0000
0000
0000
0000
,
0110
0000
0000
0000
,
2020
0000
0000
0000
3030
0000
0000
0000
0001
0010
0100
1000
0001
0010
0100
1000
,
0001
0000
1000
0000
0010
1000
0010
0100
,
0001
0000
1000
0000
0001
1000
0001
0000
,
0010
0000
0001
0000
1000
0010
1000
0000
,
0001
0000
0100
0000
1000
0001
1000
0000
,
0010
0000
0010
0000
1000
0010
1000
0010
,
0100
0000
0001
0000
0001
0010
0001
0010
,
1000
0000
0001
0000
0100
1000
0001
1000
,
0010
0100
0001
1000
0010
1000
0001
0010
,
2002
0000
0000
0000
,
0000
0000
0000
0000
0000
0000
3003
0000
,
0010
1000
0010
0100
0001
0100
0010
1000
0100
0010
0001
0100
0010
1000
0001
1000
,
0001
0000
1000
0000
0001
0000
1000
0000
0001
0100
0000
0001
0100
0000
0001
0000
,
0010
0000
0000
1000
0000
0000
0001
0000
0000
0010
0000
0000
0100
0000
0000
0010
,
1000
0000
0001
0000
1000
0000
0001
0000
1000
0100
0000
1000
0100
0000
1000
0000
,
0020
0000
0000
0000
0000
0000
0000
0000
0030
0000
0000
0000
0001
0010
0100
1000
,
0100
0000
0010
1000
0010
0000
0100
0000
0001
1000
0000
0001
1000
0000
0001
0000
,
0010
0000
0001
0000
0100
0000
0010
0000
1000
0010
1000
0000
0001
0000
0100
0000
,
0010
0000
1000
0001
1000
0000
0100
0000
0010
0001
0000
0010
0001
0000
0100
0000
,
0010
0000
1000
0000
0001
0000
0100
0000
0001
1000
0001
0000
1000
0010
1000
0000
,
0100
0000
0010
0001
0010
0000
0100
0000
1000
0010
0000
1000
0010
0000
0100
0000
,
0001
0000
1000
0000
0100
0000
1000
0000
0010
0100
0010
0000
1000
0000
0001
0000
,
1000
0000
0100
0010
0100
0000
1000
0000
0001
0010
0000
0001
0010
0000
0100
0000
,
2002
0000
0000
0000
0000
0000
0000
0000
0000
0000
0000
0000
0000
0000
0000
0000
3003
0000
0000
0000
0000
0000
0000
0000
0001
0010
0100
1000
0001
0010
0100
1000
,
0001
1000
0100
0010
0001
1000
0100
0010
,
0001
0000
0010
0000
0100
0000
0010
0000
0001
0010
0100
0000
1000
0001
0100
0000
,
0010
0000
1000
0000
0001
0000
0100
0000
0010
0000
1000
0100
0001
0000
0100
0000
,
0010
0000
1000
0000
0001
0000
0010
0000
0100
1000
0001
0000
0100
0010
1000
0000
,
0010
0000
0100
0000
0001
0000
1000
0000
0010
0000
0100
0000
0001
0100
1000
0000
,
0100
0000
0010
0000
0001
0000
1000
0000
1010
0000
0000
1001
0000
0000
0101
0000
,
0001
0000
1000
0000
0100
0000
0010
0000
0001
0000
1000
0001
0100
0000
0010
0000
,
0001
0000
1000
0000
0010
0000
0100
0000
0001
0000
1000
0001
0010
1000
0001
0100
,
0010
0000
0001
0000
0010
0000
1000
0000
0010
0000
0100
0000
0001
0100
1000
0000
,
0001
0000
0010
0000
0100
0000
1000
0000
0010
0000
0000
0100
0000
0000
0001
0000
,
1000
0000
0100
0000
0001
0000
0100
0000
0010
0000
0001
0000
1000
0100
0001
0000
,
0100
0000
0010
0000
1000
0000
0010
0000
0001
1000
0010
0000
0100
0001
0010
0000
,
1000
0000
0001
0000
0010
0000
1000
0000
0010
0000
0001
0000
1000
0001
0010
0000
,
0001
0000
0010
0000
0100
0000
0001
0000
1000
0000
0000
0100
0000
0000
0010
0000
,
0011
0010
1000
1000
1010
0010
0001
0001
,
1001
0001
0110
0010
0110
0100
1001
0001
,
1000
0010
1000
0000
0001
0010
0001
0000
,
0100
0000
0010
1000
0010
0000
0100
0000
0010
0000
0001
0000
0010
0000
1000
0000
,
0100
0000
0001
0000
0100
0000
0010
0000
0100
0000
1000
0000
0001
1000
0001
1000
,
0020
0000
0000
0000
0100
0000
0000
0000
0130
0000
0000
0000
0010
0000
1000
0010
,
1000
0100
0001
0100
0010
0000
0000
0110
,
0000
1001
0000
0001
0100
1000
0100
0010
,
0001
0010
1000
0100
0001
0000
0100
0010
,
0000
1001
0000
0001
0010
1000
0010
0100
,
2200
0000
3300
0000
0022
0000
0033
0000
,
1000
0000
0001
0000
1000
0000
0001
0000
1000
0001
1000
0001
1000
0001
1000
0001
,
0010
0000
0100
1000
0100
0000
0010
0000
0001
1000
0000
0001
1000
0000
0001
0000
,
0100
0000
0001
0000
0010
0000
0100
0000
1000
0100
1000
0000
0001
0000
0010
0000
,
0100
0000
1000
0001
1000
0000
0010
0000
0100
0001
0000
0100
0001
0000
0010
0000
,
0100
0000
1000
0000
0001
0000
0010
0000
0001
1000
0001
0000
1000
0100
1000
0000
,
0010
0000
0100
0001
0100
0000
0010
0000
1000
0100
0000
1000
0100
0000
0010
0000
,
0001
0000
1000
0000
0010
0000
1000
0000
0100
0010
0100
0000
1000
0000
0001
0000
,
1000
0000
0010
0100
0010
0000
1000
0000
0001
0100
0000
0001
0100
0000
0010
0000
,
2002
0000
0000
0000
0000
0000
0000
0000
0000
0000
0000
0000
0000
0000
0000
0000
0000
0000
3003
0000
0000
0000
0000
0000
0001
0000
0000
0010
0000
0000
0100
0000
0000
1000
0000
0000
0001
0000
0000
0010
0000
0000
0100
0000
0000
1000
0000
0000
,
0100
0000
0010
0100
0010
0000
1000
0000
0001
0010
0000
0001
1000
0000
0010
0000
,
0100
0010
0100
0000
0001
0000
1000
0100
1000
0000
0001
0100
0001
0100
0001
0000
,
1000
0000
0001
0010
0001
0000
0100
0000
0001
1000
0000
0010
1000
0000
0100
0000
,
0010
0001
0010
0000
0100
0000
1000
0001
1000
0000
0010
1000
0010
1000
0010
0000
,
0100
0000
0001
1000
0001
0000
0010
0000
0100
1000
0000
0100
0010
0000
0001
0000
,
0100
0010
0100
0000
0001
0000
1000
0100
1000
0000
0010
0100
0010
0100
0010
0000
,
1000
0000
0001
0100
0001
0000
1000
0000
0100
0010
0000
0001
0010
0000
0001
0000
,
1000
0100
0010
0001
1000
0100
0010
0001
1000
0100
0010
0001
1000
0100
0010
0001
,
2000
0000
0000
0000
,
0000
0000
0000
0000
,
0000
0000
0000
0000
,
0000
0000
0000
3000
,
0110
0000
0000
0000
;
