#TITLE:HAVE YOU NEVER BEEN MELLOW (20th Anniversary Mix) (RGR-Special);
#SUBTITLE:;
#ARTIST:nc ft. Kanae Jasmine Asaba;
#TITLETRANSLIT:;
#SUBTITLETRANSLIT:;
#ARTISTTRANSLIT:;
#GENRE:ANNIVERSARY;
#CREDIT:;
#MUSIC:HAVE YOU NEVER BEEN MELLOW (20th Anniversary Mix) (RGR-Special).ogg;
#BANNER:HAVE YOU NEVER BEEN MELLOW (20th Anniversary Mix) (RGR-Special).png;
#BACKGROUND:HAVE YOU NEVER BEEN MELLOW (20th Anniversary Mix) (RGR-Special)-bg.png;
#CDTITLE:./CDTitles/DDR A20.png;
#SAMPLESTART:66.891;
#SAMPLELENGTH:15.000;
#SELECTABLE:YES;
#OFFSET:0.000;
#BPMS:0.000=130.000;
#STOPS:;
#BGSTAGE:16;
#BGCHANGES:;
#FGCHANGES:;

//--------------- dance-single - XLev450X ----------------
#NOTES:
     dance-single:
     XLev450X:
     Challenge:
     15:
     0,0,0,0,0:
0000
0000
0000
0000
,
0000
0000
0000
0000
,
0000
0000
0000
0000
,
0000
0000
0000
0000
,
0000
0000
0000
0000
,
0000
0000
0000
0000
,
0001
0000
1000
0000
0010
0000
0000
0000
0100
0000
0001
0000
0010
0000
1000
0100
,
0001
0000
0100
0000
0010
0000
0000
0000
0001
0000
1000
0000
0010
0000
0100
0010
,
0001
0000
1000
0000
0010
0000
0001
1000
0100
0000
0001
0000
1000
0001
0010
0000
,
1000
0010
1000
0001
0100
0001
0100
1000
0010
1000
0001
0000
0110
0000
0000
0000
,
0001
1000
0010
0100
0000
0001
1000
0000
,
0010
0100
1000
0001
0010
0100
1000
0000
,
0010
0001
0100
1000
0001
0100
0010
1000
,
0100
0000
0001
0010
0001
0000
1000
0000
0010
0000
0000
1000
0000
0000
0001
0000
,
1000
0100
0010
0001
1000
0000
0010
0000
,
0001
1000
0010
0100
0001
0000
0100
0000
,
0001
1000
0010
0000
0100
1000
0100
0000
,
0001
0000
0010
0000
0001
0000
0100
0000
1000
0000
0010
0001
0100
0000
0010
0000
,
0001
0000
0000
1000
0000
0000
0010
0000
0100
0000
0001
0000
1000
0000
0001
0000
,
0100
0000
0000
0010
0000
0000
1000
0000
0001
0000
0100
0000
0010
0000
1000
0000
,
0001
0000
0000
0100
0000
0000
0010
0000
1000
0000
0001
0000
0100
0000
0010
0000
,
1000
0000
0000
0001
0000
0000
0100
0000
0010
0000
1000
0000
0001
0000
0100
0000
,
0010
0000
0000
1000
0000
0000
0001
0000
0100
0000
0000
0010
0000
0000
1000
0000
,
0001
0000
0000
0100
0000
0000
0010
0000
1000
0000
0000
0001
0000
0000
0100
0000
,
0010
0000
0000
1000
0000
0000
0001
0000
0100
0000
0000
0010
0000
0000
1000
0000
,
0001
0000
0000
0100
0000
0000
0010
0000
1000
0000
0000
0001
0000
0000
0010
0000
,
1000
0001
0100
0010
1000
0000
2002
3003
,
0010
0100
1000
0100
0001
0000
0000
0000
1000
0000
0001
0000
0100
0000
0001
0000
,
0010
1000
0001
0100
0010
0000
0202
0303
,
0010
0000
0000
0001
0000
0000
1000
0000
0000
0100
0000
0000
0001
0000
0000
0000
0000
0000
0100
0000
0000
0000
0000
0000
0010
0000
0100
0000
0001
0000
0010
0000
0100
0000
1000
0000
0200
0000
0000
0000
0000
0000
0000
0000
0000
0300
0000
0000
,
0001
1000
0010
0100
0001
0010
1000
0000
,
0010
0000
0100
0000
1000
0000
0100
0000
0001
0000
1000
0001
0010
0000
0001
0000
,
0100
1000
0001
0010
0100
1000
0100
0000
,
0001
0000
0010
0000
0100
0000
1000
0000
0001
0000
0010
1000
0100
0001
0100
0000
,
0001
0000
1000
0000
0010
0000
0001
0000
0100
0010
0100
1000
0001
0010
0001
0010
,
2002
0000
3003
0000
0001
0000
0100
0000
0001
0000
0010
0000
0000
1000
0000
0000
,
0001
0010
1000
0100
0010
0000
0001
0000
0100
0000
0001
0000
1000
0000
0001
0000
,
0100
0001
1000
0100
0010
0000
1000
0000
0100
0000
0001
0000
1000
0000
0000
0000
,
0001
0010
0100
0010
0001
0000
1000
0000
0001
0000
0100
0000
0010
0000
0001
0000
,
1000
0100
0001
0100
0010
0000
0100
0000
1000
0000
0100
0000
0001
0000
0000
0000
,
1000
0000
0000
0001
0000
0000
0100
0000
0001
0000
1000
0000
0010
0000
0100
0000
,
0001
0000
0000
0010
0000
0000
1000
0000
0010
0000
0100
0000
1000
0000
0000
0000
,
0001
0100
0010
0000
0001
1000
0010
0100
,
1000
0000
0001
0000
0100
0000
0001
0000
0010
0000
1000
0100
0001
0000
1000
0000
,
0010
0000
1000
0000
0001
0010
0100
1000
0010
0000
1000
0000
0001
0000
0100
0000
,
0010
0000
1000
0000
0001
1000
0100
0001
0010
0000
1000
0000
0001
0000
0000
0000
,
0100
0000
0001
0000
1000
0001
0010
1000
0100
0000
0001
0000
1000
0000
0010
0000
,
0100
0000
0001
0000
1000
0100
0010
0001
0100
0000
0001
0000
1000
0000
0000
0000
,
0001
0000
0100
0000
0010
1000
0001
1000
0001
0000
0100
0000
0010
0001
1000
0100
,
0010
0100
0001
0010
0001
0100
0010
0100
0010
1000
0010
0100
0001
0100
0010
0100
,
2002
0000
0000
0000
0000
0000
0000
0000
3003
0000
1000
0001
0010
0000
0100
0000
,
1000
0000
0000
0000
0010
0000
0000
0100
0000
0000
0001
0000
1000
0000
0000
0000
,
0001
0000
0000
0000
0100
0000
0000
0010
0000
0000
1000
0000
0001
0000
0100
0000
,
0010
0000
0000
0000
1000
0000
0000
0001
0000
0000
0010
0000
0100
0000
0000
0000
,
0001
0000
0000
0000
1000
0000
0000
0010
0000
0100
0001
1000
0010
0000
0000
0000
,
0001
0000
0000
0000
1000
0000
0000
0010
0000
0000
0100
0000
0000
0001
0000
0000
,
1000
0000
0000
0000
0010
0000
0000
0100
0000
0000
0001
0000
0000
1000
0000
0000
,
0010
0000
0000
0000
0100
0000
0000
0001
0000
0000
1000
0000
0000
0010
0000
0000
,
0100
0000
0000
0000
0001
0000
0000
1000
0000
0000
0010
0000
0000
0100
0000
0000
,
0001
0010
0100
1000
0100
0000
0010
1000
0010
0001
0100
0000
0010
0000
0001
0000
,
1000
0001
0100
0001
0010
0000
0100
0000
0010
1000
0001
0010
1000
0000
0100
0000
,
0001
1000
0010
0100
0001
1000
0010
0100
,
1000
0001
0100
1000
0010
0100
0001
0010
0100
1000
0010
0000
2002
0000
0000
0000
,
0000
0000
0000
0000
,
3003
0000
0000
0000
;
