#TITLE:Glitter 2 Gold;
#SUBTITLE:;
#ARTIST:Tom Orlando feat. Dani;
#TITLETRANSLIT:;
#SUBTITLETRANSLIT:;
#ARTISTTRANSLIT:;
#GENRE:;
#CREDIT:;
#MUSIC:Glitter 2 Gold.ogg;
#BANNER:Glitter 2 Gold.png;
#BACKGROUND:Glitter 2 Gold-bg.png;
#CDTITLE:;
#SAMPLESTART:84.175;
#SAMPLELENGTH:15.000;
#SELECTABLE:YES;
#OFFSET:-0.166;
#BPMS:0.000=159.982;
#STOPS:;
#BGSTAGE:31;
#DISPLAYBPM:159;
#BGCHANGES:;
#FGCHANGES:;

//--------------- dance-single - XLev450X-bSP ----------------
#NOTES:
     dance-single:
     XLev450X:
     Beginner:
     2:
     0,0,0,0,0:
0000
0000
0000
0000
,
0000
0000
0000
0000
,
0000
0000
0000
0000
,
0000
0000
0000
0000
,
0000
0000
0000
0000
,
0000
0000
0000
0000
,
0000
0000
0000
0000
,
0000
0000
0000
0000
,
0000
0000
0000
0000
,
0000
0000
0000
0000
,
0000
0000
0000
0000
,
0000
0000
0000
0000
,
0000
0000
0000
0000
,
0000
0000
0000
0000
,
0000
0000
0000
0000
,
0000
0000
0000
0000
,
1000
0000
0000
0000
,
0010
0000
0000
0000
,
0100
0000
0000
0000
,
0001
0000
0001
0000
,
1000
0000
0000
0000
,
0010
0000
0010
0000
,
0100
0000
0000
0000
,
0001
0000
1000
0000
,
0010
0000
0000
0000
,
0100
0000
0000
0000
,
1000
0000
0000
0000
,
0001
0000
0001
0000
,
0100
0000
0000
0000
,
0010
0000
0000
0000
,
0100
0000
1000
0000
,
0010
0000
0000
0000
,
1001
0000
0000
0000
,
0110
0000
0000
0000
,
0011
0000
0000
0000
,
1100
0000
0000
0000
,
0010
0000
0010
0000
,
0010
0000
0000
0000
,
0100
0000
0100
0000
,
0100
0000
0000
0000
,
1000
0000
0000
0000
,
0001
0000
0000
0000
,
0010
0000
0010
0000
,
0010
0000
0100
0000
,
1000
0000
0000
0000
,
0001
0000
0000
0000
,
0100
0000
0010
0000
,
0100
0000
0010
0000
,
1000
0000
0000
0000
,
0100
0000
0000
0000
,
0001
0000
0000
0000
,
0100
0000
0010
0000
,
0001
0000
0000
0000
,
1000
0000
0000
0000
,
0010
0000
0100
0000
,
0010
0000
0000
0000
,
1000
0000
0001
0000
,
0100
0000
0000
0000
,
0010
0000
0100
0000
,
0001
0000
0000
0000
,
1000
0000
0010
0000
,
0100
0000
0000
0000
,
0001
0000
0001
0000
,
0001
0000
0100
0000
,
0010
0000
0000
0000
,
1000
0000
0000
0000
,
0100
0000
0000
0000
,
0010
0000
0000
0000
,
0001
0000
0100
0000
,
0010
0000
0000
0000
,
1000
0000
1000
0000
,
1000
0000
0000
0000
,
0010
0000
0100
0000
,
0001
0000
1000
0000
,
0000
0000
0010
0000
,
0000
0000
0100
0000
,
0010
0000
0001
0000
,
1000
0000
0010
0000
,
0100
0000
0000
0000
,
0010
0000
0000
0000
,
0001
0000
0001
0000
,
0001
0000
0001
0000
,
0000
0000
0100
0000
,
0010
0000
0100
0000
,
0000
0000
1000
0000
,
0001
0000
0100
0000
,
0010
0000
0100
0000
,
0010
0000
0100
0000
,
0020
0000
0000
0000
,
0000
0030
0000
0000
0000
0000
0000
0000
0000
0000
0000
0000
0000
0000
0000
0000
;

//--------------- dance-single - XLev450X-BSP ----------------
#NOTES:
     dance-single:
     XLev450X:
     Easy:
     4:
     0,0,0,0,0:
0000
0000
0000
0000
,
0000
0000
0000
0000
,
0000
0000
0000
0000
,
0000
0000
0000
0000
,
0000
0000
0000
0000
,
0000
0000
0000
0000
,
0000
0000
0000
0000
,
0000
0000
0000
0000
,
0000
0000
0000
0000
,
0000
0000
0000
0000
,
0000
0000
0000
0000
,
0000
0000
0000
0000
,
0000
0000
0000
0000
,
0000
0000
0000
0000
,
0000
0000
0000
0000
,
0000
0000
0000
0000
,
1000
0010
0100
0000
,
0010
0100
0001
0000
,
0001
0000
1000
0000
,
0010
0100
0010
0000
,
0001
0000
0100
0000
,
1000
0000
0000
0000
,
0010
0000
0100
0000
,
0001
0000
1000
0000
,
0010
0000
0000
0000
,
0100
0000
0100
0000
,
0010
0000
0000
0000
,
0001
0001
1000
0010
,
0100
0000
0001
0000
,
0100
0000
0000
0000
,
1000
0000
0010
0000
,
0100
0000
0000
0000
,
0001
0000
1000
0000
,
0010
0100
0001
0000
,
1000
0000
0000
0000
,
0001
0000
1000
0000
,
0010
0000
0100
0000
,
0000
0000
0000
0000
,
0001
0000
1000
0000
,
0010
0000
0000
0000
,
1000
0000
0010
0000
,
0100
0001
1000
0000
,
0010
0000
0100
0000
,
0010
0000
0000
0000
,
0001
0000
1000
0000
,
0010
0000
0100
0000
,
0001
0000
0000
0000
,
1000
0000
0001
0000
,
0010
0000
0100
0000
,
0010
0000
0000
0000
,
1000
0000
0010
0000
,
0100
0000
0001
0000
,
0010
0000
0000
0000
,
0001
0000
1000
0000
,
0100
0000
0001
0000
,
0010
0000
0000
0000
,
1000
0000
1000
0000
,
1000
0010
0100
0000
,
0001
0000
0001
0000
,
0001
0010
0100
0000
,
1000
0000
0010
0000
,
0100
0001
1000
0000
,
0010
0100
0001
0000
,
0010
0000
0000
0000
,
1000
0000
0010
0000
,
0100
0001
1000
0000
,
0010
0000
0100
0000
,
0000
0000
1001
0000
,
0010
0100
0001
0000
,
0010
0000
0100
0000
,
0010
0000
0001
0000
,
1000
0010
0100
0000
,
2000
3000
0020
0030
0200
0000
0300
0000
,
0020
0030
0200
0300
0002
0000
0003
0000
,
0010
0000
1000
0000
,
0010
0100
0001
0000
,
0010
0000
1000
0000
,
0010
0100
0001
0000
,
0010
0000
0100
0000
,
0001
1000
0010
0000
,
0200
0300
2000
3000
0200
0000
0300
0000
,
0020
0030
0002
0003
0020
0000
0030
0000
,
0010
0000
0100
0000
,
0001
0000
1000
0000
,
0010
0000
0100
0000
,
0001
0000
0100
0000
,
0010
0000
0000
0000
,
0100
0000
0010
0000
,
2002
0000
0000
0000
,
0000
3003
0000
0000
0000
0000
0000
0000
0000
0000
0000
0000
0000
0000
0000
0000
;

//--------------- dance-single - XLev450X-DSP ----------------
#NOTES:
     dance-single:
     XLev450X:
     Medium:
     9:
     0,0,0,0,0:
0000
0000
0000
0000
,
0000
0000
0000
0000
,
0000
0000
0000
0000
,
0000
0000
0000
0000
,
0000
0000
0000
0000
,
0000
0000
0000
0000
,
0000
0000
0000
0000
,
0000
0000
0000
0000
,
0000
0000
0000
0000
,
0000
0000
0000
0000
,
0000
0000
0000
0000
,
0000
0000
0000
0000
,
0000
0000
0000
0000
,
0000
0000
0000
0000
,
0000
0000
0000
0000
,
0000
0000
0000
0000
,
1000
0010
0100
0001
1000
0000
0220
0000
,
0000
0330
0000
0000
0100
0010
1000
0001
,
0200
0000
0300
0000
0010
1000
0001
0000
,
0100
0010
2002
0000
,
3003
0000
0000
0000
0020
0030
0000
0100
,
0001
0100
0000
1000
0000
0010
0200
0000
,
0000
0000
0000
0000
0300
0000
0010
0001
,
0020
0000
0030
0000
,
0100
1000
0010
0000
0100
0000
0002
0000
,
0000
0003
0000
0000
0100
0010
1000
0001
,
0200
0300
0010
1000
,
0001
0100
0020
0000
,
0030
0000
0000
0000
1000
0000
0000
0100
,
0010
0100
0000
1000
0000
0001
0200
0000
,
0300
0000
0000
0000
0000
0000
0100
1000
,
0200
0000
0300
0000
,
0000
0010
0100
0001
1000
0010
0100
0001
,
1000
0010
0100
0001
1000
0010
0100
0001
,
1000
0000
0010
0100
0001
1000
0010
0100
,
0001
1000
0010
0100
0001
1000
0010
0000
,
0000
0000
0100
0010
1000
0001
0100
0010
,
1000
0000
0002
0000
0000
0003
0000
0000
0100
0000
0010
0000
1000
0000
0001
0000
,
0100
0000
0010
1000
0001
0000
0100
0010
,
1000
0001
0100
0010
1000
0001
0100
0000
,
0000
0000
1000
0010
0100
0001
1000
0010
,
0100
0001
1000
0010
0100
0000
1000
0001
,
0100
0000
0010
1000
0001
0100
0010
1000
,
0001
0100
0010
1000
0101
0000
0110
0000
,
0000
0000
0001
1000
0010
0100
0001
1000
,
0010
0100
0001
1000
0100
0000
0010
1000
,
0001
0100
0010
1000
0001
0100
0010
1000
,
0001
0100
0010
1000
0001
0000
0220
0000
,
0330
0000
1000
0100
0001
1000
0010
0001
,
0100
1000
0010
0100
0001
1000
0020
0000
,
0030
0100
0010
1000
0001
0100
0010
1000
,
0001
0100
0010
1000
0001
0100
0020
0000
,
0030
0000
1000
0100
0010
1000
0001
0100
,
0010
1000
0001
0100
0010
1000
0002
0000
,
0003
0000
0100
0010
1000
0001
0100
0010
,
1000
0001
0100
0010
1000
0001
0020
0030
,
0001
1000
0010
0100
0001
0000
2000
0000
,
0000
0000
3000
0000
0010
0100
0001
1000
,
0020
0000
0030
0000
0100
0001
1000
0000
,
0010
0100
2002
0000
,
3003
0000
0000
0000
0010
0000
0000
0100
,
0001
0010
0000
1000
0000
0010
0200
0000
,
0000
0000
0300
0000
0000
0000
0010
0001
,
0020
0000
0030
0000
,
1000
0010
0100
0001
1000
0000
0020
0000
,
0000
0030
0000
0000
0100
0001
1000
0010
,
0200
0000
0300
0000
0010
1000
0001
0000
,
0100
0010
1000
0000
0002
0000
0000
0000
,
0003
0000
0000
0000
2200
0000
3300
0010
,
0100
0010
0000
0001
0000
1000
0020
0000
,
0000
0030
0000
0000
0000
0000
0010
0001
,
0020
0000
0000
0030
0000
0000
1001
0000
,
2000
0000
0000
3000
0200
0000
0000
0300
,
0020
0000
0000
0030
0002
0000
0000
0003
,
0000
0000
0000
0000
1000
0000
0000
0010
,
0100
0001
0000
0000
1000
0000
0000
0010
,
1100
0000
0000
0000
0001
0000
0000
1000
,
0010
0100
0000
0000
0001
0000
0000
1000
,
0011
0000
2000
3000
,
0020
0000
0030
0000
,
2000
0000
0000
3000
0020
0000
0000
0030
,
0200
0000
0000
0300
0002
0000
0000
0000
,
0003
0000
0000
0000
1000
0000
0000
0010
,
0100
0001
0000
0000
1000
0000
0000
0010
,
0101
0000
0000
0000
0001
0000
0000
1000
,
0010
0100
0000
0000
0001
0000
0000
1000
,
0001
0000
0200
0300
,
2000
0000
0000
3000
0010
0000
0000
0000
,
2002
0000
0000
0000
,
0000
3003
0000
0000
0000
0000
0000
0000
0000
0000
0000
0000
0000
0000
0000
0000
;

//--------------- dance-single - XLev450X-ESP ----------------
#NOTES:
     dance-single:
     XLev450X:
     Hard:
     13:
     0,0,0,0,0:
0000
0000
0000
0000
,
0000
0000
0000
0000
,
0000
0000
0000
0000
,
0000
0000
0000
0000
,
0000
0000
0000
0000
,
0000
0000
0000
0000
,
0000
0000
0000
0000
,
0000
0000
0000
0000
,
0000
0000
0000
0000
,
0000
0000
0000
0000
,
0000
0000
0000
0000
,
0000
0000
0000
0000
,
0000
0000
0000
0000
,
0000
0000
0000
0000
,
0000
0000
0000
0000
,
0000
0000
0000
0000
,
1000
0010
0100
0001
1000
0000
0010
0000
,
0100
0001
0010
0000
1000
0000
0010
0000
,
0100
0010
0001
0000
1000
0010
0100
0000
,
0001
0000
1000
0000
0010
0000
0100
0000
0001
0010
1000
0010
1000
0000
0010
0000
,
0100
0001
1000
0010
,
0100
0000
0001
1000
0010
0000
0100
0000
,
0001
1000
0010
0100
0001
0000
0010
0000
,
0100
0000
0000
0000
1000
0000
0100
0000
1000
0000
0000
0100
0000
0000
0100
0000
,
0010
0001
0010
0000
0100
1000
1000
0000
,
0010
0100
0001
1000
0010
0000
0100
0000
,
0010
0001
0001
0000
0100
1000
1000
0000
,
0010
0100
0001
1000
0010
0000
0001
0000
,
0100
0000
1000
0000
0001
0010
0001
0000
,
1000
0010
0100
0001
1000
0000
0010
0000
,
0100
0000
0000
0100
0000
0000
0100
0000
0010
0000
0000
0010
0000
0000
0010
0000
,
0001
0000
0000
0000
1000
0000
0000
0000
0010
0000
0000
0100
0000
0000
0010
0000
,
0000
0010
1000
0010
0100
0010
1000
0100
,
0010
0100
0010
0001
1000
0100
0010
0100
,
0001
0000
0010
1000
0010
0100
0001
1000
,
0100
0010
0100
1000
0010
1000
0010
0000
,
0000
0000
0010
0100
0010
0100
0010
1000
,
0100
1000
0001
1000
0001
0010
0001
1000
,
0100
0000
0100
1000
0100
1000
0001
1000
,
0001
0100
0001
0100
0010
0000
0020
0000
,
0000
0030
0100
1000
0100
1000
0001
1000
,
0001
0010
0100
0010
0001
0100
0010
1000
,
0100
0000
0001
0100
0010
0100
0001
0100
,
0001
0010
0001
0100
0010
0000
1001
0000
,
0000
0010
0100
0010
0100
0001
1000
0010
,
1000
0010
0100
0001
0010
0000
1000
0100
,
1000
0001
0100
0010
0100
0010
0100
0001
,
1000
0100
0010
0001
1000
0001
1000
0000
,
0000
0000
0010
0100
0001
0100
1000
0010
,
0100
0001
1000
0010
0100
1000
0001
0000
,
0000
0100
1000
0001
0010
1000
0100
0010
,
0001
1000
0010
0100
0001
0010
1000
0000
,
0000
0000
0010
0100
0001
0010
1000
0001
,
0010
0100
0001
1000
0001
0010
1001
0000
,
0000
0000
0010
0100
1000
0100
0010
0001
,
0100
0001
1000
0010
0001
1000
0110
0000
,
0001
0100
1000
0100
0010
0100
0001
0000
,
0100
0010
1000
0001
0100
0010
1000
0000
,
1000
0100
1000
0000
0010
0100
0001
0000
,
0010
0000
1000
0000
0100
0000
0010
0000
1000
0000
0000
0100
0001
0000
0010
0000
,
0100
1000
0001
0010
1000
0100
0010
0001
,
0100
0010
0001
1000
0010
0001
0100
0000
,
0010
0000
1000
0010
0100
0000
0010
0100
,
1000
0000
0001
0000
0100
0000
0000
0000
0010
0000
0000
0010
0000
0000
0100
0000
,
0010
1000
1100
0011
,
0100
0010
0010
1000
0010
0100
0001
0100
,
0010
0001
0100
0010
0001
0010
0100
1000
,
0100
0010
1000
0010
,
0100
0001
1000
0000
0010
0100
1000
0000
,
0010
0100
0001
1000
0010
0000
0100
0000
,
1100
0011
1100
1001
,
0110
1000
1100
0011
,
2200
3300
0220
0330
0022
0033
0220
0330
,
2002
3003
0022
0033
2200
3300
0000
0000
,
0110
0000
0000
0000
0010
0100
0001
0000
,
0010
0001
0010
0000
0100
0010
1000
0000
,
0110
0000
0000
0000
0100
0010
0001
0000
,
1000
0100
1000
0000
0010
0100
0010
0000
,
0101
0010
0100
0010
,
1000
0000
0100
0000
1000
0000
0000
0000
0010
0000
0000
0010
0000
0000
0010
0000
,
2200
3300
0220
0330
2002
3003
0022
0033
,
2200
3300
2002
3003
0220
0330
0000
0000
,
0010
0001
0010
0000
0001
0100
0010
0000
,
1000
0000
0100
0000
0010
0000
0000
0000
0001
0000
0000
0001
0000
0000
0001
0000
,
1001
0000
0000
0000
0010
0100
1000
0000
,
0010
0000
0100
0000
0001
1000
0010
0000
,
0100
0010
0001
0000
0100
1000
0010
0000
,
1000
0000
0100
0000
0001
0000
0000
0000
1000
0000
0000
0010
0000
0000
0100
0000
,
2002
0000
0000
0000
,
0000
3003
0000
0000
0000
0000
0000
0000
0000
0000
0000
0000
0000
0000
0000
0000
;

//--------------- dance-single - XLev450X-CSP ----------------
#NOTES:
     dance-single:
     XLev450X:
     Challenge:
     17:
     0,0,0,0,0:
0000
0000
0000
0000
,
0000
0000
0000
0000
,
0000
0000
0000
0000
,
0000
0000
0000
0000
,
0000
0000
0000
0000
,
0000
0000
0000
0000
,
0000
0000
0000
0000
,
0000
0000
0000
0000
,
0000
0000
0000
0000
,
0000
0000
0000
0000
,
0000
0000
0000
0000
,
0000
0000
0000
0000
,
0000
0000
0000
0000
,
0000
0000
0000
0000
,
0000
0000
0000
0000
,
0000
0000
0000
0000
,
0001
0010
0100
1000
0001
0010
0100
1000
0000
0000
0110
0000
0001
0000
0110
0000
,
1000
0100
0010
0001
1000
0100
0010
0001
0000
0000
0110
0000
1000
0000
0110
0000
,
0001
0100
0001
1000
0010
0100
0010
1000
0100
0010
0001
1000
0100
1000
0001
0010
,
0100
0110
0000
0110
0001
0110
0000
0110
,
1000
0100
0010
0001
1000
0100
0010
0001
0000
0000
0110
0000
1000
0000
0110
0000
,
0001
0010
0100
1000
0001
0010
0100
1000
0000
0000
0110
0000
0001
0000
0110
0000
,
1000
0010
1000
0001
0100
0010
0100
0001
0010
0100
1000
0001
0010
0001
1000
0100
,
0010
0110
0100
1001
0010
0100
0100
0010
,
1000
0000
0000
0100
0000
0000
0010
0000
0001
0010
0000
0010
0001
0000
0100
0000
,
0010
0100
0000
0100
0010
0000
1000
0000
0100
1000
0000
1000
0100
0000
0010
0000
,
0100
0010
0000
0010
0001
0000
0100
0000
0010
1000
0000
1000
0100
0000
0010
0000
,
1000
0010
0001
0100
1000
0100
0001
0000
,
0001
0000
0000
0010
0000
0000
0100
0000
1000
0100
0000
0100
1000
0000
0010
0000
,
0100
0010
0000
0010
0100
0000
0001
0000
0010
0001
0000
0001
0010
0000
0100
0000
,
0010
0100
0000
0100
1000
0000
0010
0000
0100
0001
0000
0001
0010
0000
0100
0000
,
0010
0100
0000
0100
0010
0001
0100
0000
0001
0000
0010
0000
0001
0000
1000
0000
,
0001
0100
0001
0100
0001
0000
1000
0000
0100
1000
0100
1000
0100
1000
0100
0000
,
0020
0000
1000
0000
0031
0000
1000
0000
0001
1000
0001
1000
0001
0000
0100
0000
,
0010
0000
1000
0000
0010
1000
0010
1000
0010
0000
0100
0001
0100
0001
0100
0000
,
0002
0000
2003
0000
3002
0000
2003
0000
3010
0100
0010
0100
0010
0000
1000
0000
,
0001
0010
0100
0010
0001
0000
1000
0010
0100
0010
1000
0000
0001
0100
0010
0000
,
0000
0000
1010
0000
0000
0000
1000
0010
1000
0000
0001
0000
1001
0000
0000
0000
,
0001
1000
0010
1000
0001
0000
0100
0000
0010
1000
0001
0100
0001
0000
0010
0000
,
0100
0000
1000
0010
1000
0000
0001
0010
0001
0000
0000
0000
1001
0000
0000
0000
,
1000
0000
0100
0010
0100
0000
0001
0100
0010
0100
0000
0010
0100
0000
1000
0000
,
0001
0000
0100
0010
0100
0000
1000
0100
0010
0100
0000
0010
0100
0000
0001
0000
,
1000
0000
0010
0100
0010
0000
0001
0010
0100
0010
0000
0100
0010
0000
1000
0100
,
1000
0000
0000
0001
0010
0001
0010
0000
0000
0100
1000
0100
1000
0000
0000
0001
1000
0001
1000
0000
0000
0000
0000
0000
,
1001
0000
1000
0100
1000
0000
0010
0000
0110
0000
0100
0010
0100
0000
0001
0000
,
1000
0000
0100
1000
0000
0100
1000
0000
0010
0100
0001
0000
0010
0000
0100
0000
,
1100
0000
0100
0010
0001
0000
0100
0000
0110
0000
0100
0010
1000
0000
0100
0000
,
0010
0000
0001
0100
0000
0001
0100
0000
0010
0000
1000
0010
0100
0000
0001
0000
,
0001
0100
0000
0001
0100
0000
0010
0000
1000
0010
0000
1000
0010
0000
0100
0000
,
0010
1000
0010
0000
0100
0000
0001
0000
0010
0000
1000
0000
0010
0000
0001
0000
,
1000
0100
0000
1000
0010
0000
0100
0000
0001
0010
0000
0001
0100
0000
0010
0000
,
1000
0100
0000
0010
0001
0000
1000
0010
0000
0100
0001
0000
0010
0100
0010
0000
,
1001
0000
0001
0100
0000
0100
0010
0000
2000
0000
0000
0000
3001
0000
0000
0000
,
1001
0000
1000
0100
0000
0100
0010
0000
0002
0000
0000
0000
1003
0000
0000
0000
,
1001
0000
1000
0100
0000
0100
0001
0000
0200
0000
0000
0000
0310
0000
0000
0000
,
1000
0001
0100
0001
0000
0010
0100
0000
1000
0000
0010
0000
0100
0000
0010
0000
,
0001
0010
0100
1000
0001
0010
0100
1000
0000
0000
0110
0000
0001
0000
0110
0000
,
1000
0100
0010
0001
1000
0100
0010
0001
0000
0000
0110
0000
1000
0000
0110
0000
,
0001
0100
0001
1000
0010
0100
0010
1000
0100
0010
0001
1000
0100
1000
0001
0010
,
0100
0110
0000
0110
0001
0110
0000
0110
,
1000
0100
0010
0001
1000
0100
0010
0001
0000
0000
0110
0000
1000
0000
0110
0000
,
0001
0010
0100
1000
0001
0010
0100
1000
0000
0000
0110
0000
0001
0000
0110
0000
,
1000
0010
1000
0001
0100
0010
0100
0001
0010
0100
1000
0001
0010
0001
1000
0100
,
0010
0110
0100
1001
0010
0100
0100
0010
,
1000
0000
0000
0100
0000
0000
0010
0000
0001
0010
0000
0010
0001
0000
0100
0000
,
0010
0100
0000
0100
0010
0000
1000
0000
0100
1000
0000
1000
0100
0000
0010
0000
,
0100
0010
0000
0010
0001
0000
0100
0000
0010
1000
0000
1000
0100
0000
0010
0000
,
1000
0010
0001
0100
1000
0100
0001
0000
,
0001
0000
0000
0010
0000
0000
0100
0000
1000
0100
0000
0100
1000
0000
0010
0000
,
0100
0010
0000
0010
0100
0000
0001
0000
0010
0001
0000
0001
0010
0000
0100
0000
,
0010
0100
0000
0100
1000
0000
0010
0000
0100
0001
0000
0001
0010
0000
0100
0000
,
0010
0100
0000
0100
0010
0001
0100
0000
0001
0000
0010
0000
0001
0000
1000
0000
,
1000
0000
0001
1000
0000
0001
0100
0000
0001
0000
1000
0001
0000
0100
0001
0000
,
1000
0000
0001
0100
0000
0001
0010
0000
0001
0000
1000
0100
1000
0000
0000
0000
,
0001
0000
1000
0100
0000
1000
0010
0000
1000
0000
0001
0100
0000
0001
0010
0000
,
0001
0000
1000
0100
0000
1000
0010
0000
2000
0000
0000
0000
3100
0000
0010
0000
,
0001
0000
1000
0001
0000
1000
0100
0000
1000
0000
0001
1000
0000
0100
1000
0000
,
0001
0000
1000
0100
0000
1000
0010
0000
1000
0000
0001
0100
0001
0000
0000
0000
,
1001
0000
0000
1100
0000
0000
0101
0000
1001
0000
0000
0011
0000
0000
1010
0000
,
1001
0000
0000
0110
0000
0000
1010
0000
2002
0000
0000
0000
0000
0000
3003
0000
,
0110
0000
0010
1000
0001
0000
0101
0000
0000
0000
1010
0000
0000
0000
0101
0000
,
0000
0000
1100
0000
0000
0000
0001
0100
0001
0000
0010
0000
0100
0000
1000
0000
,
1100
0000
0001
0100
0001
1000
0100
0000
0010
0000
0001
0000
1000
0000
1010
0000
,
0000
0000
0011
0000
0000
0000
1000
0010
0100
0000
0010
0000
1010
0000
0011
0000
,
0000
0000
1000
0100
1000
0001
0100
0000
0001
0100
0001
1000
0010
0000
0100
0010
,
1000
0001
0010
0100
1000
0100
1000
0010
0100
0000
0001
0010
1000
0010
0001
0000
,
0110
0000
0001
0100
0010
1000
0001
1000
0001
0000
0010
0000
0100
0000
1100
0000
,
0000
0000
1000
0100
0010
0001
0010
0100
0010
0001
1000
0010
0100
0001
1000
0001
,
0220
0000
0000
0000
,
0000
0330
0000
0000
0000
0000
0000
0000
0000
0000
0000
0000
0000
0000
0000
0000
;
