#TITLE:Girlz Buttz;
#ARTIST:Thomas Howard feat. DJ Potatoe;
#MUSIC:Girlz Buttz.ogg;
#BANNER:Girlz Buttz.png;
#BACKGROUND:Girlz Buttz-bg.png;
#SAMPLESTART:19.394;
#SAMPLELENGTH:15;
#OFFSET:-0.537;
#BPMS:0=105;
#BGSTAGE:4;

//--------------- dance-single - XLev450X-bSP ----------------
#NOTES:
     dance-single:
     XLev450X:
     Beginner:
     2:
     0,0,0,0,0:
0000
0000
0000
0000
,
0000
0000
0000
0000
,
0000
0000
0000
0000
,
0000
0000
0000
0000
,
0000
0010
0000
1000
,
0000
0010
0000
0000
,
0000
0001
0000
0100
,
0000
0001
0000
0000
,
0000
0001
0000
0001
,
0000
0001
0000
0000
,
0000
1000
0000
1000
,
0000
1000
0000
0000
,
0000
1000
0010
0000
,
0000
0100
0001
0000
,
0000
1000
0001
0000
,
0000
0010
1000
0000
,
0000
0010
0000
0000
,
0000
1000
0000
0000
,
0000
0001
0000
0000
,
0000
0100
0000
0000
,
0000
0010
0010
0010
,
0000
1000
0000
0001
,
0000
0100
0100
0100
,
0000
1001
0000
0000
,
0000
0010
0000
1000
,
0000
0001
0000
0000
,
0000
0100
0000
0001
,
0000
1000
0000
0000
,
0000
0100
0100
0100
,
0000
0010
0000
1000
,
0000
0001
0001
0001
,
0000
1000
0000
0010
,
0000
1000
1000
1000
,
0000
0010
0000
0001
,
0000
0001
0001
0001
,
0000
0000
0000
0000
,
0000
0010
0000
0100
,
0000
1000
0000
0001
,
0000
1000
0000
0010
,
0000
0100
0000
0000
,
0000
1000
0000
0001
,
0000
1000
0000
0010
,
0000
0100
0000
0001
,
0000
1000
0000
0000
,
0000
0010
0000
1000
,
0000
0001
0000
0000
,
0000
0010
0000
0100
,
0000
0010
0000
0000
;

//--------------- dance-single - XLev450X-BSP ----------------
#NOTES:
     dance-single:
     XLev450X:
     Easy:
     5:
     0,0,0,0,0:
0000
0000
0000
0000
,
0000
0000
0000
0000
,
0000
0000
0000
0000
,
0000
0000
0000
0000
,
0000
0001
1000
0010
,
0100
0001
1000
0001
,
0000
0010
1000
0010
,
0100
0001
1000
0010
,
0000
0001
0001
1000
,
0000
0010
1000
0010
,
0000
0100
0001
1000
,
0000
0002
0000
0000
,
1003
0001
1000
0100
,
1000
0000
0010
1000
0010
0000
0001
0010
,
0001
0100
1000
0101
,
0000
0010
1000
1010
,
0000
1000
0001
0100
,
1000
0000
1000
0100
1000
0000
0010
0100
,
0010
0001
1000
0001
,
0100
0001
1000
0101
,
0000
0010
1000
0010
,
1000
0000
0010
0010
0100
0000
0001
0001
,
1000
0001
1000
0100
,
0010
2001
0001
0002
,
3003
0010
0010
1000
,
0001
0100
0000
0001
,
0101
0010
1000
0010
,
0000
1000
0100
1100
,
1001
0010
1000
0001
,
1000
0000
0100
0100
1000
0000
0010
0010
,
0001
0001
1000
0001
,
0000
0000
0100
0100
1000
0000
0010
0010
,
0100
0001
1000
0001
,
0000
0010
1000
0100
,
0000
0000
0001
1000
0001
0100
1002
0000
,
0000
0003
2020
0000
0000
0000
0000
0000
,
3030
0010
0100
1000
,
0001
1000
0001
0100
,
0000
1000
0010
0100
,
1000
0000
0001
0010
1000
0001
0100
0000
,
1000
0000
0010
0100
0010
0000
0001
0100
,
0001
0000
1000
0000
0100
0000
1000
1000
,
0001
0100
1000
0010
,
0100
0000
0001
0010
0100
0000
1000
0000
,
1001
0000
0100
0000
0010
0000
1000
1000
,
0100
0000
0010
0010
1000
0000
0001
0000
,
0000
0000
1000
1000
0001
0000
0100
0100
,
0010
0000
0000
0000
0100
0000
0000
0000
0001
0000
0000
1001
0000
0000
0000
0000
;

//--------------- dance-single - XLev450X-DSP ----------------
#NOTES:
     dance-single:
     XLev450X:
     Medium:
     9:
     0,0,0,0,0:
0000
0000
0000
0000
,
0000
0000
0000
0000
,
0000
0000
0000
0000
,
0000
0000
0000
0000
,
0000
0000
0001
0000
1000
0010
1000
0000
,
0001
0010
1000
0001
0010
0100
0010
0000
,
1001
0000
1000
0010
1000
0000
0001
0010
,
0001
0000
1000
0001
0100
0010
0001
0000
,
1000
0000
0001
0001
1000
0000
0010
0010
,
1000
0000
0100
0100
0010
1000
0001
0000
,
1000
0000
0001
0001
0100
0000
0010
1000
,
0010
0000
0000
0000
0001
0100
0000
1000
0000
0001
0000
2002
0000
0000
0000
0000
,
3003
0000
0010
1000
0010
0000
0001
1000
,
0001
0100
1000
0001
0010
0000
1000
0010
,
1000
0000
0001
0010
0100
0000
1000
1000
,
0001
0000
1000
0001
0100
0010
1000
0010
,
0101
0000
0010
0000
1000
0000
0010
1000
,
0010
0000
0010
1000
0010
0000
0001
1000
,
0001
0001
1000
0000
0010
0000
0100
0010
,
1000
0000
0001
1000
0001
1000
0010
0100
,
0101
0001
1000
0010
,
1000
0000
0100
1000
0100
0001
1000
0010
,
0100
0000
1000
0000
0010
0000
1000
0010
,
1000
0001
0100
1001
,
0000
0000
0010
0000
1000
0000
1000
0001
,
0100
0000
0010
1000
0010
0000
1000
0000
,
0101
0000
0001
1000
0001
0000
1000
0000
,
0010
0000
1000
0100
1000
0000
0010
0000
,
0100
0001
0001
1000
,
1000
0000
0010
1000
0010
0000
0100
0001
,
0100
0001
1000
0001
,
0000
1000
0100
0001
,
0000
0010
1000
0100
,
1000
0000
0001
0100
0001
0000
1000
0000
,
0010
2002
0000
0000
,
3003
0000
0000
0000
0200
0000
0000
0000
0010
0000
0000
0010
0000
0020
0000
0000
,
0000
0330
0001
0000
1000
0000
0010
0000
,
1000
0000
0001
0010
0001
0000
1000
0100
,
1000
0000
0010
0000
0100
0000
0010
1000
,
0010
0000
0001
0000
1000
0000
0001
1000
,
0001
0000
0010
0010
0010
0000
1000
1000
,
1000
0100
0010
0100
,
0000
0000
0001
0000
1000
0000
0001
0100
,
0001
0000
1000
0010
1000
0000
0010
0100
,
0010
0000
0001
0000
1000
0000
0001
1000
,
0001
0000
0010
1000
0010
0100
0001
0000
,
0101
0000
1000
0001
1000
0000
0010
1000
,
0010
0000
0000
0000
0001
1000
0000
0100
0000
0010
0000
1001
0000
0000
0000
0000
;

//--------------- dance-single - XLev450X-ESP ----------------
#NOTES:
     dance-single:
     XLev450X:
     Hard:
     13:
     0,0,0,0,0:
0000
0000
0000
0000
,
0000
0000
0000
0000
,
0000
0000
0000
0000
,
0000
0000
0000
0000
,
0000
0000
0000
0000
0001
1000
0010
0000
0100
1000
0000
0001
0000
0100
0020
0000
,
0030
0000
0001
0000
0010
0001
0000
1000
0000
0010
0000
0000
0100
0000
0000
0000
,
1001
0000
0000
0000
0010
1000
0000
0001
0000
0010
0000
1000
0000
0001
0000
0100
,
0000
0000
0000
0000
0010
1000
0000
0001
0000
0100
0000
0000
0010
0000
0000
0000
,
0011
0000
0000
0000
0010
1000
0000
0100
0000
0001
0000
0000
0010
0001
0000
0010
,
0000
1000
0000
0000
0010
0100
0000
0010
0000
1000
0000
0000
2002
0000
0000
3003
,
0110
0000
0000
0000
0010
0001
0000
1000
0000
0100
0000
0000
0010
1000
0000
0001
,
0000
0100
0000
0000
0001
1000
0000
0010
0000
0100
0000
2000
0000
3000
0000
0000
,
2002
0000
3003
0000
0010
0001
0010
0100
1000
0000
0100
0001
0010
1000
0010
0001
,
0100
0000
0001
1000
0001
0000
1000
0010
1000
0000
0001
0100
1000
0001
0000
0100
,
0000
0000
0001
1000
0010
0001
0000
0100
0000
0000
1000
0001
0010
1000
0000
0001
,
0000
0000
0100
0010
1000
0001
0010
1000
0010
1000
0001
0100
1000
0001
0000
0100
,
0000
0000
0000
0010
1000
0000
0001
0100
0000
0000
0010
1000
0001
0010
0000
1000
,
0000
0100
0001
0010
1000
0100
0001
1000
0000
0010
1000
0010
1000
0001
0100
1000
,
0000
0000
0010
1000
0010
1000
0001
0100
0000
0000
1000
0001
1000
0010
1000
0001
,
0000
0000
0100
1000
0001
1000
0010
1000
0100
0010
0001
0100
1000
0010
1000
0002
,
2003
0000
0000
3000
0010
0001
0000
1000
0000
0010
0000
0100
0000
1000
0000
0001
,
0000
0100
0010
0000
0120
0000
0000
0000
0130
0000
0000
0000
2001
0000
0000
0000
,
3001
0001
1000
0010
,
0100
0000
0000
0000
0101
0000
0000
0000
1010
0000
0000
0100
0000
1002
0000
0000
,
0000
0000
0003
0000
0001
1000
0000
0010
0000
0100
0000
1000
0000
0001
0000
0020
,
0000
0000
0030
0000
1000
0001
0000
1000
0000
0010
0000
0000
0101
0000
0000
0000
,
2020
3030
0000
0000
0010
1000
0000
0001
0000
0100
0000
1000
0000
0001
0000
0200
,
0000
0000
0300
0000
1000
0001
0000
0100
0000
1000
0000
0000
0010
0000
0000
0000
,
0202
0000
0303
0000
0001
0000
0001
0000
1000
0000
0010
0000
0100
0000
1000
0100
,
0001
0010
0100
1000
0101
0000
1000
0010
,
1010
0000
0000
0000
0010
0000
1000
0000
0100
0000
1000
0000
0001
0000
0010
1000
,
0100
0000
0001
0100
1000
0000
0001
0000
0010
0000
0001
0000
1000
0000
0001
0100
,
1000
0001
1000
0001
0100
0000
1000
0000
0010
0000
1000
0000
0100
0000
1000
0000
,
0001
0000
0000
0000
0010
0000
0100
0000
1000
0000
0001
0000
0010
0000
1000
0100
,
0002
0000
0103
0000
0001
0000
1000
0001
1000
0000
0010
0100
0000
1000
0001
0100
,
2000
0000
3000
0000
0001
0000
0000
0000
0010
0000
0000
0100
0000
2002
0000
0000
,
0000
0000
3003
0000
0001
0000
1000
0000
0010
0000
1000
0000
0001
0000
0010
1000
,
0010
0001
1000
0100
1000
0001
0010
1000
,
0101
0000
1000
0010
1000
0100
0001
1000
,
0001
0000
1000
0010
1000
0100
1000
0010
,
0101
0000
0010
1000
1010
0000
0010
0100
,
0110
0000
0001
1000
0001
0100
1000
0001
,
1001
0000
0001
1000
0010
1000
0001
0010
,
1010
0000
0100
1000
0001
0100
0010
0010
,
1001
0000
0000
0000
0100
0001
0000
0010
0000
1000
0000
0000
0100
1000
0000
0100
,
0000
0001
0000
0000
0100
0010
0000
0100
0000
0001
0000
0000
1000
0000
0001
0000
,
0200
0000
0310
0000
0100
1000
0000
0001
0000
0010
0000
0000
0100
0001
0000
1000
,
0000
0010
0000
0000
1000
0001
0000
0100
0000
0010
0000
1001
0000
0000
0000
0000
;
