#TITLE:Get You Back;
#ARTIST:Nissy;
#GENRE:J-POP;
#MUSIC:Get You Back.ogg;
#BANNER:Get You Back.png;
#BACKGROUND:Get You Back-bg.png;
#SAMPLESTART:43.758;
#SAMPLELENGTH:15;
#OFFSET:-0.379;
#BPMS:0=130.016;
#DISPLAYBPM:130;
#BGSTAGE:29;

//--------------- dance-single - XLev450X-bSP ----------------
#NOTES:
     dance-single:
     XLev450X:
     Beginner:
     3:
     0,0,0,0,0:
0000
0000
0000
0000
,
0000
0000
0000
0000
,
0000
0000
0000
0000
,
0000
0000
0000
0000
,
0000
0000
0000
0000
,
0000
0000
0000
0000
,
0000
0000
0000
0000
,
0000
0000
0000
0000
,
0001
0000
0001
0000
,
0001
0000
0000
0000
,
1000
0000
1000
0000
,
1000
0000
0000
0000
,
0010
0000
0010
0000
,
0010
0000
0000
0000
,
0100
0000
0100
0000
,
0100
0000
0000
0000
,
0001
0001
0000
0000
,
0010
0010
0000
0000
,
0100
0100
0000
0000
,
1000
1000
0000
0000
,
1000
0001
0000
0000
,
0010
1000
0000
0000
,
0100
0001
0000
0000
,
0100
0010
0000
0000
,
0001
0000
0001
0000
,
0001
0000
0000
0000
,
0100
0000
0010
0000
,
0100
0000
0000
0000
,
1000
0000
1000
0000
,
1000
0000
0000
0000
,
0010
0000
0100
0000
,
0010
0000
0000
0000
,
1001
0000
0000
0000
,
0000
0000
0000
0000
,
1001
0000
0000
0000
,
0000
0000
0000
0000
,
1001
0000
0000
0000
,
0000
0000
0000
0000
,
1001
0000
0000
0000
,
0000
0000
0000
0000
,
0000
0000
0000
0000
,
0010
0000
0100
0000
,
1000
0000
0000
0000
,
0001
0000
0010
0000
,
0100
0000
0000
0000
,
0001
0000
0010
0000
,
1000
0000
0000
0000
,
0100
0000
0010
0000
,
0100
0000
0000
0000
,
0001
0001
0001
0000
,
1000
1000
1000
0000
,
0010
0010
0010
0000
,
0100
0100
0100
0000
,
0010
0001
0010
0000
,
0100
0010
0100
0000
,
1000
0100
1000
0000
,
0001
1000
0001
0000
,
1001
0000
0000
0000
;

//--------------- dance-single - XLev450X-BSP ----------------
#NOTES:
     dance-single:
     XLev450X:
     Easy:
     7:
     0,0,0,0,0:
0000
0000
0000
0000
,
0000
0000
0000
0000
,
0000
0000
0000
0000
,
0000
0000
0000
0000
,
0001
1000
0001
0010
,
1000
0100
0010
0001
,
1000
0001
1000
2002
,
0000
0000
0000
3003
,
0001
1000
0010
0100
,
0001
0000
1000
0001
0000
0000
0010
0000
1000
0010
0000
0000
,
0001
0100
1000
0001
,
0010
0000
0001
0010
0000
0000
0001
0000
0000
1000
0000
0000
,
0010
0100
1000
0001
,
1000
0000
0010
0100
0000
0000
0001
0000
0000
1000
0000
0000
,
0010
0000
1000
0100
0000
0010
0001
0000
0010
0100
0000
0010
,
1000
0000
0001
1000
0000
0000
0000
0000
0000
0000
0000
0000
,
0001
1000
0100
0010
,
0001
1000
0001
0000
,
0010
1000
0100
0010
,
0001
0010
0000
0010
1000
0000
0001
0000
0000
0100
0000
0000
,
1000
0001
1000
0000
,
0010
1000
0100
0000
,
0010
0000
0000
0100
0000
0000
0001
0010
0000
1000
0000
0000
,
0001
1000
0000
0010
1000
0000
2002
0000
0000
0000
3003
0000
,
0001
1000
0010
0000
,
0010
0001
0100
1000
,
0001
0000
1000
0001
0000
1000
0010
0000
0000
0100
0000
0000
,
0001
0000
0000
0010
0000
0000
2002
0000
0000
0000
3003
0000
,
0001
1000
0010
0100
,
0001
0010
0000
1000
0000
0000
1000
0100
0000
0010
0000
0000
,
0001
1000
0001
1000
,
0010
0100
0000
0001
1000
0000
2002
0000
0000
0000
0000
3003
,
0001
0000
0010
0000
,
1000
0001
1000
0000
,
0010
0000
0100
0000
,
0001
1000
0010
0000
,
0001
0000
1000
0001
,
1000
0000
0010
1000
,
0010
0100
0001
1000
,
0001
1000
0001
0000
,
2002
0000
0000
3003
,
0010
0001
1000
0010
,
0100
0000
0001
0010
0000
0000
0010
0000
1000
0010
0000
0000
,
0100
0001
1000
0000
,
0100
0010
1001
0000
,
0010
1000
0100
0010
,
0001
0100
0010
1000
,
0010
0000
1000
0100
0000
0001
0010
0000
0100
0010
0000
0000
,
1000
0001
1001
0000
,
0001
0001
1000
0000
,
0010
0010
0100
0000
,
0010
0000
0010
0001
0000
1000
0010
0000
0000
1000
0000
0000
,
0010
0000
1000
0100
0000
0010
0001
0000
0000
0000
0000
0000
,
0001
1000
0100
0010
,
0001
0000
0001
0010
0000
0010
1000
0000
0000
0010
0000
0000
,
1000
0000
0100
0010
0000
0001
0010
0000
0100
1000
0000
0000
,
0001
1010
0101
0110
,
2002
0000
0000
3003
;

//--------------- dance-single - XLev450X-DSP ----------------
#NOTES:
     dance-single:
     XLev450X:
     Medium:
     11:
     0,0,0,0,0:
0000
0000
0000
0000
,
0000
0000
0000
0000
,
0000
0000
0000
0000
,
0000
0000
0000
0000
,
0001
1000
0010
0100
,
0001
1000
0001
1000
,
0010
0000
0000
0100
0000
0000
0001
0000
1000
0002
0000
0000
,
0000
0000
1000
0000
2000
0000
0000
0000
0000
3003
0000
0000
,
0001
0000
0000
1000
0000
0000
0010
0000
0001
0010
0000
0000
,
0100
0000
1000
0001
0000
0000
0010
0000
1000
0010
0000
0001
,
0010
0000
0000
1000
0000
0000
0001
0000
0100
0010
0000
0000
,
1000
0000
0001
1000
0000
0010
1000
0000
0100
0010
0000
0000
,
0001
0000
0000
1000
0000
0000
0001
0000
1000
0010
0000
0000
,
0010
0001
0000
1000
0010
0000
0100
0010
0000
0001
1000
0000
,
0001
0000
0000
0100
0000
0000
0010
0000
1000
0010
0000
0100
,
0001
0000
0010
0100
0000
0100
0002
0000
0000
0003
0000
0000
,
0001
1000
0010
0100
,
0001
0000
1000
0010
0000
0100
0010
0000
0001
0010
0000
0100
,
1000
0010
1000
0001
,
0010
0000
1000
0100
0000
0001
0010
0000
0100
1000
0000
0001
,
1000
0010
0100
0001
,
1000
0000
0010
0100
0000
0000
0001
0000
0000
0010
0000
0000
,
1000
0001
1000
0001
0000
0000
0010
1000
0010
1000
0000
0000
,
0010
0100
0010
0100
0000
0000
0001
0000
0000
1000
0000
0000
,
0001
0100
1000
0010
,
1000
0000
0000
0001
0000
0000
0100
0000
0010
1000
0000
0000
,
0001
0000
0000
0010
0000
0000
0001
0000
0000
1000
0000
0001
,
1000
0000
0010
0100
0000
0010
0001
0000
0000
1000
0000
0000
,
0001
0100
1000
0010
,
1000
0010
1000
0010
0000
0000
0001
0010
0001
0010
0000
0000
,
0100
1000
0001
0100
,
0001
1000
0001
1000
,
0010
0000
0001
1000
,
0001
0000
0000
1000
0000
0000
0001
0000
1000
0010
0000
1000
,
0001
0000
0100
1000
,
0010
0000
0001
0010
0000
0010
1000
0000
0100
0010
0000
0001
,
0010
1000
0001
0100
,
1000
0000
0010
1000
0000
0100
0010
0000
0001
0010
0000
0000
,
1000
0001
0100
1000
,
0010
1000
0010
1000
0000
0000
0001
0100
0001
0100
0000
0000
,
1002
0000
0000
1000
0000
0000
2000
0000
0000
0000
0000
3003
,
0001
1000
0010
0100
,
0010
0000
0001
0010
0000
0010
1000
0000
0100
0010
0000
0001
,
0010
1000
0001
0100
,
0001
0000
0000
0100
0000
0000
2002
0000
0000
0000
3003
0000
,
0010
1000
0100
0010
,
0001
0010
0001
0010
0000
0000
0010
1000
0010
1000
0000
0000
,
0001
1000
0100
0010
,
0001
0000
0100
0010
0000
1000
0010
0000
0000
0000
0000
0000
,
0001
1000
0100
0001
,
0010
0100
0001
0000
,
1000
0100
0001
1000
,
0001
0000
1000
0010
0000
0100
0010
0000
0000
0000
0000
0000
,
0001
1000
0010
1000
,
0010
0000
0001
0010
0000
0010
1000
0000
0000
0100
0000
0000
,
0001
0000
0100
0010
0000
0000
1000
0000
0001
1000
0000
0000
,
0010
1000
0101
1010
,
2002
0000
0000
3003
;

//--------------- dance-single - XLev450X-ESP ----------------
#NOTES:
     dance-single:
     XLev450X:
     Hard:
     13:
     0,0,0,0,0:
0000
0000
0000
0000
,
0000
0000
0000
0000
,
0000
0000
0000
0000
,
0000
0000
0000
0000
,
0110
1001
1010
1100
,
0101
1001
0110
0101
,
1010
1001
1001
1001
,
2002
0000
0000
3003
,
0010
0000
1000
0010
0000
0001
0010
0000
0100
1000
0000
0010
,
0100
0000
0001
1000
0000
0010
1000
0010
0100
0010
0000
0000
,
0001
0000
1000
0001
0000
0100
1000
0000
0001
1000
0000
0010
,
1000
0100
0001
0010
0000
1000
0010
0000
0100
0010
0000
0000
,
0001
1000
0010
1000
0000
0000
0010
1000
0010
0100
0000
0000
,
0001
0010
0100
1000
0001
1000
0010
1000
0010
0100
0000
0000
,
0001
0000
1000
0010
0000
1000
0100
0000
0001
0010
0000
0000
,
2000
0000
0000
0002
0000
0000
3003
0000
1000
0001
0000
0100
,
0010
0000
0000
0001
0000
0000
1000
0000
0010
1000
0000
0100
,
0010
0000
0001
0010
0000
0100
1000
0000
0001
0100
0000
0010
,
0100
0000
0000
0010
0000
0000
1000
0000
0001
1000
0000
0000
,
0010
0100
0000
1000
0001
0000
0100
0000
0001
0010
0000
0100
,
1000
0000
0001
0010
0000
1000
0100
0000
0010
0001
0000
0000
,
1000
0001
0010
1000
,
0010
1000
0010
1000
0000
0000
0001
0010
0001
0010
0000
0000
,
0010
0100
0010
0100
0000
0001
0010
0000
0000
1001
0000
0000
,
0101
0010
1000
0001
,
1000
0010
1000
0010
0000
0000
0010
0100
0010
0100
0000
0000
,
0001
0000
0001
0010
0000
1000
0100
0000
0001
0100
0000
0010
,
1000
0010
1000
0010
0000
0001
0010
0000
0100
1000
0000
0000
,
0101
0000
0000
0010
0000
0000
1000
0010
1000
0010
0000
0000
,
0001
0010
0001
0100
0000
0000
0001
1000
0010
1000
0000
0010
,
1000
0000
0100
0001
0000
0010
0100
0000
1000
0001
0000
0010
,
1000
0000
0010
0100
0000
0001
1000
0000
0000
0110
0000
0000
,
0101
0000
0000
1000
0000
0000
0001
0010
0100
1000
0001
1000
,
0010
0000
0000
0100
0000
0000
0001
1000
0010
1000
0010
0100
,
0001
0000
0000
0010
0000
0000
1000
0001
1000
0010
0001
0100
,
1000
0000
0000
1000
0000
0000
0001
0010
0100
1000
0100
0001
,
1000
0010
0100
0001
,
1000
0001
1000
0010
0000
0000
0010
1000
0010
1000
0000
0000
,
0001
0000
0000
0010
0000
0000
0100
0001
0000
0100
0001
0000
,
0010
1000
0010
1000
0000
0000
0010
0001
0010
0100
0000
0000
,
0100
0010
0100
0001
0100
1000
0001
0000
0000
0110
0000
0000
,
1001
0010
1000
0100
,
0010
1000
0010
1000
0000
0000
0001
0010
0001
0010
0000
0000
,
1000
0100
0001
0100
,
0010
1000
0000
0100
0001
0000
0010
0000
0000
1000
0000
0000
,
0001
0000
0000
1000
0000
0000
0100
0000
0010
1000
0000
0000
,
0001
0010
0100
1000
0000
0000
1000
0001
1000
0100
0000
0000
,
0001
1000
0100
0010
,
0010
1000
0000
0001
0010
0000
0100
0000
0000
0001
0000
0000
,
1000
0000
0000
1010
0000
0001
0010
0000
0100
1000
0000
0010
,
1000
0000
0010
0100
0000
0001
0010
0000
0100
1000
0000
0000
,
0001
1000
0100
0010
,
1000
0100
0101
1010
,
0010
1000
0100
0001
,
0010
0000
1000
0100
0000
0001
0010
0000
0100
1000
0000
0000
,
0001
1000
0001
1000
0000
0000
0010
1000
0010
1000
0000
0000
,
0010
0001
0010
1000
0000
0000
0101
0000
0000
1010
0000
0000
,
2002
0000
0000
3003
;
