#TITLE:Get Wicked;
#ARTIST:Maozon;
#GENRE:BIG BEAT;
#MUSIC:Get Wicked.ogg;
#BANNER:Get Wicked.png;
#BACKGROUND:Get Wicked-bg.png;
#CDTITLE:./CDTitles/bm IIDX 31 EPOLIS.png;
#SAMPLESTART:87.111;
#SAMPLELENGTH:15;
#SELECTABLE:YES;
#OFFSET:-0.444;
#BPMS:0.000=135;
#BGCHANGES:3.000=Get Wicked.avi=1.000=0=0=1=====,
99999=-nosongbg-=1.000=0=0=0 // don't automatically add -songbackground-
;

//--------------- dance-single - XLev450X-bSP ----------------
#NOTES:
     dance-single:
     XLev450X:
     Beginner:
     5:
     0,0,0,0,0:
0000
0000
0000
0000
,
0000
0000
0000
0000
,
0000
0000
0000
0000
,
0000
0000
0000
0000
,
0000
0000
0000
0001
,
1000
0010
0100
0001
,
1000
0010
0000
1000
,
0001
0100
0010
2002
,
0000
0000
0000
0000
0000
3003
0001
0000
,
0001
1000
0010
1000
,
0100
0001
0010
1000
,
0001
0010
0100
1000
,
0001
0010
0100
0001
,
1000
0001
0000
1000
,
0001
0100
0000
0010
,
1000
0001
0010
0101
,
1010
0000
0220
0000
0000
0330
0001
0000
,
0001
0001
1000
0010
,
0100
1000
0001
0010
,
0000
1000
0001
0100
,
0000
0010
1000
0001
,
0100
0001
1000
0010
,
0100
0001
0010
1000
,
0001
0010
0100
2002
,
0000
0000
0000
0000
0000
3003
1000
0000
,
0001
0100
0010
1000
,
0001
0010
0000
1000
,
0001
0100
0010
1000
,
0001
0010
0000
0001
,
1000
0010
0000
1000
,
0001
0100
0000
0010
,
1000
0001
0010
1001
,
0000
0000
0000
1000
,
0001
0010
1000
0001
,
0010
0100
0000
1000
,
0001
1000
0010
0100
,
0001
1000
0000
1000
,
0010
0001
0100
1000
,
0001
0100
0000
1000
,
0001
0100
0010
1000
,
1000
1000
1000
0001
,
0001
1000
0010
1000
,
0100
0001
0010
1000
,
0001
0010
0100
1000
,
0001
0010
0100
0001
,
1000
0001
0000
1000
,
0001
0100
0000
0010
,
1000
0001
0010
0101
,
1010
0000
0220
0000
0000
0330
0001
0000
,
0001
0001
1000
0010
,
0100
1000
0001
0010
,
0000
1000
0001
0100
,
0000
0010
1000
0001
,
0100
0001
1000
0010
,
0100
0001
0010
1000
,
0001
0010
0100
2002
,
0000
0000
0000
0000
0000
3003
0001
0000
,
1000
0010
0100
0001
,
1000
0010
1000
0001
,
0000
0100
0010
1000
,
0000
0001
0100
0010
,
0001
1000
0000
0001
,
0010
1000
0000
1000
,
0001
0100
0010
2002
,
0000
0000
0000
0000
0000
3003
1000
0000
,
0001
0100
0010
1000
,
0001
0010
0100
0001
,
1000
0010
0100
2002
,
0000
0000
3003
0000
;

//--------------- dance-single - XLev450X-BSP ----------------
#NOTES:
     dance-single:
     XLev450X:
     Easy:
     8:
     0,0,0,0,0:
0000
0000
0000
0000
,
0000
0000
0000
0000
,
0000
0000
0000
0000
,
0000
0000
0000
0000
,
0000
0000
0000
0001
,
1000
0000
0010
0100
0001
0000
1000
0000
,
0010
0000
1000
0010
1000
0000
0001
0000
,
0100
0000
0010
1000
0100
0000
2002
0000
,
0000
0000
0000
0000
0000
3003
0001
0000
,
1000
0000
0010
0001
0100
0000
0001
0000
,
1000
0000
0010
1000
0100
0010
0001
0000
,
1000
0000
0100
0001
0010
0000
0001
0000
,
1000
0000
0000
0000
0010
0000
0001
0000
0100
0001
1000
0010
1000
0000
0000
0000
,
0001
0010
1000
0001
,
0100
0000
0001
1000
0010
0000
0100
0000
,
0001
0000
1000
0010
0100
0000
2002
3003
,
0220
0330
2002
0000
0000
3003
0001
0000
,
1000
0000
0001
0100
0010
0000
1000
0010
,
0100
0000
0001
0000
1000
0000
0001
0100
,
0000
0010
0000
0000
1000
0000
0000
0000
0001
0000
0100
0000
1000
0000
0010
0000
,
0000
1000
0000
0000
0001
0000
0000
0100
0000
0000
0010
0000
1000
0000
0000
0000
,
0001
0000
1000
0010
0100
0000
0001
1000
,
0010
0000
0100
0001
1000
0010
0100
0001
,
0000
1000
0000
0000
0010
0000
0000
0100
0000
0000
0001
0000
0220
0000
0000
0000
,
0000
0000
0000
0000
0000
0330
0001
0000
,
1000
0001
0100
0010
,
1000
0001
0000
1000
,
0001
0000
0100
0001
1000
0000
0010
0000
,
0100
0001
0000
1000
,
0010
0000
1000
0001
0100
0000
0010
0000
,
0001
0000
1000
0010
0100
0000
0001
0000
,
1000
0000
0010
0100
0001
0010
2002
0000
,
0000
0000
3003
0000
0001
0100
1000
0000
,
0001
0000
0100
1000
0001
0000
0010
0000
,
1000
0000
0100
0001
1000
0000
0010
0000
,
1000
0000
0001
0010
0001
0000
1000
0000
,
0010
0000
0100
0001
0000
0000
1000
0000
,
0010
0000
1000
0100
0001
0000
0010
0000
,
1000
0000
0010
0100
0001
0000
1000
0000
,
0010
0000
0100
1000
0010
0000
0101
0000
,
1010
0110
1001
0001
,
1000
0000
0010
0001
0100
0000
0001
0000
,
1000
0000
0010
1000
0100
0010
0001
0000
,
1000
0000
0100
0001
0010
0000
0001
0000
,
1000
0000
0000
0000
0010
0000
0001
0000
0100
0001
1000
0010
1000
0000
0000
0000
,
0001
0010
1000
0001
,
0100
0000
0001
1000
0010
0000
0100
0000
,
0001
0000
1000
0010
0100
0000
2002
3003
,
0220
0330
2002
0000
0000
3003
0001
0000
,
1000
0000
0001
0100
0010
0000
1000
0010
,
0100
0000
0001
0000
1000
0000
0001
0100
,
0000
0010
0000
0000
1000
0000
0000
0000
0001
0000
0100
0000
1000
0000
0010
0000
,
0000
1000
0000
0000
0001
0000
0000
0100
0000
0000
0010
0000
1000
0000
0000
0000
,
0001
0000
1000
0010
0100
0000
0001
1000
,
0010
0000
0100
0001
1000
0010
0100
0001
,
0000
1000
0000
0000
0010
0000
0000
0100
0000
0000
0001
0000
0220
0000
0000
0000
,
0000
0000
0000
0000
0000
0330
0001
0000
,
1000
0000
0001
0100
0010
0000
1000
0010
,
0100
0000
0001
0010
0001
0000
1000
0010
,
0000
0100
0000
0000
0001
0000
0000
1000
0000
0000
0001
0000
0100
0000
1000
0000
,
0000
0001
0000
0000
0100
0000
0000
0010
0000
1000
0001
0100
0001
0000
0000
0000
,
1000
0000
0001
0100
0010
0000
1000
0001
,
0100
0000
0010
0001
1000
0000
0010
1000
,
0000
0001
0000
0000
0100
0000
0000
0010
0000
0000
1000
0000
0001
0000
0000
1000
,
0000
0000
0010
0000
0000
0100
0000
0000
0001
0000
1000
0000
0010
0000
0000
0000
,
1000
0000
0001
0100
0010
0000
1000
0000
,
0010
0000
0001
0010
0001
0000
1000
0000
,
0001
0000
0000
0000
1000
0000
0001
0000
0000
1000
0000
0000
0020
0000
0000
0000
,
0000
0000
0000
0000
0000
0000
0000
0030
0001
0000
1000
0010
0000
0000
0000
0000
;

//--------------- dance-single - XLev450X-DSP ----------------
#NOTES:
     dance-single:
     XLev450X:
     Medium:
     12:
     0,0,0,0,0:
0000
0000
0000
0000
,
0000
0000
0000
0000
,
0000
0000
0000
0000
,
0000
0000
0000
0000
,
0000
0000
0000
0001
,
1000
0000
0000
0010
0000
0000
0100
0000
0001
1000
0000
0000
0010
0000
0000
0000
,
0100
0000
0000
0001
0000
0000
1000
0000
0010
0100
0001
0000
1000
0000
0000
0000
,
0010
0000
0000
0100
0000
0000
0001
0000
1000
0010
0100
0000
2002
0000
0000
0000
,
0000
0000
0000
0000
0000
0000
3003
0000
0010
1000
0100
0010
0001
0000
0000
0000
,
1000
0000
0000
0010
0000
0000
0100
0000
0001
0000
1000
0000
0010
0000
0100
0001
,
1000
0000
0000
0010
0000
0000
0100
0000
0001
0000
0000
0000
1000
0000
0001
0000
,
0100
0000
0000
0010
0000
0000
1000
0000
0001
0000
0000
0000
0100
0000
0010
1000
,
0001
0000
0000
0100
0000
0000
0010
0000
1000
0001
1000
0001
0110
0000
0000
0000
,
0100
0000
0000
0010
0000
0000
1000
0000
0001
0000
0010
0000
0100
0000
0000
0000
,
0010
0000
0000
1000
0000
0000
0001
0000
0100
0000
1000
0000
0010
0000
0001
0010
,
0001
1000
0000
0100
0000
0000
0010
0000
0100
0000
0001
0000
1000
0010
1000
0000
,
0100
0001
0100
0000
0010
0000
0000
1000
0000
0001
0100
0010
1000
0000
0000
0000
,
0001
0000
0100
0010
1000
0001
0100
0000
,
0010
0001
1000
0000
0010
0100
0001
1000
,
0000
0010
0000
0000
0100
0000
0000
0001
0000
0100
1000
0010
0000
0000
0100
0000
,
0000
0001
0000
0000
1000
0000
0000
0010
0000
0100
0001
1000
0100
0000
0000
0000
,
0010
0000
0001
1000
0010
0000
0100
0001
,
1000
0000
0001
1000
0010
1000
0001
1000
,
0000
0010
0000
0000
0100
0000
0000
0001
1000
0000
0100
0000
0001
0000
0000
1000
,
0000
0000
0010
0000
0000
0100
0000
0000
0001
0000
1000
0000
0010
0000
0000
0000
,
1000
0000
0001
0100
0010
0000
1000
0000
,
0001
0000
0010
0001
0010
0000
1000
0000
,
0010
0000
0100
0001
1000
0000
0010
0000
,
0100
0000
1000
0001
0100
0000
0001
0000
,
1000
0000
0010
0001
0010
0000
1000
0000
,
0100
0000
0001
1000
0010
0000
0100
0001
,
1000
0000
0010
0100
0001
0010
2002
0000
,
0000
0000
3003
0100
0001
0000
0010
0000
1000
0001
0100
1000
0001
0000
0100
0000
,
0010
0000
0001
0000
1000
0000
0010
0100
,
0001
0000
1000
0000
0100
0000
0001
1000
,
0010
0000
0100
0000
0001
0000
1000
0010
,
0100
0000
0001
1000
0010
0000
0100
0000
,
0001
0000
1000
0001
0100
0000
1000
0000
,
0001
0000
1000
0010
0100
0000
1000
0000
,
0001
0000
0100
1000
0001
0000
0010
0000
,
1000
0001
0100
0001
,
1000
0000
0000
0010
0000
0000
0100
0000
0001
0000
1000
0000
0010
0000
0100
0001
,
1000
0000
0000
0010
0000
0000
0100
0000
0001
0000
0000
0000
1000
0000
0001
0000
,
0100
0000
0000
0010
0000
0000
1000
0000
0001
0000
0000
0000
0100
0000
0010
1000
,
0001
0000
0000
0100
0000
0000
0010
0000
1000
0001
1000
0001
0110
0000
0000
0000
,
0100
0000
0000
0010
0000
0000
1000
0000
0001
0000
0010
0000
0100
0000
0000
0000
,
0010
0000
0000
1000
0000
0000
0001
0000
0100
0000
1000
0000
0010
0000
0001
0010
,
0001
1000
0000
0100
0000
0000
0010
0000
0100
0000
0001
0000
1000
0010
1000
0000
,
0100
0001
0100
0000
0010
0000
0000
1000
0000
0001
0100
0010
1000
0000
0000
0000
,
0001
0000
0100
0010
1000
0001
0100
0000
,
0010
0001
1000
0000
0010
0100
0001
1000
,
0000
0010
0000
0000
0100
0000
0000
0001
0000
0100
1000
0010
0000
0000
0100
0000
,
0000
0001
0000
0000
1000
0000
0000
0010
0000
0100
0001
1000
0100
0000
0000
0000
,
0010
0000
0001
1000
0010
0000
0100
0001
,
1000
0000
0001
1000
0010
1000
0001
1000
,
0000
0010
0000
0000
0100
0000
0000
0001
1000
0000
0100
0000
1000
0010
0000
0001
,
0000
0100
0000
1000
0010
0000
1000
0001
0100
0001
0100
0010
1000
0000
0001
0000
,
1000
0000
0000
0010
0000
0000
0100
0000
0001
0000
1000
0000
0010
0000
0100
0000
,
1000
0001
0100
0000
0010
1000
0001
0100
,
0000
1000
0000
0000
0001
0000
0000
0100
0000
0010
1000
0000
0000
0000
0001
0000
,
0000
0100
0000
0000
0010
1000
0000
0001
0000
0100
0010
1000
0001
0000
0000
0000
,
0100
0000
0000
0000
0010
0000
1000
0001
0010
0000
1000
0000
0100
0000
0000
1000
,
0000
0000
0001
0100
0010
0000
1000
0000
0001
0000
0100
0000
0010
0000
1000
0000
,
0000
0001
0000
0000
0100
0000
0000
0010
0000
1000
0010
0000
1000
0000
0000
0001
,
0000
0000
0100
0000
0000
0010
0000
0000
1000
0000
0010
0000
0001
0000
1000
0000
,
0010
0000
0100
0001
1000
0000
0100
0001
,
1000
0000
0100
0000
0010
0000
0100
0001
0200
0000
0000
0300
0001
0000
0001
0010
,
1000
0000
1000
0100
0001
0000
0100
0000
0000
0001
0000
0000
2002
0000
0000
0000
,
0000
0000
0000
0000
0000
0000
0000
3003
0010
1000
0010
0100
0000
0000
0000
0000
;

//--------------- dance-single - XLev450X-ESP ----------------
#NOTES:
     dance-single:
     XLev450X:
     Hard:
     16:
     0,0,0,0,0:
0000
0000
0000
0000
,
0000
0000
0000
0000
,
0000
0000
0000
0000
,
0000
0000
0000
0000
,
0000
0000
0000
0000
0000
0000
0001
1000
,
0010
0000
0000
0100
0000
0000
0001
0000
1000
0000
0000
0000
0010
0000
0001
0000
,
1000
0000
0000
0010
0000
0000
0100
0001
1000
0010
0000
0000
0100
0000
0001
0000
,
1000
0000
0000
0010
0000
0000
0100
0001
0000
0010
0000
0000
2002
0000
0000
0000
,
0000
0000
0000
0000
0000
0000
3003
0000
0100
0010
0001
0010
1000
0000
0001
0100
,
0010
0000
1000
0000
0001
0000
0100
0010
0000
1000
0000
0001
0010
0000
1000
0001
,
0100
0000
0001
0000
0010
0000
1000
0001
0000
0100
0000
0010
1000
0000
0001
0100
,
0010
0000
1000
0000
0001
0000
0100
0010
0000
1000
0000
0010
0100
0000
0010
1000
,
0001
0000
0000
0000
0100
0000
0000
0000
0010
0000
0000
0000
0100
0000
0010
0000
2000
3000
0002
0003
2000
3000
0002
0003
0010
0000
0000
0000
1000
0000
0000
0000
,
0001
0000
0100
0000
0010
0000
1000
0001
0000
0100
0000
1000
0001
0000
0010
0001
,
0010
0000
1000
0000
0010
0000
0100
0001
0000
1000
0000
0010
0100
1000
0100
1000
,
0001
1000
0001
0100
0010
0100
0010
1000
0001
0100
0010
0100
1001
0000
0000
0000
,
0101
0000
0000
0000
0010
1000
0000
0001
0000
0100
0010
1000
0001
0000
0000
0000
,
0100
0000
0000
0000
0010
0000
1000
0000
0001
0000
0100
0010
1000
0000
0001
0000
,
0010
0100
0010
1000
0001
0000
0100
0000
0010
0000
1000
0000
0001
0000
0010
0001
,
0000
0010
1000
0000
0010
0100
0000
0001
1000
0100
0010
0001
0100
0000
0001
1000
,
0000
0010
0100
0000
0001
1000
0000
0100
0000
0001
1000
0010
0100
0000
0001
0000
,
1000
0000
0010
0100
0001
0000
1000
0010
0100
0000
0010
0000
1000
0000
0010
0001
,
0010
0000
0100
1000
0100
0000
0010
0000
0100
0000
0001
0000
1000
0000
0010
0100
,
0000
0001
1000
0000
0100
0010
0000
1000
0010
0100
0010
1000
0001
0000
0000
1000
,
0000
0000
0010
0000
0000
0100
0000
0000
0001
0000
1000
0000
0001
0000
1000
0010
,
0100
0000
0001
0000
0010
0000
0001
0100
1000
0100
0001
0000
0100
0000
0001
0010
,
0001
0000
0000
1000
0000
0000
0010
0000
0100
0000
0000
0000
1000
0000
0001
0100
,
0010
0000
0000
1000
0000
0000
0010
0000
0100
0000
0000
0000
0001
0000
1000
0010
,
0100
0000
1000
0000
0001
0010
0100
1000
0001
0010
0100
0010
0001
0000
0000
0000
,
0001
0000
0000
1000
0000
0000
0010
0000
0100
0000
0000
0000
0001
0000
1000
0010
,
0100
0000
0000
0001
0000
0000
1000
0000
0010
0000
0000
0000
0100
0000
0001
0000
,
1000
0000
0010
0100
0000
0010
0000
0000
1000
0000
0010
0000
0200
0000
0000
0000
,
0000
0000
0300
0001
1000
0001
0010
1000
0010
0000
0100
0000
0010
0000
0000
0000
,
1000
0000
0000
0001
0000
0000
0100
0000
0010
0000
1000
0000
0100
0000
0010
0001
,
0010
0000
0000
1000
0000
0000
0010
0000
0100
0000
0001
0000
1000
0000
0010
0100
,
0001
0000
0000
1000
0000
0000
0010
0000
0100
0000
0001
0000
1000
0000
0010
0100
,
0010
0000
0000
1000
0100
0001
0000
0100
1000
0001
0010
0001
1000
0000
0001
0100
,
0010
0000
1000
0000
0001
0000
0010
0001
0010
0000
1000
0000
0010
0100
0001
0010
,
1000
0000
0001
0000
0100
0000
0010
1000
0001
0000
0100
0000
0001
0010
0100
1000
,
0001
1000
0100
0010
0001
1000
0010
0100
0010
1000
0010
1000
0100
0001
1000
0000
,
0010
0100
0001
0000
1000
0010
0100
0000
1000
0001
0010
0000
1000
0000
0001
0100
,
0010
0000
1000
0000
0001
0000
0100
0010
0000
1000
0000
0001
0010
0000
1000
0001
,
0100
0000
0001
0000
0010
0000
1000
0001
0000
0100
0000
0010
1000
0000
0001
0100
,
0010
0000
1000
0000
0001
0000
0100
0010
0000
1000
0000
0010
0100
0000
0010
1000
,
0001
0000
0000
0000
0100
0000
0000
0000
0010
0000
0000
0000
0100
0000
0010
0000
2000
3000
0002
0003
2000
3000
0002
0003
0010
0000
0000
0000
1000
0000
0000
0000
,
0001
0000
0100
0000
0010
0000
1000
0001
0000
0100
0000
1000
0001
0000
0010
0001
,
0010
0000
1000
0000
0010
0000
0100
0001
0000
1000
0000
0010
0100
1000
0100
1000
,
0001
1000
0001
0100
0010
0100
0010
1000
0001
0100
0010
0100
1001
0000
0000
0000
,
0101
0000
0000
0000
0010
1000
0000
0001
0000
0100
0010
1000
0001
0000
0000
0000
,
0100
0000
0000
0000
0010
0000
1000
0000
0001
0000
0100
0010
1000
0000
0001
0000
,
0010
0100
0010
1000
0001
0000
0100
0000
0010
0000
1000
0000
0001
0000
0010
0001
,
0000
0010
1000
0000
0010
0100
0000
1000
0000
0100
0010
0001
0100
0000
0001
1000
,
0000
0010
0100
0000
0001
1000
0000
0100
0000
0001
1000
0010
0100
0000
0001
0000
,
1000
0000
0010
0100
0001
0000
1000
0010
0100
0000
0010
0000
1000
0000
0010
0001
,
0010
0000
0100
1000
0100
0000
0010
0000
0100
0000
0001
0000
1000
0000
0010
0100
,
0000
0001
1000
0000
0100
0010
0000
1000
0010
0100
0010
1000
0001
0010
0000
1000
,
0000
0000
0000
0010
0000
0000
0000
0000
0000
0100
0000
0000
0001
0000
0000
0000
0000
0000
0010
0000
0100
0000
0001
0000
0100
0000
0000
1000
0000
0000
0001
0000
0000
0010
0000
0000
0100
0000
0000
0000
0000
0000
1000
0000
0000
0000
0000
0000
,
0010
0000
0000
0100
0000
0001
1000
0000
0010
0000
0100
0000
0001
0000
1000
0000
,
0010
0000
0001
1000
0010
0000
0001
0000
0100
0000
1000
0001
0100
0000
0010
0100
,
0000
0001
0100
0000
0100
1000
0000
0001
0100
0001
1000
0000
0010
0000
0001
1000
,
0000
0010
0100
0000
1000
0010
0000
0001
0010
1000
0001
0100
0001
0000
1000
0000
,
0010
0000
0000
1000
0000
0100
0001
0000
1000
0000
0010
0000
0001
0000
1000
0000
,
0010
0000
0100
0001
1000
0000
0010
0000
0100
0000
0001
0000
1000
0000
0010
0100
,
0000
0001
1000
0000
0100
0010
0000
0001
1000
0100
0010
0000
0001
0000
0000
1000
,
0000
0000
0010
0000
0000
0100
0000
0000
0001
0000
0100
0000
1001
0000
0010
0000
,
0100
0000
0001
1000
0001
0000
0010
0001
0000
0100
0000
0000
0001
0000
1000
0000
,
0001
0000
0100
0010
0100
0000
1000
0000
0010
0100
0000
0000
0110
0000
1000
0000
,
0010
0000
0100
0001
0100
0000
1001
0000
0000
0110
0000
0000
2002
0000
0000
0000
,
0000
0000
0000
0000
0000
0000
3003
0000
0001
1000
0010
0100
0000
0000
0000
0000
;
