#TITLE:Get Over Yourself;
#ARTIST:Eden's Crush;
#MUSIC:Get Over Yourself.ogg;
#BANNER:Get Over Yourself.png;
#BACKGROUND:Get Over Yourself-bg.png;
#SAMPLESTART:32.539;
#SAMPLELENGTH:15;
#SELECTABLE:YES;
#OFFSET:-0.139;
#BPMS:0=177.778;
#DISPLAYBPM:177;
#BGSTAGE:17;

//--------------- dance-single - XLev450X -スター--bSP ----------------
#NOTES:
     dance-single:
     XLev450X -スター-:
     Beginner:
     3:
     0,0,0,0,0:
0000
0000
0000
0000
,
0000
0000
0000
0000
,
0000
0000
0000
0000
,
0000
0000
0000
0000
,
0000
0000
0000
0000
,
0000
0000
0000
0000
,
0000
0000
0000
0000
,
0000
0000
0000
0000
,
0000
1000
0000
0000
,
0000
0000
0000
0000
,
0000
0010
0000
0000
,
0000
0000
0000
0000
,
0000
0001
0000
1000
,
0000
0010
0000
0000
,
0000
0100
0000
1000
,
0000
0001
0000
0000
,
0000
0010
0000
0000
,
0000
1000
0000
0000
,
0000
0001
0000
0100
,
0000
0010
0000
0000
,
0000
0010
0000
0000
,
0000
0100
0000
0000
,
0000
0001
0000
0000
,
0000
0000
0000
0000
,
0000
0001
0001
0001
,
0000
1000
0000
0010
,
0000
0100
0001
0100
,
0000
1000
0010
1000
,
0000
0010
0000
1000
,
0000
0100
0000
0000
,
0000
0010
0000
1000
,
0000
0001
0100
0010
,
0000
1000
0000
0000
,
0000
0001
0000
1000
,
0000
0010
0100
0001
,
0000
1000
0000
0000
,
0000
1000
0000
0010
,
0000
0100
0000
0000
,
0000
0001
0001
0001
,
0000
1000
0010
1000
,
0000
0100
0000
0010
,
0000
0100
0000
0000
,
0000
0001
0000
1000
,
0000
0010
0000
0000
,
0000
0100
0000
0001
,
0000
0100
0000
0000
,
0000
0010
0000
1000
,
0000
0100
0000
0001
,
0000
0010
0000
1000
,
0000
0010
1000
0100
,
0000
0001
0000
1000
,
0000
0100
0000
0000
,
0000
0001
0000
1000
,
0000
0010
0000
0000
,
0000
0100
0000
0001
,
0000
1000
0000
0010
,
0000
1000
0000
0001
,
1000
0010
0000
0000
,
0000
1000
0000
0001
,
0000
0100
0000
0010
,
0000
1000
0000
0001
,
0100
0010
0000
0000
,
0000
1000
0000
0010
,
0000
0100
0000
0001
,
0000
1000
0000
0010
,
1000
0100
0000
0000
,
0000
0001
0000
1000
,
0010
0100
0000
0000
,
0000
0001
0000
1000
,
0010
0100
0000
0000
,
0000
0001
0000
1000
,
0000
0010
0100
0001
,
0000
0001
0001
0001
,
0000
1000
0000
0010
,
0000
0100
0001
0100
,
0000
1000
0010
1000
,
0000
0010
0000
1000
,
0000
0100
0000
0000
,
0000
0010
0000
1000
,
0000
0001
0100
0010
,
0000
0100
0000
0000
,
0000
1001
0000
0000
;

//--------------- dance-single - XLev450X -スター--BSP ----------------
#NOTES:
     dance-single:
     XLev450X -スター-:
     Easy:
     7:
     0,0,0,0,0:
0000
0000
0000
0000
,
0000
0000
0000
0000
,
0000
0000
0000
0000
,
0000
0000
0000
0000
,
0000
0000
0000
0000
,
0000
0000
0000
0000
,
0000
0000
0000
0000
,
0000
0000
0000
0000
,
0000
0001
0000
1000
,
0000
0010
0100
0001
,
0000
1000
0000
0010
,
0000
0100
1000
0010
,
0000
0100
0001
1000
,
0000
0010
1000
0010
,
0000
0100
0001
1000
,
0010
0100
0010
0100
,
0000
0101
0000
1010
,
0000
0110
0000
1001
,
0000
0001
1000
0010
,
0000
0100
0001
1000
,
0000
0010
0100
1000
,
0000
0001
0100
0010
,
0000
1000
0001
0100
,
0010
0000
0001
0010
0001
0000
1000
0010
,
1000
0010
0100
0001
,
1000
0010
0000
0100
,
0000
0001
1000
0010
,
0100
0001
1000
0100
,
0000
0001
0000
1000
,
0000
0010
0100
0001
,
0000
0000
0010
0001
0010
0000
1000
0010
,
1000
0010
0100
0001
,
1000
0010
0000
0100
,
0000
0001
1000
0001
,
0000
1000
0010
0100
,
1000
0000
0001
0100
0001
0000
1000
0000
,
0010
1000
0010
0100
,
0001
1000
0000
0010
,
0000
0000
0100
0001
1000
0000
0010
0100
,
0010
1000
0001
0100
,
0010
0101
0000
1010
,
0000
0110
0000
1001
,
0000
0010
1000
0001
,
0100
0010
1000
0001
,
0000
0100
0001
1000
,
0000
0010
0100
0001
,
0000
1000
0000
0001
,
0000
0100
0000
0010
,
0000
0001
1000
0010
,
0000
1000
0001
0100
,
0000
0010
0000
1000
,
0000
0010
1000
0001
,
0000
0100
0000
0010
,
0000
1000
0001
0100
,
0000
0001
0000
1000
,
0000
0010
1000
0001
,
0100
0010
0000
1000
,
0000
0001
0000
1000
,
0000
0010
0000
0100
,
0000
0001
0000
1000
,
0010
0100
0000
0001
,
0000
1000
0000
0010
,
0000
1000
0001
0100
,
0000
0010
1000
0100
,
0000
0001
0000
1000
,
0000
0010
0000
0100
,
0000
0001
1000
0010
,
0000
0100
0001
1000
,
0000
0101
0000
0010
,
0000
1010
0000
0100
,
0000
0000
1001
0000
,
0110
0000
1000
0000
0001
0000
0100
0010
,
1000
0010
0100
0001
,
1000
0010
0000
0100
,
0000
0001
1000
0010
,
0100
0001
1000
0100
,
0000
0001
0000
1000
,
0000
0010
0100
0001
,
0000
0000
0010
0001
0010
0000
1000
0010
,
1000
0010
0100
0001
,
1000
0000
0010
0000
0100
0001
1000
0000
,
0010
0110
0000
0000
;

//--------------- dance-single - XLev450X -スター--DSP ----------------
#NOTES:
     dance-single:
     XLev450X -スター-:
     Medium:
     10:
     0,0,0,0,0:
0000
0000
0000
0000
,
0000
0000
0000
0000
,
0000
0000
0000
0000
,
0000
0000
0000
0000
,
0000
0000
0000
0000
,
0000
0000
0000
0000
,
0000
0000
0000
0000
,
0000
0000
0000
0000
,
0000
0010
1000
0001
,
0010
0000
0001
0010
0001
0000
1000
0000
,
0010
0000
0100
0001
0100
0000
1000
0010
,
1000
0010
0100
0010
,
0000
0000
0010
0001
0010
0000
1000
0010
,
1000
0100
0001
1000
,
0010
0000
1000
0010
1000
0000
0100
0001
,
0100
0010
1000
0100
,
0000
0001
1000
0010
,
0000
0100
1000
0001
,
0100
0000
0010
0001
0010
0000
1000
0000
,
0001
0000
1000
0001
1000
0000
0010
0000
,
0100
0001
0000
1000
,
0000
0010
0100
0001
,
0000
0000
0010
0001
0010
0000
1000
0010
,
1000
0000
0100
0010
0100
0000
0100
0001
,
0100
0010
1000
0001
,
0100
0000
0000
0000
0010
0000
0000
0000
1000
0000
0000
0000
0010
0000
0000
0001
,
0000
1000
0010
0000
0100
0000
0001
0000
,
1000
0000
0010
0100
0001
1000
0010
0000
,
0001
0000
1000
0000
0010
1000
0001
0000
,
0100
0010
0010
0001
,
1000
0000
0010
0100
0001
0000
0100
0001
,
0100
0000
1000
0010
0100
0001
1000
0000
,
0010
0000
0100
0000
0001
0010
0001
0000
,
1000
0101
0000
1000
,
0010
0000
0100
0000
1000
0001
0100
0000
,
1000
0000
0100
0010
1000
0001
0100
0000
,
0010
0100
0001
0000
1000
0000
0010
0000
,
0100
0001
1000
0101
,
1000
0000
0010
1000
0010
0000
0100
0001
,
0100
0000
0010
1000
0001
0100
0010
0000
,
1000
0001
0000
0100
,
0000
0010
1000
0001
,
0100
0000
0100
0001
0100
0000
1000
0010
,
1000
0000
0010
0100
0010
0000
0001
0000
,
0000
1000
0001
0100
,
0000
1000
0010
0100
,
0000
0000
0010
0000
0001
0000
0100
0001
,
0100
0000
1000
0010
1000
0010
0100
0000
,
0001
1000
0000
0010
,
0000
0100
0001
1000
,
0000
0010
1000
0001
,
0000
0000
0100
0000
0001
0100
1000
0000
,
0000
0000
0010
0100
0001
0000
1000
0000
,
0010
0000
1000
0010
0100
0000
0001
0000
,
0010
0000
0100
0001
0100
0000
1000
0010
,
1000
0000
0001
0100
0010
1000
0001
0100
,
0010
1000
0001
0000
0010
0000
1000
0000
,
0010
1000
0001
0100
,
0010
1000
0001
0100
,
0000
0010
1000
0001
,
0100
0000
0010
0000
1000
0001
0100
0000
,
0010
1000
0010
0100
,
0001
1000
0010
0100
,
0010
0001
1000
0010
,
0100
0000
0001
0000
1000
0010
0100
0000
,
0001
1000
0010
0100
,
0001
0100
0001
0000
1000
0000
0010
0000
,
0001
0000
0010
0100
0001
1000
0010
0000
,
0100
0001
1000
0000
0010
0000
0100
0000
,
0001
1000
0000
0000
,
0000
0000
0010
0100
0001
0000
1000
0010
,
1000
0000
0001
0100
0010
1000
0001
0100
,
0010
0010
1000
0001
,
0100
0000
0000
0000
0010
0000
0000
0000
1000
0000
0000
0000
0010
0000
0000
0001
,
0000
1000
0010
0000
0100
0000
0001
0000
,
1000
0000
0010
0100
0001
1000
0010
0000
,
0001
0000
1000
0000
0010
1000
0001
0000
,
0100
0010
0010
0001
,
1000
0000
0010
0100
0001
0000
0100
0001
,
0100
0000
1000
0010
0100
0001
1000
0000
,
0010
0000
1000
0000
0001
0100
0010
0000
,
0100
1001
0000
0000
;

//--------------- dance-single - XLev450X -スター--ESP ----------------
#NOTES:
     dance-single:
     XLev450X -スター-:
     Hard:
     15:
     0,0,0,0,0:
0000
0000
0000
0000
,
0000
0000
0000
0000
,
0000
0000
0000
0000
,
0000
0000
0000
0000
,
0000
0000
0000
0000
,
0000
0000
0000
0000
,
0000
0000
0000
0000
,
0000
0000
0000
0000
,
0000
0001
0000
1000
,
0000
0000
0010
0000
0100
0000
0001
1000
,
0010
0100
1000
0001
,
0000
0000
1000
0000
0010
0000
0100
0001
,
1000
0000
0010
0001
0010
0000
1000
0010
,
1000
0000
0010
0000
0100
0000
0001
0100
,
0001
1000
0010
0100
,
1000
0000
0001
0100
0010
1000
0001
0000
,
0010
0001
0000
1000
,
0000
0010
0100
1000
,
0001
0100
0010
0001
,
1000
0000
0010
0100
0001
1000
0010
0100
,
0001
1000
0010
0000
0001
0000
0010
0000
,
0000
1000
0001
0100
,
0000
0000
0000
0000
0100
0010
0001
0010
0100
0010
0100
1000
0100
1000
0001
1000
,
0100
0010
0001
0100
0010
1000
0001
1000
0010
1000
0100
0010
0100
1000
0010
1000
,
0001
1000
0001
0010
1000
0000
0000
0000
0010
0000
0100
0000
0001
0000
0000
0000
,
0010
0000
0000
0000
1000
0000
0000
0000
0010
0000
0000
0000
0100
0000
0000
0001
,
0000
1000
0010
0000
0100
0001
1000
0000
,
0010
0000
0000
0000
0100
0001
0100
0000
1000
0000
0010
0000
0100
0000
0000
0000
,
0001
1000
0010
0000
0100
0001
1000
0010
,
0000
0100
0000
0000
0010
0000
0000
0000
1000
0000
0000
0000
0001
0000
0000
0100
,
0000
0000
0010
0000
0001
0000
0010
0001
0010
0000
0100
0000
1000
0010
1000
0000
,
0100
0000
0001
0010
0001
0000
0000
0000
0001
0000
1000
0000
0010
0000
0000
0000
,
0100
0000
0000
0000
0001
0000
0000
1000
0000
0000
0010
0000
0100
0000
0001
0000
,
0100
0000
0000
0000
1000
0000
0000
0010
0000
0000
0100
0000
0001
0000
0000
1000
,
0000
0010
0001
1000
0010
0100
0001
0000
,
0010
0000
1000
0010
0100
0001
0010
0000
,
1000
0000
0000
0001
0100
0000
0000
0000
0010
0000
1000
0000
0001
0000
0100
0000
,
0001
0010
0000
0000
1000
0000
0000
0000
0010
0000
0000
0000
0100
0000
0000
0000
,
1000
0000
0000
0000
0001
0100
0001
0000
0100
0000
0000
0000
0010
1000
0010
0000
,
1000
0000
0010
1000
0001
0100
0010
0000
,
0110
0010
1000
0010
,
0100
0000
0010
0001
0010
0000
1000
0010
,
0100
0000
0001
0000
1000
0000
0001
0100
,
0000
0010
0000
1000
0000
0010
0100
0000
,
0010
0000
1000
0001
0100
0000
1000
0010
,
0100
0010
0001
1000
,
0000
0000
0001
0010
0001
0000
1000
0010
,
0100
0000
0010
0100
0001
1000
0010
0001
,
0100
0001
1000
0010
,
0100
0000
0010
0001
0010
0000
1000
0010
,
1000
0010
0100
0001
,
1000
0000
0100
0001
0100
0000
1000
0000
,
0000
0000
0010
0000
1000
0000
0010
0100
,
0001
1000
0010
0100
,
0001
0000
1000
0010
0100
0000
0001
1000
,
0001
0000
0000
0000
0100
0000
0010
0000
1000
0000
0001
0010
1000
0100
0010
0100
,
0010
0100
1000
0001
0100
0000
0000
0000
1000
0000
0001
0000
0100
0000
0000
0000
,
0010
0001
0000
1000
,
0000
0000
0001
0000
0100
0010
1000
0000
,
0000
0000
0010
0000
0001
1000
0010
0000
,
0000
0000
0100
0000
0001
1000
0010
0000
,
0100
0101
1000
0010
,
1000
0000
0010
0100
0001
0000
1000
0010
,
0100
1000
0001
0100
,
0010
0000
0001
0010
0001
0000
1000
0010
,
0100
0001
1000
0010
,
0100
0000
0001
0100
0001
0000
1000
0000
,
0010
0000
0100
0001
1000
0010
0100
0000
,
0001
1000
0010
0100
,
0001
1000
0000
0010
,
0000
0001
1000
0010
,
0100
0000
0001
0010
0001
0000
1000
0010
,
1000
0000
0100
0000
0010
0100
0001
0000
,
0010
0000
0000
0000
1000
0000
0000
0000
0010
0000
0000
0000
0100
0000
0000
0001
,
0000
1000
0010
0000
0100
0001
1000
0000
,
0010
0000
0000
0000
0100
0001
0100
0000
1000
0000
0010
0000
0100
0000
0000
0000
,
0001
1000
0010
0000
0100
0001
1000
0010
,
0000
0100
0000
0000
0010
0000
0000
0000
1000
0000
0000
0000
0001
0000
0000
0100
,
0000
0000
0010
0000
0001
0000
0010
0001
0010
0000
0100
0000
1000
0010
1000
0000
,
0100
0000
0001
0010
0001
0000
0000
0000
0001
0000
1000
0000
0010
0000
0000
0000
,
0100
0000
0001
0000
1000
0010
0100
0000
,
0010
1001
0000
0000
;
