#TITLE:Get It On (RGR-Special);
#ARTIST:Intenso Project feat. Lisa Scott-Lee;
#BANNER:Get It On (RGR-Special).png;
#BACKGROUND:Get It On (RGR-Special)-bg.png;
#CDTITLE:./CDTitles/DS Unleashed2.png;
#MUSIC:Get It On (RGR-Special).ogg;
#SAMPLESTART:8.95;
#SAMPLELENGTH:15;
#BPMS:0=130;
#BGCHANGES:0=Get It On (RGR-Special).mp4=1.000=0=0=0=StretchNoLoop====,
99999=-nosongbg-=1.000=0=0=0 // don't automatically add -songbackground-;
#BGSTAGE:4;

//--------------- dance-single - XLev450X ----------------
#NOTES:
     dance-single:
     XLev450X:
     Challenge:
     14:
     0,0,0,0,0:
0000
0000
0000
0000
,
0000
0000
0000
0000
,
0000
0000
0000
0000
,
0000
0000
0000
0000
,
0000
0000
0000
0000
,
0010
0001
0010
0000
1000
0000
0001
0000
0010
0100
0010
0000
1000
0000
0010
0000
,
1000
0010
1000
0000
0010
0000
0100
0000
0001
0010
1000
0000
0100
0000
0001
0000
,
0010
0001
0000
1000
0000
0001
0000
0100
0001
0010
0000
0200
0300
0000
1000
0001
,
1000
0000
0010
0002
0003
0000
0010
0100
0010
0100
1000
0020
0000
0000
0030
0000
,
0010
1000
0010
0000
0001
0000
0010
0000
1000
0100
1000
0000
0010
0000
0100
0000
,
0001
0010
0001
0000
1000
0000
0001
0000
1000
0001
1000
0000
0010
0000
1000
0000
,
0001
1000
0000
0010
0000
0100
0000
0001
1000
0001
0000
0200
0000
0300
0001
0010
,
0001
0000
1000
0020
0000
0030
1000
0100
0010
0001
0010
0200
0000
0000
0300
0000
,
0001
1000
0100
0001
0020
0030
1000
0002
,
0000
0000
1000
0000
1003
0010
0001
2000
,
3000
0100
1000
0002
0003
0010
0001
0020
,
0030
1000
0010
0202
0303
2020
0000
3030
,
0001
1000
0100
1000
0010
0001
0010
0102
,
0000
0000
0103
0000
0000
1000
0100
0002
,
0003
0010
1000
0200
0300
0001
1000
0200
,
0300
0000
0010
0000
1000
0000
0010
0000
0200
0300
0001
0000
0010
0000
1000
0000
,
0100
0000
1000
0000
0001
0000
1000
0001
0010
0000
0100
0000
0001
0000
0100
0000
,
1000
0000
1002
0000
0000
0000
0003
0000
0000
0000
0010
0001
0010
0000
2002
0000
,
0000
0000
0000
0000
3003
0000
0000
0000
0000
0000
1000
0100
1000
0000
0220
0000
,
0000
0000
0330
0000
0000
0001
1000
0100
,
1000
0000
0010
0000
0001
0000
0010
0100
1000
0000
0100
0000
0001
0000
0010
0000
,
0100
0000
2100
0000
0000
0000
0000
3000
0000
0000
0010
0100
0010
0000
2002
0000
,
0000
0000
0000
0000
3003
0000
0001
0000
0000
0100
0000
0000
1000
0000
0100
0010
,
0001
0010
0100
1000
0100
0010
0001
0010
0100
1000
0100
0010
0001
0010
0100
1000
,
0010
0000
1000
0000
0010
0000
1000
0000
0001
0000
0010
0001
0020
0000
0030
0000
,
1000
0000
0010
1000
0000
0001
0000
0100
1000
0000
0001
0100
0002
0000
0003
0000
,
0010
0000
1000
0010
0000
0001
0000
0000
0100
0000
0001
0010
0002
0000
0003
0000
,
0001
0000
0010
0001
0000
1000
0000
0001
0010
0000
0100
1000
0200
0000
0300
0000
,
0001
0000
1000
0000
0100
0000
0001
0000
0010
0000
0000
1000
0000
0000
0100
0010
,
0200
0000
0000
0000
0310
0000
0000
0000
0001
0000
0000
1000
0000
0000
0001
0010
,
1000
0001
0000
1000
0000
0001
0000
0000
0010
0000
0100
2000
0000
3000
0100
0000
,
0001
0000
0010
0001
0000
1000
0000
0010
0100
0000
0010
1000
0100
0001
1000
0001
,
0010
0001
0010
0000
1000
0000
0001
0000
0010
0100
0010
0000
1000
0000
0010
0000
,
1000
0010
1000
0000
0010
0000
0100
0000
0001
0010
1000
0000
0100
0000
0001
0000
,
0010
0001
0000
1000
0000
0001
0000
0100
0001
0010
0000
0200
0300
0000
1000
0001
,
1000
0000
0010
0002
0003
0000
0010
0100
0010
0100
1000
0020
0000
0000
0030
0000
,
0010
1000
0010
0000
0001
0000
0010
0000
1000
0100
1000
0000
0010
0000
0100
0000
,
0001
0010
0001
0000
1000
0000
0001
0000
1000
0001
1000
0000
0010
0000
1000
0000
,
0001
1000
0000
0010
0000
0100
0000
0001
1000
0001
0000
0200
0000
0300
0001
0010
,
0001
0000
1000
0020
0000
0030
1000
0100
0010
0001
0010
0200
0300
0000
0001
0000
,
0010
0000
0100
0000
1000
0000
0100
0010
0100
0000
0010
0000
0001
0000
0100
0000
,
0010
0000
1002
0000
0000
0000
0003
0000
0000
0000
0010
0100
0010
0000
2002
0000
,
0000
0000
0000
0000
3003
0000
0000
0000
0000
0000
0001
1000
0001
0000
0220
0000
,
0000
0000
0330
0000
0000
1000
0100
0001
,
1000
0000
0010
0000
1000
0000
0010
0001
0010
0000
1000
0000
0001
0000
0010
0000
,
0100
0000
2000
0000
0000
0000
3000
0000
0000
0000
0001
0100
0001
0000
0022
0000
,
0000
0000
0000
0000
0033
0000
0000
0000
0000
0000
0010
0100
1000
0000
2200
3300
,
0001
0000
1001
0000
0001
0000
1001
0000
0001
1000
0100
0001
0010
0100
1000
0100
,
0001
0000
1000
0000
0100
0000
1000
0100
0010
0000
0001
0000
0010
0000
1000
0000
,
0100
0000
0001
0100
1000
0000
0010
0000
0001
0000
0010
0100
1000
0000
0001
0000
,
0010
0000
0001
0000
0202
0000
0303
0000
1000
0000
0010
0100
1000
0000
0001
0000
,
0100
1000
0002
0003
1000
0001
0001
0100
,
1000
0000
1000
0000
0001
0000
1000
0001
0010
0000
1000
0000
0001
0000
0100
0001
,
0010
0000
1000
0000
0002
0000
0003
0000
1000
0000
0100
0010
0001
0000
0002
0000
,
0013
0000
1000
0000
0002
0000
0003
0000
0010
0000
0100
0001
1000
0000
0001
0000
,
1000
0100
0010
0001
0010
0100
1000
0100
1001
0000
1010
0000
1001
0000
1010
0000
,
2002
0000
0000
0000
3003
0000
0000
0000
;
