#TITLE:Get Down;
#ARTIST:BJJ;
#GENRE:Dance Rock;
#MUSIC:Get Down.ogg;
#BANNER:Get Down.png;
#BACKGROUND:Get Down-bg.png;
#SAMPLESTART:71.665;
#SAMPLELENGTH:15;
#OFFSET:-0.303;
#BPMS:0=110.983;
#DISPLAYBPM:110;
#BGCHANGES:0=Get Down.mp4=1.000=0=0=0=StretchNoLoop====,
99999.000=-nosongbg-=1.000=0=0=0=StretchNoLoop====;

//--------------- dance-single - XLev450X -ブラック・スクエア--bSP ----------------
#NOTES:
     dance-single:
     XLev450X -ブラック・スクエア-:
     Beginner:
     3:
     0,0,0,0,0:
0000
0000
0000
0000
,
0000
0000
0000
0000
,
0000
0000
0000
0000
,
0000
0000
0000
0000
,
0000
0000
0000
0000
,
0000
0000
0000
0000
,
0000
0000
0000
0000
,
0000
0000
0000
0000
,
0000
0000
0000
0000
,
0000
0000
0000
0000
,
0001
0001
0001
0000
,
1000
1000
1000
0000
,
0010
0100
0001
0000
,
1000
0010
0100
0000
,
0001
0000
1000
0000
,
0010
0100
0010
0000
,
0001
0000
1000
0000
,
1001
0000
0000
0000
,
0010
0100
0010
0000
,
0001
0000
0100
0000
,
1000
0010
1000
0000
,
0100
0000
0010
0010
,
0001
0000
0000
1000
,
0100
0010
0000
0001
,
1000
0010
0000
0100
,
1001
0000
0000
0000
,
0010
0100
0001
0000
,
1000
0010
1000
0000
,
0001
1000
0010
0000
,
1001
0000
0000
0000
,
0010
0100
0010
0000
,
0001
1000
0100
0000
,
0010
0100
0001
0000
,
1010
0000
0000
0000
,
0100
0100
0100
0000
,
0001
0001
0001
0000
,
1000
0010
1000
0000
,
0110
0000
1001
0000
,
0100
0100
0100
0000
,
0001
1000
0010
0000
,
0100
0010
0100
0000
,
1001
0000
0000
0000
,
0010
0100
0010
0000
,
1000
0010
1000
0000
,
0001
0100
0010
0000
,
0100
0000
0000
0010
,
0001
1000
0100
0000
,
0001
0100
0010
0000
,
0010
0010
1000
0000
,
0100
0001
0010
0000
,
1001
0000
0000
0000
;

//--------------- dance-single - XLev450X -ブラック・スクエア--BSP ----------------
#NOTES:
     dance-single:
     XLev450X -ブラック・スクエア-:
     Easy:
     6:
     0,0,0,0,0:
0000
0000
0000
0000
,
0000
0000
0000
0000
,
1000
0001
0000
0010
,
1000
0100
0000
0001
,
1000
0010
0000
0100
,
2002
0000
0000
0000
3003
0000
0220
0330
,
0002
0000
0000
0000
,
2000
0000
0000
0000
,
0000
0000
0000
3003
,
0202
0000
0000
0000
0000
0000
0000
0303
,
1000
0001
0100
0000
0010
0000
1000
0000
,
0010
0000
0100
0000
0001
1000
0010
0000
,
0010
0000
1000
0001
,
2002
0000
0000
0000
0000
3003
0010
0000
,
1000
0010
1000
0000
0100
0001
0100
0000
,
0010
1000
0001
0000
,
0100
0000
1000
0000
0001
0100
0010
0000
,
2002
0000
0000
0000
0000
3003
0110
0000
,
0001
1000
0000
0010
,
0100
0001
0000
1000
,
0010
0100
0000
0001
,
2020
0000
0000
3030
0010
0000
0100
0000
,
0001
2002
3003
0010
,
0100
0010
0000
0001
,
1000
0001
0000
0100
,
0010
0000
0100
0000
0001
1000
0010
0000
,
0100
0001
1000
0000
,
0100
0000
0001
0000
0010
0001
1000
0000
,
0010
0100
0010
0000
,
0002
0003
2000
3000
0020
0030
0200
0300
,
0010
0001
0010
0000
1000
0000
0010
0000
,
0100
0001
1000
0000
,
0100
0000
0001
0000
0010
1000
0010
0000
,
0100
0001
1000
0010
,
0010
0100
0001
0000
1000
0010
1000
0000
,
0100
0001
0010
0000
,
0001
0000
1000
0000
0010
0100
0001
0000
,
0010
0000
1000
0000
0001
0100
0010
0000
,
1000
0001
0100
0000
,
0010
0000
1000
0000
0001
0100
0010
0000
,
1000
0001
0100
0010
,
0202
0303
2020
3030
0220
0330
2002
3003
,
0110
0001
1000
0010
0100
0000
0001
0000
,
1000
0010
0100
0001
,
1000
0000
0001
0100
,
0010
0000
0000
1000
,
0001
0100
0010
0000
1000
0010
1000
0000
,
0100
0001
0010
0000
,
0100
0001
1000
0000
,
0010
0100
0001
0000
1000
0010
0100
0000
,
0020
0000
0030
0000
;

//--------------- dance-single - XLev450X -ブラック・スクエア--DSP ----------------
#NOTES:
     dance-single:
     XLev450X -ブラック・スクエア-:
     Medium:
     9:
     0,0,0,0,0:
0000
0000
0000
0000
,
0000
0000
0000
0000
,
1000
0000
0000
0000
0001
0000
0000
0100
0000
0000
0010
0000
1000
0000
0001
0000
,
0100
0000
0000
0000
0010
0000
0000
0001
0000
0000
1000
0000
0010
0000
0100
0000
,
0001
0000
0000
0000
1000
0001
0000
0100
0000
0000
1000
0001
0100
0000
0010
0000
,
2002
0000
0000
0000
0000
3003
0010
0000
,
0100
0000
0001
0000
0100
0010
0001
0000
,
1000
0001
1000
0000
0010
0001
1000
0010
,
0100
0000
0001
0000
1000
0010
0100
0000
,
1001
0000
0000
0110
,
0001
0001
0001
1000
0000
0000
0010
0000
,
0100
0100
0001
0100
0000
0000
0010
0000
,
1000
0001
1000
0000
0100
0001
0100
0010
,
1000
0010
0100
0001
,
0100
0001
0100
0000
1000
0010
0100
0000
,
0010
1000
0001
0100
0010
1000
0001
0000
,
0010
0100
0001
0100
0000
1000
0010
0000
,
0100
0000
0001
0000
1000
0001
1000
0010
,
0100
0000
0010
0000
0010
0001
0010
0000
,
1000
0000
0100
0000
0010
1000
0100
0000
,
0001
0000
0100
0000
0010
1000
0001
0000
,
0200
0000
0000
0300
0010
0010
1000
0001
,
0100
0000
0000
0000
0010
0000
0000
0100
0000
0000
0010
0000
1000
0000
0001
0000
,
0100
0000
0010
0000
1000
0000
0000
0001
0000
0000
0100
0000
0010
0000
0000
0000
,
1000
0001
0100
0000
0010
1000
0001
0100
,
0020
0030
0202
0303
2020
3030
0220
0330
,
0001
0000
1000
0001
0100
0000
0001
0000
,
1000
1000
0001
0100
0010
0000
0010
0000
,
0100
0001
1000
0000
0010
0100
0001
0000
,
0202
0303
2020
3030
0220
0330
2002
3003
,
0010
0100
0001
1000
0100
0000
0001
0000
,
0100
0001
1000
0010
0000
0000
0100
0000
,
1000
0010
0100
0000
0010
0001
0010
0000
,
0002
0003
2000
3000
0020
0030
0200
0300
,
0001
0001
1000
0010
0100
0000
1000
0000
,
1000
0001
0100
0010
1000
0000
0001
0000
,
1000
0010
1000
0000
0100
0001
0100
0000
,
0010
0000
0100
0000
0001
1000
0010
0000
,
0100
0000
0100
0000
1000
0001
0100
0000
,
1000
0000
0010
0000
1000
0010
0100
0001
,
0010
0000
0100
0000
0001
0100
0010
0000
,
0202
0303
2020
3030
0220
0330
0202
0303
,
1010
0010
0100
0001
1000
0100
0010
1000
,
0001
0100
0010
1000
0001
0100
0010
0000
,
0001
0000
1000
0000
0010
1000
0100
0000
,
0010
0000
0100
0000
0001
0001
1000
0000
,
0010
0000
1000
0000
0001
0100
0010
0000
,
0100
0010
1000
0000
0100
0000
0001
0000
,
0100
1000
0001
0000
0100
0010
1000
0000
,
0001
0000
1000
0000
1000
0001
0100
0010
,
0200
0000
0300
0000
;

//--------------- dance-single - XLev450X -ブラック・スクエア--ESP ----------------
#NOTES:
     dance-single:
     XLev450X -ブラック・スクエア-:
     Hard:
     14:
     0,0,0,0,0:
0000
0000
0000
0000
,
0000
0000
0000
0000
,
1000
0000
0001
0000
0100
0000
0000
0010
0000
0000
0100
0001
0100
0000
1000
0000
,
0010
0000
0000
0000
0000
0000
0100
0000
0000
0000
0000
0000
0010
0000
0000
0000
0000
0000
0010
0000
0100
0000
0010
0000
0100
0000
0000
0001
0000
0000
1000
0000
0000
0001
0000
0000
1010
0000
0000
0000
0000
0000
0100
0000
0000
0000
0000
0000
,
1001
0000
0000
0000
0010
1000
0000
0010
0000
0000
0010
0001
0010
0000
0100
0000
,
1001
0000
0010
0100
0010
1000
0010
0100
0100
0010
0100
0000
1001
0000
0000
0000
,
1002
0100
0000
0100
,
2000
0000
0000
0000
,
0000
0000
0000
0000
0000
3003
1001
0000
,
0002
0000
0000
0000
0000
0000
0200
0303
,
1000
0000
0010
0000
0100
0001
0000
0100
0000
0010
1000
0000
0001
0000
0100
0000
,
0010
0001
0010
0000
1000
0010
1000
0000
0100
0001
0100
0000
0010
0000
1000
0000
,
0001
0100
0001
0000
1000
0000
0010
0100
0000
0001
1000
0000
0100
0000
0001
0000
,
1000
0010
0100
0000
0001
0000
1000
0010
0100
0000
0001
0000
1000
0000
0101
0000
,
1010
0000
0001
0100
0000
0010
0000
1000
0000
0001
0000
0100
0000
0000
0010
0001
,
1000
0000
0010
0100
0000
0001
0000
1000
0000
0000
0100
0000
0001
1000
0001
0000
,
0010
0000
1000
0001
0100
0000
0010
0000
1000
0001
0100
0010
1000
0000
0001
0000
,
0010
0000
1000
0000
0001
0000
0100
0000
0000
0001
0010
0000
1000
0000
0001
0000
,
0100
0001
0100
0010
1000
0001
0100
0010
1000
0000
0002
0000
0003
1000
0010
0100
,
0001
1000
0010
0100
0001
1000
0010
0100
0001
0000
2000
0000
0000
3000
0000
0000
,
0001
1000
0010
0100
0001
1000
0010
0100
0010
0000
0002
0000
0000
0000
0003
0000
,
1000
0000
0010
0100
0001
0000
1000
0000
0010
0000
0100
0000
0001
0000
1000
0000
,
0010
0000
0000
0000
0100
0000
0000
0001
0000
0010
0100
0010
0100
0000
1000
0000
,
0010
0000
0001
0000
0010
0000
0100
0001
0000
0010
0000
0100
1000
0001
1000
0001
,
0010
0000
1000
0000
0001
0000
0100
0000
0000
0010
0000
0100
1000
0001
1000
0000
,
0100
0000
0000
0000
0000
0000
0010
0000
0000
0100
0000
0000
0001
1000
0001
1000
0001
1000
0200
0000
0000
0300
0000
0000
,
0010
0000
1000
0001
0000
0100
0010
0000
1000
0001
1000
0000
0010
0000
1000
0000
,
0010
0000
0100
0000
0010
0001
0010
0000
1000
0010
1000
0000
0100
0000
0001
1000
,
0001
0000
0010
0000
1000
0000
0001
0000
0100
0000
0010
1000
0010
0000
1000
0000
,
0202
0303
2020
3030
0220
0330
2002
3003
,
0010
0000
0100
0000
0001
0100
0001
0000
1000
0010
1000
0000
0010
0100
0010
0000
,
0001
0000
1000
0010
0000
0100
0001
0000
0000
0000
0010
0000
1000
0000
0001
0000
,
0100
0000
0010
1000
0001
0000
0100
0000
0010
1000
0010
0000
0100
0000
0001
0010
,
2000
3000
0020
0030
0200
0300
0002
0003
,
1000
0000
0010
0100
0010
0000
1000
0000
0001
1000
0001
1000
0001
0000
1000
0000
,
0010
0000
0001
1000
0001
0000
0001
0100
0000
0010
1000
0000
0001
0000
0100
0000
,
0010
0000
0001
0010
0001
1000
0010
1000
0000
0110
0000
0000
0010
1000
0010
0000
,
0100
0000
0000
0001
0000
0000
1000
0000
0000
0010
0000
0000
0001
0010
0100
1000
0100
0010
0001
0010
0100
1000
0100
0010
,
0001
0000
1000
0000
0010
0000
0001
0000
1000
0010
1000
0000
0001
0000
1000
0000
,
0010
0100
0010
0000
0001
0010
0001
0000
1000
0010
1000
0000
0100
0000
0010
0000
,
0001
0010
0001
0000
1000
0010
1000
0000
0010
0100
0010
0000
0001
0000
1000
0000
,
0202
0303
2020
3030
0010
0100
0002
0003
,
1000
0000
0010
1000
0010
0000
0100
0001
0100
0000
0010
0000
1000
0000
0100
0000
,
0100
0001
0100
0000
1000
0010
1000
0000
0010
0000
0100
0000
1000
0000
0001
0000
,
0100
0010
0100
0000
0010
0001
0010
0000
1000
0010
1000
0000
0001
0000
0100
0000
,
0010
0000
1000
0000
0001
0000
0100
0000
0010
0000
0000
1000
0000
0000
0001
0000
,
0100
0001
0100
0000
1000
0010
1000
0000
0100
0010
0100
0000
0010
0001
0010
0000
,
1000
0001
0100
0001
0010
1000
0010
0001
,
0100
0001
0100
0000
1000
0010
1000
0000
0010
0100
0010
0000
1000
0000
0001
0000
,
0100
0010
0100
1000
0010
1000
0010
0100
0001
1000
0100
1000
0010
0100
0010
1000
,
0020
0000
0030
0000
;

//--------------- dance-single - XLev450X -ブラック・スクエア--CSP ----------------
#NOTES:
     dance-single:
     XLev450X -ブラック・スクエア-:
     Challenge:
     15:
     0,0,0,0,0:
0000
0000
0000
0000
,
0000
0000
0000
0000
,
1000
0000
0001
0000
0100
0000
0001
0010
0000
1000
0010
0000
0100
0000
0001
0000
,
1000
0000
0000
0000
0010
0000
0000
0000
0100
0000
0000
0000
0001
0100
1000
0000
0010
0000
0100
0000
0001
0010
0100
0000
1000
0000
0001
0000
0010
1000
0001
0000
,
0100
0000
0010
0000
0001
1000
0000
0100
0000
1000
0001
0000
1000
0000
0001
0000
,
0100
0000
0001
1000
0010
0100
0001
1000
0010
0100
0001
0000
1000
0000
0010
0000
,
0100
0000
0001
0000
1000
0000
0000
0001
0000
0000
0100
0000
0010
0001
0010
0100
,
1000
0000
0000
0000
0010
0000
0000
0000
0100
0000
0000
0000
0001
0100
1000
0000
0010
0000
0100
0000
0001
0010
0100
0000
1000
0100
0001
0000
0010
0000
1000
0000
,
0100
0000
0001
0100
1000
0000
0100
0001
0000
1000
0100
0000
0010
1000
0001
0000
,
2000
0000
0000
3002
0000
0000
0203
0000
0000
0000
0320
0000
0000
0000
0000
0030
,
1000
0000
0001
0000
0100
0000
0001
0010
0000
1000
0010
0000
0100
0000
0001
0000
,
1000
0000
0010
0100
0001
1000
0010
1000
0000
0100
0001
0000
1000
0000
0010
0000
,
0100
0000
0001
0010
0001
1000
0010
0100
0001
0000
1000
0010
0200
0000
0300
0000
,
0001
0100
0000
0010
1000
0000
0001
0100
0010
0000
1000
0000
0001
0000
0100
0000
,
0001
0000
1000
0010
0000
0100
0000
0001
0000
1000
0000
0010
0000
0000
0100
0000
,
0001
0000
1000
0001
0000
0100
0000
1000
0000
0000
0010
0000
0000
0100
0000
0000
,
0001
0000
1000
0000
0010
0001
0010
0000
1000
0000
0010
0100
0001
0000
1000
0000
,
0010
0100
0001
1000
0010
0000
0100
0000
0000
0001
1000
0010
0100
0000
0001
0000
,
0010
0001
0010
0000
1000
0010
1000
0000
0010
0001
0010
0000
0000
1000
0010
0001
,
0010
0001
1000
0010
0100
0001
1000
0010
0100
0000
0110
0000
2000
0000
3000
0000
,
0001
0100
0001
1000
0001
0100
0010
1000
0010
0000
1001
0000
0220
0000
0000
0330
,
0001
0000
1000
0010
0100
0000
0001
0000
1000
0001
1000
0010
0100
0000
0010
0000
,
1000
0000
0001
0000
1000
0001
0000
0100
0000
0000
0010
0000
1000
0000
0001
0000
,
1000
0000
0010
0000
0100
0000
0001
1000
0000
0010
0000
0100
0000
1000
0100
0010
,
0001
0000
0010
0001
0010
0000
1000
0010
0100
0000
0001
0000
1000
0010
0000
0001
,
0100
0000
0000
0000
0000
0000
0001
0000
0000
0000
0000
0000
1000
0000
0000
0000
0000
0000
0010
0000
0000
0000
0000
0000
0100
0000
0010
0000
0100
0000
1000
0000
0001
0000
0100
0000
0020
0000
0000
0000
0000
0000
0000
0000
0000
0030
0000
0000
,
1000
0000
0001
0010
0001
0000
1000
0010
0100
0000
0001
0000
1000
0000
0001
0000
,
0100
0000
0010
0001
0010
0000
1000
0000
0001
0000
0101
0000
1010
0000
0010
0000
,
0100
0000
0001
1000
0010
0000
0100
0001
0100
0000
1000
0000
0010
0000
0000
0000
,
0001
0000
1000
0010
0000
0100
0001
0000
1000
0000
0000
0000
0110
0000
0000
0000
,
1000
0000
0001
0000
0100
0000
0010
0000
1000
0000
0010
0001
0010
0000
1000
0010
,
1000
0000
0100
0001
0000
1000
0010
0000
0100
0000
0010
1000
0001
0000
0100
0000
,
0010
0000
0010
0001
0010
0000
1000
0010
1000
0000
0010
1000
0010
0000
0100
0000
,
0202
0303
2020
3030
0220
0330
2002
3003
,
0010
0000
0001
0010
0001
0000
1000
0000
0010
0100
0010
0000
1000
0000
0001
0000
,
0200
0300
0010
1000
0001
0100
0010
0001
,
0010
0001
0010
0000
1000
0010
1000
0000
0001
0000
1000
0000
0010
0000
0100
0000
,
0001
0000
0000
0000
0000
0000
0000
0000
1000
0000
0000
0000
0010
0000
0000
0000
0100
0000
1000
0001
0100
0000
0010
0000
0001
0000
1000
0010
0100
0000
1000
0000
,
0001
0000
1000
0000
0010
0000
0100
0000
0010
0000
0001
0010
0001
0000
1000
0000
,
0010
0000
0100
0000
0001
1000
0000
0010
0100
0000
0001
0000
0010
0000
0001
0000
,
1000
0010
0100
0001
1000
0000
0010
0000
0100
0000
0010
0000
0001
0000
1000
0000
,
0010
0100
0001
0000
1000
0010
0100
0000
0001
0000
1000
0000
0010
0000
0001
0000
,
1000
0010
0100
0001
1000
0000
0010
0000
0100
0010
1000
0001
0100
0000
0010
0000
,
0100
0010
0100
0000
1000
0001
0010
0000
0100
0010
1000
0000
0010
0000
0100
0000
,
0001
0000
0010
0001
0010
0000
1000
0000
0010
0100
0000
0000
0001
0000
1000
0000
,
0101
0000
0000
0000
1010
0000
0000
0000
0101
0000
0000
1010
0000
0000
0110
0000
,
0001
0010
0001
0000
1000
0100
1000
0000
0010
0000
0100
0001
0010
0000
1000
0000
,
0010
0000
0100
1000
0100
0000
0010
0100
0010
0000
0001
1000
0010
0000
0001
0000
,
0100
0000
0001
1000
0001
0000
0100
0000
0010
0000
1000
0000
0000
0001
0000
0000
,
0010
0000
0100
0000
0010
0000
1000
0000
0001
0000
1000
0000
0010
0000
1000
0000
0010
1000
0100
0000
0001
0000
1000
0000
0010
0001
0100
0000
0001
0000
1000
0001
,
0020
0000
0030
0000
;
