#TITLE:Get Away;
#ARTIST:Tom Orlando;
#GENRE:Hip-Hop;
#MUSIC:Get Away.ogg;
#BANNER:Get Away.png;
#BACKGROUND:Get Away-bg.png;
#SAMPLESTART:12.495;
#SAMPLELENGTH:15.000;
#OFFSET:-0.027;
#BPMS:0=154;
#BGSTAGE:4;

//--------------- dance-single - XLev450X-bSP ----------------
#NOTES:
     dance-single:
     XLev450X:
     Beginner:
     3:
     0,0,0,0,0:
0000
0000
0000
0000
,
0000
0000
0000
0000
,
0000
0000
0000
0000
,
0000
0000
0000
0000
,
0000
0000
0000
0000
,
0000
0000
0000
0000
,
0000
0000
0000
0000
,
0000
0000
0000
0000
,
0001
0000
1000
0000
,
0100
0000
0010
0000
,
1000
0000
0010
0000
,
0100
0000
0001
0100
,
0010
0000
1000
0000
,
0001
0000
0100
0000
,
0000
0000
1000
0000
,
0001
0000
0100
0000
,
0010
0010
0100
0000
,
0100
0100
0010
0000
,
1000
1000
0001
0000
,
0001
0001
0000
1000
,
0010
0000
0100
0000
,
0010
0000
1000
0000
,
0001
0000
0000
0000
,
0100
0000
0010
0000
,
0001
0001
1000
0000
,
0010
0100
0010
0000
,
0010
0001
0010
0000
,
1000
0010
1000
0000
,
0101
0000
0000
0000
,
1010
0000
0000
0000
,
0110
0000
0000
0000
,
1001
0000
0000
0000
,
1000
0000
0001
0000
,
0100
0000
0010
0000
,
0001
0000
1000
0010
,
0100
0000
0001
0000
,
1000
0000
0000
0000
,
0010
0000
0100
0000
,
0001
0000
0000
0000
,
1000
0000
0010
0000
,
1000
0000
0000
0000
,
0010
0000
0100
0000
,
0001
0000
1000
0000
,
0010
0000
0100
0001
,
1000
0000
0010
0000
,
0100
0000
0001
0000
,
1000
0000
0000
0000
,
1000
0000
0001
0000
,
0010
0000
0000
0000
,
0100
0000
0001
0000
,
0010
0000
0000
0000
,
1000
0000
0010
0000
,
0100
0000
0000
0000
,
0001
0000
1000
0000
,
0010
0000
0000
0000
,
0100
0001
1000
0000
,
1000
0000
0001
0000
,
0010
0000
0100
0000
,
0001
0000
0100
0000
,
0010
0000
1000
0010
,
0100
0000
0001
0000
,
1000
0000
0010
0000
,
0000
0000
0001
0000
,
1000
0000
0010
0000
,
0100
0100
0010
0000
,
0010
0010
0100
0000
,
0001
0001
1000
0000
,
1000
1000
0000
0001
,
0100
0000
0010
0000
,
0100
0000
0001
0000
,
1000
0000
0000
0000
,
0010
0000
0100
0000
,
1001
0000
0000
0000
;

//--------------- dance-single - XLev450X-BSP ----------------
#NOTES:
     dance-single:
     XLev450X:
     Easy:
     6:
     0,0,0,0,0:
0000
0000
0000
0000
,
0000
0000
0000
0000
,
0000
0000
0000
0000
,
0000
0000
0000
0000
,
0000
0000
0000
0000
,
0000
0000
0000
0000
,
0000
0000
0000
0000
,
0000
0000
0000
0000
,
0001
0000
1000
0000
,
0001
0000
0000
0000
,
0100
0000
0010
0000
,
0100
0000
0000
0000
,
1000
0000
0010
0000
,
0100
0000
0000
0000
,
0001
0000
1000
0000
,
0100
0000
0000
0000
,
0001
0001
1000
0000
,
0100
0100
0010
0000
,
0001
1000
0010
0000
,
0100
0001
1000
0000
,
0010
0000
0100
0000
,
0001
0010
0001
0000
,
1000
0100
1000
0010
,
0100
0001
1000
0000
,
0100
0000
0010
0000
,
0001
1000
0001
0100
,
0010
0000
1000
0000
,
0001
0001
0100
0000
,
0010
0000
1000
0000
,
0001
0100
0010
0000
,
0100
0000
0001
0000
,
1000
0001
1000
0000
,
0010
0010
0100
0000
,
0001
0001
1000
0000
,
0010
1000
0010
0000
,
0100
0001
0100
0000
,
0010
0001
1000
0000
,
0010
0100
0001
0000
,
1000
0001
0100
0010
,
1000
0001
0100
0010
,
2002
0000
0000
3003
,
0100
0001
0100
0000
,
0010
0010
1000
0001
,
0100
0010
0100
0000
,
0001
0000
1000
0000
,
0001
1000
0010
0100
,
0001
0000
1000
0000
,
0100
0001
1000
0010
,
0100
0000
0001
0000
,
1000
0010
1000
0100
,
0001
0000
0100
0000
,
0010
1000
0010
0100
,
0001
0000
1000
0000
,
0001
0100
0001
0000
,
1000
0000
0010
0000
,
1000
0001
0100
0010
,
0000
1000
0001
1000
,
0010
0100
0001
1000
,
0010
0000
0100
0000
,
0001
0010
0001
0000
,
1000
0000
0001
0000
,
1000
0001
0100
0010
,
0100
0000
0001
0000
,
1000
0010
0100
0000
,
0011
0000
1100
0000
,
0110
0000
1001
0000
,
0001
1000
0001
0100
,
0010
0100
0000
0001
,
1000
0000
0010
0000
,
1000
0001
0100
0000
,
0010
0000
0100
0000
,
0001
1000
0010
0200
,
0300
0000
0000
0000
;

//--------------- dance-single - XLev450X-DSP ----------------
#NOTES:
     dance-single:
     XLev450X:
     Medium:
     10:
     0,0,0,0,0:
0000
0000
0000
0000
,
0000
0000
0000
0000
,
0000
0000
0000
0000
,
0000
0000
0000
0000
,
0000
0000
0000
0000
,
0000
0000
0000
0000
,
0000
0000
0000
0000
,
0000
0000
0000
0000
,
1000
0001
0100
0010
,
0001
1000
0010
0000
,
1000
0001
0100
0010
,
1000
0000
0001
0000
1000
0001
1000
0000
,
0000
0010
0100
0001
,
1000
0000
0010
0000
0100
0000
0001
1000
,
0000
0001
0100
0010
,
0100
0001
0100
0000
0000
0000
1000
0000
,
0010
0100
0001
1000
,
0001
0010
0001
0000
1000
0100
1000
0000
,
0010
0100
0001
0000
,
1000
0000
0001
0000
0000
0100
0001
0000
,
1000
0010
0100
0000
,
0001
0010
0001
1000
,
0010
0100
0001
0000
1000
0000
0000
0000
,
0001
0000
0100
0000
0010
0100
0010
0000
,
0000
0001
1000
0001
,
0100
0010
0001
1000
,
0001
0100
0010
1000
,
0001
1000
0001
0000
0020
0000
0030
0000
,
1000
0000
0000
0000
0001
0000
0000
0000
0100
0000
0000
0010
0000
0000
0000
0000
,
1000
0000
0000
0000
0001
0000
0000
0010
0000
0000
0000
0000
0100
0000
0000
0000
,
0001
0000
1000
0000
0010
0100
0010
0000
,
1000
0000
0000
0000
0001
0000
0000
1000
0000
0000
0000
0000
0100
0000
0000
0000
,
0001
0010
0001
0000
1000
0100
1000
0000
,
0010
0100
0010
0000
0100
0001
0100
0000
,
1000
0010
1000
0000
0001
0100
0001
0000
,
0010
1000
0001
0100
,
0010
1000
0001
0100
,
0001
0010
0001
0000
1000
0010
1000
0000
,
0010
0100
0001
0100
,
0010
1000
0010
0000
0100
0001
1000
0010
,
0200
0000
0000
0300
,
0001
1000
0001
0100
,
0010
1000
0001
0100
0000
0001
1000
0000
,
0010
0000
0100
0000
0001
0010
0001
0000
,
0000
1000
0001
0100
,
0000
0000
0010
0000
1000
0010
1000
0000
,
0001
0100
0010
0001
,
0100
0010
1000
0001
,
0000
1000
0001
1000
,
0000
0001
0100
0010
,
0000
1000
0010
1000
,
0001
0000
0100
0000
0001
0100
0001
0000
,
1000
0010
0100
0000
,
0010
0000
0100
0000
0001
0010
0001
0000
,
1000
0010
1000
0001
,
0100
0000
0010
0000
1000
0001
1000
0000
,
0000
0001
1000
0001
,
1000
0010
0100
0001
,
1000
0001
0100
0010
,
1000
0000
0001
0000
1000
0001
0100
0010
,
1000
0001
0100
0010
,
0001
1000
0001
0100
,
0000
0001
1000
0001
,
0010
0001
0010
0000
0000
0000
1000
0000
,
0010
0100
1000
0001
,
0100
0010
0101
1010
,
0010
0100
0001
1000
,
0001
0100
0010
1000
0000
0001
0100
0000
,
0000
0001
1000
0010
,
0101
0000
0010
1000
0001
0000
0100
0000
,
0010
0000
0100
0000
1001
0000
0010
0100
,
0001
0000
1000
0010
0100
0000
0002
0000
,
0003
0000
0000
0000
;

//--------------- dance-single - XLev450X-ESP ----------------
#NOTES:
     dance-single:
     XLev450X:
     Hard:
     15:
     0,0,0,0,0:
0000
0000
0000
0000
,
0000
0000
0000
0000
,
0000
0000
0000
0000
,
0000
0000
0000
0000
,
0000
0000
0000
0000
,
0000
0000
0000
0000
,
0000
0000
0000
0000
,
0000
0000
0000
0000
,
0000
0010
1000
0001
0010
0100
0010
0100
,
1000
0010
0100
0001
0010
0100
0010
0001
,
1000
0100
0010
0100
0010
0001
1000
0001
,
0010
0100
1000
0001
0220
0330
2020
0000
,
3030
0010
1000
0010
0100
0001
0100
0010
,
0100
0001
1000
0001
0100
0001
0010
0100
,
1000
0010
1000
0000
0010
0000
0100
0000
1000
0000
0100
0000
0010
0000
0100
0000
,
0010
0001
2000
0000
3000
0100
0010
0100
,
1000
0001
0010
0000
1000
0000
0001
0000
0010
1000
0100
0000
1000
0000
0010
0000
,
1000
0001
0010
0000
0100
0000
0001
0000
0010
1000
0001
0000
1000
0000
0001
0000
,
0100
1000
0010
0000
0100
0000
0010
0000
1000
0100
0001
0000
0010
0000
0001
0000
,
0100
0001
0010
0100
0010
0100
2000
0000
,
3000
0000
0100
0010
0100
1000
0100
0010
,
0002
0003
0100
1000
0001
1000
0010
0100
,
0010
0000
0100
0000
0020
0000
0000
0000
0100
0030
0000
0000
0010
0000
1000
0000
,
0010
1000
0100
0010
0001
0100
0002
0000
,
0003
1000
0100
1000
0100
0010
0001
1000
,
0100
0010
0001
0100
0010
1000
0020
0030
,
0010
1000
0001
0010
0001
0010
0100
1000
,
0001
0100
0010
0200
0300
0001
1000
0010
,
0001
0100
0001
0000
1000
0000
0010
0000
0100
0000
0000
0001
0000
0000
0100
0000
,
1000
0010
1000
0000
0010
0000
0000
0100
0000
0000
0010
0000
1000
0000
0100
0000
,
0010
0001
0010
0000
1000
0000
0010
0000
0100
1000
0001
0000
0010
0000
1000
0000
,
0010
0000
0000
0100
0000
0000
0001
0000
0000
0000
0010
0000
1000
0000
0010
0000
,
0100
0001
0010
0000
1000
0000
0001
0000
0010
1000
0100
0000
0010
0000
0100
0000
,
1000
0001
0100
0000
0010
0000
0001
0000
0100
1000
0001
0000
0010
0000
0100
0000
,
1000
0001
0010
0000
0100
0000
0010
0000
0100
0010
0000
0010
1000
0000
0100
0000
,
0010
0001
0100
0000
1000
0000
0001
0000
0100
0000
0010
0001
1000
0100
0001
0000
,
1000
0000
0010
0000
0100
1000
0010
0000
1000
0000
0010
0000
0100
0000
0001
0000
,
0100
0001
0010
0000
0100
0000
0001
0000
1000
0010
0100
0000
1000
0000
0100
0000
,
0010
1000
0001
0000
0100
0000
0001
0000
0100
1000
0001
0000
0010
0000
0100
0000
,
1000
0001
0010
0000
0100
0000
0010
0000
1000
0001
0010
1000
0100
0010
0001
0010
,
2000
0000
3000
1001
0220
0000
0330
0100
,
0010
0000
0100
0000
1000
0000
0100
0000
1000
0000
0001
0100
1000
0000
0010
0000
,
0100
0000
0010
0000
1000
0000
0001
1000
0010
0000
0100
0000
0010
0000
0100
0000
,
1000
0000
0001
0000
0100
0000
0001
0000
0100
1000
0010
0001
0100
0000
0000
0000
,
1001
0000
0000
0000
0100
0000
0001
1000
0010
0000
0001
0000
1000
0000
0000
0100
,
0000
0000
0010
0001
1000
0000
0010
0000
0100
0000
0001
0000
0020
0000
0000
0000
,
0030
0000
0001
0000
0010
1000
0001
0000
0010
0000
0001
0000
1000
0001
0100
0000
,
0010
0000
0001
0000
0010
1000
0001
0000
0010
0000
0100
0000
2000
0000
0000
0000
,
3000
0000
0001
0100
1000
0000
0100
0000
1000
0000
0100
0000
1000
0000
0010
0000
,
0100
1000
0001
0000
0010
0000
0100
0000
0010
0100
0001
0000
2000
0000
0000
0000
,
3000
0001
0010
0100
0010
0100
1000
0001
,
0010
0000
0001
0000
0010
0000
0100
0000
0010
0000
0001
0010
2000
0000
0000
0000
,
3000
0000
0100
0000
0010
0000
0001
0000
1000
0000
0100
0000
0010
0000
0100
0001
,
0100
0010
0100
0010
0100
0001
1000
0000
,
0000
0010
0100
0001
0010
0100
0010
0100
,
1000
0001
0010
0001
1000
0010
0200
0000
,
0300
0010
1000
0001
0010
0100
0010
0100
,
1000
0010
0100
0001
0010
0100
0010
0001
,
1000
0100
0010
0100
0010
0001
1000
0001
,
0010
0100
1000
0001
0220
0330
2020
0000
,
3030
0010
1000
0010
0100
0001
0100
0010
,
0100
0001
1000
0001
0100
0001
0010
0100
,
1000
0010
1000
0000
0010
0000
0100
0000
1000
0000
0100
0000
0010
0000
0100
0000
,
0010
0001
2000
0000
3000
0100
0010
0100
,
1000
0001
0010
0000
1000
0000
0001
0000
0010
1000
0100
0000
1000
0000
0010
0000
,
1000
0001
0010
0000
0100
0000
0001
0000
0010
1000
0001
0000
1000
0000
0001
0000
,
0100
1000
0010
0000
0100
0000
0010
0000
1000
0100
0001
0000
0010
0000
0001
0000
,
0100
0001
0010
0100
0010
0100
2000
0000
,
3000
0000
0100
0010
0100
1000
0100
0010
,
0002
0003
0100
1000
0001
1000
0010
0100
,
0010
0000
0100
0000
0020
0000
0000
0000
0000
0030
0000
0000
0010
0000
1000
0000
,
0010
1000
0100
0010
0001
0100
0002
0000
,
0003
0000
0000
0000
;
