#TITLE:幻想花;
#ARTIST:星野奏子;
#TITLETRANSLIT:Gensouka;
#ARTISTTRANSLIT:Kanako Hoshino;
#GENRE:DIVA METAL;
#MUSIC:Gensouka.ogg;
#BANNER:Gensouka.png;
#BACKGROUND:Gensouka-bg.png;
#CDTITLE:/CDTitles/GuitarFreaks & DrumMania XG.png;
#SAMPLESTART:54.077;
#SAMPLELENGTH:15;
#OFFSET:2.476;
#BPMS:0=185;
#BGCHANGES:-4.000=Gensouka.mp4=1.000=0=0=0=StretchNoLoop====,
99999.000=-nosongbg-=1.000=0=0=0=StretchNoLoop====;
#BGSTAGE:4;

//--------------- dance-single - XLev450X-bSP ----------------
#NOTES:
     dance-single:
     XLev450X:
     Beginner:
     3:
     0,0,0,0,0:
0000
0000
0000
0000
,
0000
0000
0000
0000
,
0000
0000
0000
0000
,
0000
0000
0000
0000
,
0000
0000
0000
0000
,
0000
0000
0000
0000
,
0001
0000
0000
0000
,
0001
0000
0000
0000
,
1000
0000
0000
0000
,
1000
0000
0000
0000
,
1001
0000
0000
0000
,
0000
0000
0000
0000
,
0010
0010
0010
0000
,
0100
0100
0100
0000
,
0001
0001
0001
0000
,
1000
1000
1000
0000
,
0010
0000
0000
0000
,
0001
0000
0000
0000
,
0100
0000
0000
0000
,
1000
0000
0000
0000
,
0010
0001
0010
0000
,
0100
1000
0100
0000
,
0010
0100
0010
0000
,
0001
0010
0001
0000
,
1000
0000
0000
0000
,
0100
0000
0000
0000
,
0010
0000
0000
0000
,
0001
0000
0000
0000
,
0001
0000
1000
0000
,
0001
0000
0000
0000
,
0010
0000
0100
0000
,
0010
0000
0000
0000
,
0001
0000
0001
0000
,
0000
0000
0000
0000
,
1000
0000
1000
0000
,
0000
0000
0000
0000
,
0100
0000
0010
0000
,
0100
0000
0000
0000
,
1000
0000
0100
0000
,
1000
0000
0000
0000
,
0010
0000
0010
0000
,
0000
0000
0000
0000
,
0100
0000
0100
0000
,
0000
0000
0000
0000
,
1000
1000
1000
0000
,
0000
0000
0000
0000
,
0010
0010
0010
0000
,
0000
0000
0000
0000
,
0100
0100
0100
0000
,
0000
0000
0000
0000
,
0001
0001
0001
0000
,
0000
0000
0000
0000
,
0001
0000
0001
0000
,
0000
0000
0000
0000
,
0010
0000
0010
0000
,
0000
0000
0000
0000
,
1000
0000
1000
0000
,
0000
0000
0000
0000
,
0100
0000
0100
0000
,
0000
0000
0000
0000
,
0001
0000
0000
0000
,
0010
0000
0000
0000
,
1000
0000
0000
0000
,
0100
0000
0000
0000
,
0010
0000
0000
0000
,
1000
0000
0000
0000
,
0001
0000
0000
0000
,
0000
0000
0000
0000
,
0010
0010
0010
0000
,
0001
0001
0001
0000
,
1000
1000
1000
0000
,
0100
0100
0100
0000
,
0010
0000
1000
0000
,
0010
0000
0000
0000
,
0001
0000
0010
0000
,
0001
0000
0000
0000
,
1001
0000
0000
0000
;

//--------------- dance-single - XLev450X-BSP ----------------
#NOTES:
     dance-single:
     XLev450X:
     Easy:
     7:
     0,0,0,0,0:
0000
0000
0000
0000
,
0000
0000
0000
0000
,
0000
0000
0000
0000
,
0000
0000
0000
0000
,
0000
0000
0000
0000
,
0000
0000
0000
0000
,
0001
1000
0010
0100
,
0001
0000
0000
0000
,
1000
0001
0100
0010
,
0100
0000
0000
0000
,
2002
0000
0000
0000
,
0000
0000
0000
3003
,
1000
0001
0010
0100
,
1000
0001
0010
0000
,
1000
0100
0001
0010
,
0100
1000
0010
0000
,
0002
0003
0020
0030
,
0200
0300
2000
3000
,
0200
0300
0020
0030
,
0002
0000
2000
3003
,
1000
0010
0100
0001
,
0010
0100
1000
0000
,
1000
0010
0100
1000
,
0001
0010
0100
0000
,
2000
3000
0200
0300
,
0020
0030
0002
0003
,
0020
0030
0200
0300
,
2000
0000
0002
3003
,
1000
0001
1000
0010
,
0100
0000
1001
0000
,
0100
0001
0100
0000
,
1000
0100
1000
0000
,
0010
0100
1000
0001
,
0010
0000
1000
0000
,
0010
0100
0010
0000
,
0001
1000
0001
0000
,
0101
0000
1010
0000
,
0010
1000
0010
0000
,
1100
0000
0011
0000
,
1000
0001
0100
0000
,
0001
0010
0001
1000
,
0100
0010
1000
0001
,
0010
1000
0001
0010
,
2002
0000
0000
3003
,
0001
0000
1000
0000
0010
0001
0010
0000
,
1000
0100
1000
0000
,
0010
0000
1000
0000
0010
0100
0010
0000
,
1000
0001
0010
0000
,
1000
0100
0010
0001
,
0010
0100
1000
0000
,
1000
0100
0010
0000
,
1000
0001
0010
0000
,
1000
0000
0100
0000
1000
0100
1000
0000
,
0010
0100
0001
0000
,
0010
0000
1000
0000
0001
1000
0001
0000
,
0100
0010
1000
0000
,
0010
0001
0010
0000
,
0100
1000
0100
0000
,
0001
0010
1000
0100
,
0001
0010
1000
0000
,
0001
0000
1000
0010
,
1000
0000
0100
0010
,
0001
0010
0001
1000
,
0001
0010
1001
0000
,
0001
0010
1000
0000
,
0100
0010
0100
0000
,
0010
1000
0010
0100
,
0010
0100
1001
0000
,
1000
0010
1000
0000
,
0100
0010
0001
0000
,
1000
0010
0100
0000
,
0001
0000
1000
0000
0001
0010
0001
0000
,
1000
0100
1000
0010
,
0100
0001
0010
0000
,
1000
0100
0010
1000
,
0001
1000
0001
0000
0010
0000
0100
0000
,
2002
0000
0000
0000
,
0000
0000
0000
0000
,
3003
0000
0000
0000
;

//--------------- dance-single - XLev450X-DSP ----------------
#NOTES:
     dance-single:
     XLev450X:
     Medium:
     11:
     0,0,0,0,0:
0000
0000
0000
0000
,
0000
0000
0000
0000
,
0000
0000
0000
0000
,
0000
0000
0000
0000
,
0000
0000
0000
0000
,
0000
0000
0000
0000
,
0001
1000
0000
0010
0000
0100
0000
0001
,
0000
1000
0010
0000
0100
0000
0001
0000
,
1000
0010
0000
0100
0000
0001
0000
1000
,
0000
0010
1000
0100
0001
1000
0010
0100
,
2002
0000
0000
0000
,
0000
0000
0000
3003
,
0001
1000
0010
0100
,
1000
0000
0010
0000
1000
0010
1000
0000
,
0010
0001
0100
1000
,
0010
0000
0001
0000
0010
0001
0010
0000
,
1000
0000
0001
0000
0010
0000
0000
0100
,
0000
0000
0001
0000
0000
1000
0000
0000
,
0010
0000
0100
0000
0001
0000
0000
1000
,
0000
0000
0010
0000
0000
0100
0000
0000
,
0001
1000
0010
0001
,
0010
0001
0010
0000
1000
0010
1000
0000
,
0100
1000
0001
0010
,
0100
0010
0100
0000
0001
0010
0001
0000
,
1000
0000
0001
0000
0100
0000
0000
0010
,
0000
0000
1000
0000
0000
0001
0000
0000
,
0100
0000
0010
0000
1000
0000
0000
0001
,
0000
0000
0100
0000
0000
0010
0000
0000
,
1000
0001
0010
0000
,
1000
0000
0010
0000
0100
0000
0001
0100
,
0001
1000
0001
1000
,
0010
1000
0010
0000
,
0001
0010
0100
1000
,
0010
1000
0010
0000
0001
0010
0001
0000
,
1000
0100
1000
0001
,
0010
1000
0001
0000
,
1000
1000
0010
0100
,
0001
0010
1000
0001
,
1000
0001
1000
0000
0010
1000
0010
0000
,
0100
1000
0001
0000
,
0010
1000
0100
0001
,
0010
0001
0010
0000
1000
0010
1000
0000
,
0010
0100
0001
1000
0010
0100
0001
0010
,
1000
0002
2000
0000
0000
0000
0000
3003
,
1000
0000
0001
0000
0010
1000
0010
0000
,
0001
0010
1000
0000
,
0001
0010
0100
0001
,
1000
0001
1000
0000
0010
1000
0010
0000
,
0100
1000
0001
0000
,
0001
1000
0100
1000
,
0010
0000
1000
0010
1000
0000
0001
0010
,
0001
1000
0100
1000
,
0001
0000
0010
1000
0010
0000
0001
0000
,
0010
0100
1000
0000
,
0001
0000
0010
0000
1000
0000
0100
0010
,
0100
0010
1000
0001
,
1000
0001
1000
0000
0010
1000
0010
0000
,
0010
0100
0010
0000
0001
0010
0001
0000
,
1000
0001
0100
1000
,
0001
0000
1000
0010
,
0100
0000
0010
1000
,
0001
0010
1000
0010
,
0001
0010
0001
0000
0010
0000
1000
0000
,
0100
0010
0100
0000
0010
0000
1000
0000
,
0001
1000
0001
0000
,
1000
0010
1010
0000
,
0001
0010
0100
0001
,
1000
0001
1000
0000
0010
0000
0100
0000
,
0101
1010
0110
0000
,
0011
1100
1001
0000
,
0010
1000
0100
0001
,
0010
0100
1000
0000
,
1010
0110
0011
0000
,
0011
0110
1100
0000
,
0001
1000
0010
0100
,
0010
0100
0010
0000
1000
0000
0001
0000
,
1001
0000
0000
1001
0000
0000
2002
0000
0000
0000
0000
0000
0000
0000
0000
0000
,
0000
0000
0000
0000
,
3003
0000
0000
0000
;

//--------------- dance-single - XLev450X-ESP ----------------
#NOTES:
     dance-single:
     XLev450X:
     Hard:
     14:
     0,0,0,0,0:
0000
0000
0000
0000
,
0000
0000
0000
0000
,
0000
0000
0000
0000
,
0000
0000
0000
0000
,
0000
0000
0000
0000
,
0000
0000
0000
0000
,
0001
1000
0000
0010
0000
0100
0000
1000
,
0000
0000
0001
0010
0001
0000
1000
0000
0010
0000
0000
0100
0000
0000
1000
0000
,
0001
1000
0000
0010
0000
0100
0000
1000
,
0010
1000
0010
0000
0100
0010
0001
0000
1000
0001
0010
0000
0100
1000
0001
0100
,
2002
0000
0000
0000
,
0000
0000
0000
0000
0000
0000
0000
3003
,
0010
0001
0010
0001
0010
0000
0100
0000
1000
0000
0001
0000
1000
0000
0010
0000
,
0000
0000
0100
0000
1000
0000
0100
0000
0001
0000
1000
0001
1000
0000
0000
0000
,
0100
0010
0100
0010
0100
0000
1000
0000
0010
0000
0100
0000
0001
0000
1000
0000
,
0000
0000
0001
0000
0010
0000
1000
0000
0010
0000
0100
1000
0100
0000
0000
0000
,
1000
0001
0100
0010
0110
0100
0001
1001
,
1000
0100
0110
0010
0001
1001
1000
0100
,
0110
0010
0001
1000
1010
1000
0001
0011
,
0001
0000
1000
0000
1100
0000
1000
0000
0001
0000
0100
0000
0020
0000
0000
0030
,
0001
1000
0001
0000
0010
0000
1000
0000
0010
0000
1000
0000
0001
0000
0010
0000
,
0000
0000
0010
1000
0010
0000
0100
0000
0001
0000
1000
0000
0001
0000
0000
0000
,
0001
1000
0001
0000
0010
0000
1000
0100
0001
0000
1000
0000
0010
0000
1000
0000
,
0000
0000
0001
0000
0010
0000
1000
0000
0100
0000
0001
1000
0010
0000
0000
0000
,
0001
1000
0010
1000
0010
0001
0010
0001
,
1000
0010
1000
0100
1000
0100
0001
1000
,
0100
0010
0001
1000
0001
0100
1000
0001
,
0100
0010
0001
1000
0010
1000
0220
0330
,
1000
0010
1000
0010
0000
0100
0001
1000
,
0000
0001
0010
0100
0001
0100
1000
0000
,
0001
0010
0001
0010
0000
0100
1000
0001
,
0100
0000
0010
0000
1000
0000
0001
1000
0000
0000
0100
0000
0010
0000
0100
0000
,
1000
0001
1000
0001
0000
0100
0001
0010
,
0000
1000
0010
0100
1100
0000
0011
0000
,
0001
1000
0001
1001
0000
1000
1010
0000
,
0010
0000
0100
0000
0001
0000
0010
0000
0200
0000
0000
0000
2300
0000
0000
3000
,
0001
1000
0010
0000
0010
0001
0010
0000
,
1000
0100
1000
0001
0010
1000
0001
0000
,
0010
1000
0010
0100
0001
1000
0010
0100
,
0001
1000
0010
1000
0001
0010
1000
0000
,
0010
1000
0010
0000
0001
0010
0001
0000
,
0100
1000
0001
0000
0010
1000
0001
0000
,
0100
1000
0001
0010
0100
1000
0010
0001
,
1001
1001
2002
0000
0000
0000
3003
0000
,
0001
0000
1000
0010
0100
0000
0001
0010
,
0000
1000
0000
0001
0000
0100
0000
1000
,
0010
1000
0001
0000
0010
0001
0010
1000
,
0000
0101
0000
1010
0000
0110
0000
0001
,
0010
0000
1000
0000
0100
1000
0001
0000
,
0010
1000
0010
0000
0001
0010
0001
0000
,
0100
1000
0001
1000
0010
0100
1000
0010
,
1000
0001
0100
1000
0010
0000
0001
0000
,
1000
0001
1000
0000
0010
0000
0100
1000
,
0000
0001
0000
0100
0000
1000
0000
0010
,
1000
0010
0100
1000
0001
0010
1000
0010
,
0100
1000
0001
0010
1000
0010
0100
1000
,
0001
0000
0010
0000
1000
0001
1000
0000
,
0010
0000
0001
0000
0010
0001
0010
0000
,
1000
0010
0100
0000
1000
0010
0100
0000
,
0010
0001
0010
1000
0001
0100
0010
1000
,
1001
0000
1001
0000
1000
0100
0010
0110
,
0000
0100
1000
0001
0100
0010
1000
1001
,
0000
0001
0010
0001
0100
0010
1000
1001
,
0000
0001
0010
0011
0000
1000
0010
1010
,
0000
0001
1000
0010
0001
0010
1000
0001
,
0010
1000
0010
0100
1000
0010
0100
0110
,
0000
0000
1001
0000
0001
0010
0110
0100
,
0000
1000
0010
1000
0001
1000
0100
0000
,
0001
1000
0010
0000
0001
0000
0010
0000
,
0001
0010
0001
0000
0011
0000
1010
0000
,
0010
1000
0010
0100
1000
0001
0010
0100
,
1000
0001
0010
1000
0001
0100
0010
0000
,
1000
0001
0010
1000
0010
0100
1000
0001
,
0010
1000
0010
0100
0001
0010
0001
0000
,
0001
1000
0010
0000
1000
0010
0100
0000
,
0001
0010
0100
1000
0001
0010
0100
0100
,
1001
0000
0000
1001
0000
0000
2002
0000
0000
0000
0000
0000
0000
0000
0000
0000
,
0000
0000
0000
0000
,
3003
0000
0000
0000
;
