#TITLE:Ganymede;
#ARTIST:玄武;
#ARTISTTRANSLIT:Genbu;
#GENRE:ESOTERIC SLOWCORE;
#MUSIC:Ganymede.ogg;
#BANNER:Ganymede.png;
#BACKGROUND:Ganymede-bg.png;
#CDTITLE:./CDTitles/bm IIDX 13 DistorteD.png;
#SAMPLESTART:75.822;
#SAMPLELENGTH:15;
#OFFSET:-0.090;
#BPMS:0=82
,159.5=78
,161.5=75
,162.5=72
,163.5=78;
#BGSTAGE:28;
#BGCHANGES:3.500=Ganymede.mp4=1.000=0=0=0=StretchNoLoop====,
99999.000=-nosongbg-=1.000=0=0=0=StretchNoLoop====;

//--------------- dance-single - 風神-bSP ----------------
#NOTES:
     dance-single:
     風神:
     Beginner:
     3:
     0,0,0,0,0:
0000
0000
0000
0000
,
0000
0000
0000
0000
,
0000
0000
0000
0000
,
0000
0000
0000
0000
,
0000
0000
0000
0000
0000
0000
0000
0001
,
0000
0000
0000
1000
0000
0000
0000
0010
,
0000
0000
0000
0100
0000
0000
0000
0001
,
0000
0000
0000
1000
0000
0000
0000
0010
,
0000
0000
0000
1000
0000
0000
0000
0001
,
0000
0000
0000
0001
0000
0000
0000
0001
,
0000
0000
0000
0000
0000
0000
0000
0100
,
0000
0000
0000
0100
0000
0000
0000
0100
,
0000
0000
0000
0000
0000
0000
0000
2002
,
0000
0000
0000
0000
0000
0000
0000
0000
0000
3003
0000
0000
0000
0000
0220
0000
,
0000
0000
0000
0330
0000
0000
0000
0022
,
0000
0000
0000
0000
0000
0000
0000
0000
0000
0033
0000
0000
0000
0000
2200
0000
,
0000
0000
0000
0000
0000
0000
0000
0000
0000
3300
0000
0000
0000
0000
1000
0000
,
0000
1000
0000
1000
0000
0001
0000
0001
,
0000
0001
0000
0100
0000
0100
0000
0100
,
0000
0010
0000
0010
0000
0010
0000
1000
,
0000
0001
0000
1000
0000
0010
0000
0100
,
0000
0000
0000
0000
0000
0000
0000
0001
,
0000
0000
0000
0000
0000
0000
0000
1000
,
0000
0000
0000
0000
0000
0000
0000
0010
,
0000
0000
0000
0000
,
0000
0000
0000
0000
0000
0000
0000
1000
,
0000
1000
0000
1000
0000
0001
0000
1000
,
0000
0010
0000
1000
0000
0001
0000
0100
,
0000
0010
0000
1000
0000
0001
0000
0100
,
0000
1000
0000
0010
0000
1000
0000
0001
,
0000
0100
0000
0010
0000
1000
0000
0001
,
0000
0100
0000
0010
0000
1000
0000
0001
,
0000
1000
0000
0100
0000
0010
0000
1000
,
0000
0001
0000
0100
0000
0010
0000
0100
,
0000
0000
0000
0001
0000
1000
0000
0001
,
0000
0000
0000
1000
0000
0010
0000
1000
,
0000
0000
0000
0100
0000
0010
0000
0100
,
0000
0000
0000
0001
0000
0010
0000
0001
,
0000
0000
0000
0000
0000
0000
0000
1000
,
0000
0000
0000
0000
0000
0000
0000
0010
,
0000
0000
0000
0100
0000
0001
0000
1000
,
0000
0000
0000
0010
0000
0000
0000
0100
,
0000
0000
0000
0001
0000
0000
0000
0000
;

//--------------- dance-single - 風神-BSP ----------------
#NOTES:
     dance-single:
     風神:
     Easy:
     6:
     0,0,0,0,0:
0000
0000
0000
0000
,
0000
0000
0000
0000
,
0000
0000
0000
0000
,
0000
0000
0000
0000
,
0000
0000
0000
0000
0000
0000
0000
0001
,
1000
0010
1000
0001
1000
0010
0100
0001
,
1000
0010
0100
0001
1000
0010
0000
0001
,
1000
0010
1000
0100
0001
1000
0010
0100
,
0010
1000
0001
0010
0000
0100
0000
0001
,
0001
0001
1000
0010
0100
1000
0001
1000
,
0010
0100
1000
0001
0000
0101
0000
0010
,
1000
0010
0100
0010
1000
0001
1000
0010
,
0100
0010
1000
0010
0000
0100
0010
1001
,
0000
0000
0000
0110
0000
0000
0000
0010
,
0020
0000
0000
0000
0000
0030
0002
0000
0000
0000
0000
0000
0003
0000
1000
0000
,
2000
0000
0000
3000
0000
0000
0202
0000
0000
0000
0000
0000
0303
0000
1000
0000
,
1000
0000
0000
0001
0000
0001
0000
0001
0000
0100
1000
0001
0000
0000
0001
0000
,
1000
0010
0100
1000
0000
0001
0100
0010
,
0000
1000
0001
0100
1000
0001
0100
0010
,
0000
0010
1000
0001
0000
1000
0001
0100
,
0010
1000
0001
1000
0010
0100
0010
0200
,
0000
0000
0000
0302
0000
0000
2003
3020
,
0000
0230
0000
0020
0000
0000
0330
0002
,
0000
0000
0000
2003
0000
0000
3020
0200
,
0000
0000
0000
0000
0000
0000
0330
2002
,
0000
0000
0000
0000
0000
0000
3003
0001
,
0000
1000
0010
1000
0000
0001
0100
0001
,
1000
0010
0000
0100
0001
1000
0000
0001
,
0100
0001
1000
0010
1000
0010
0000
1000
,
0001
1000
0001
0100
0010
1000
0000
0101
,
0000
1010
0010
0100
0000
0001
1000
0001
,
1000
0100
0000
1000
0001
0100
0010
1000
,
1000
0001
0100
0010
1000
0001
0100
0010
,
1000
0001
0010
1000
0001
0100
0010
0001
,
1000
0001
0100
0010
0000
1010
0000
0100
,
0001
1000
0010
0100
0000
0101
0000
0001
,
1000
0001
1000
0001
0000
0011
0000
1000
,
0010
1000
0001
0100
0000
1010
0000
0100
,
0000
0001
0000
1000
0000
0010
1000
0001
,
0000
0100
0000
0010
0000
1000
0001
0100
,
0000
1000
0000
0001
0000
0100
0010
1000
,
0001
0100
1000
0001
1000
0001
0100
1000
,
0001
0100
0010
1000
0001
0100
0010
0000
;

//--------------- dance-single - 風神-DSP ----------------
#NOTES:
     dance-single:
     風神:
     Medium:
     10:
     0,0,0,0,0:
0000
0000
0000
0000
,
0000
0000
0000
0000
,
0000
0000
0000
0000
,
0000
0000
0000
0000
,
0000
0000
0000
0000
0000
0000
0000
0001
,
1000
0000
0001
0000
0010
0000
1000
0000
0010
0000
0100
0000
0001
0010
0001
0000
,
1000
0010
1000
0001
0010
0101
0000
1000
,
0010
0000
0100
0000
1000
0000
0001
0000
1000
0000
0010
0000
1000
0010
1000
0000
,
0100
0010
1000
0001
0010
0100
0000
1000
,
0001
1000
0010
1000
0001
0101
0000
0010
,
1000
1100
0000
0010
0100
0110
0000
0001
,
1000
0001
0100
0010
1000
0001
0000
1000
,
0010
0000
0000
0000
0100
0000
0000
0000
1000
0000
0000
0000
0001
0000
0000
0000
0010
0000
0000
0000
1000
0000
0001
1000
0100
0000
0001
0000
0010
0000
0000
0000
,
0200
0000
0000
0000
0000
0000
0020
0000
0000
0000
0000
0000
0000
0330
1000
0000
,
2200
0000
0000
0000
0000
0000
0000
0000
0000
0000
0000
0000
0000
0000
0000
0000
0000
0000
0000
0000
0000
0000
0000
3300
0000
0000
1000
0001
1000
0000
0010
0000
,
0200
0000
0000
0002
0000
0000
0303
0101
,
1010
0000
0000
0010
0000
0010
0000
0010
0000
1000
0001
0100
0010
0000
1000
0000
,
0001
1000
0000
0010
1000
0001
0000
0100
,
0010
1000
0001
0100
1000
0010
0000
1000
,
0001
0100
0000
1000
0001
0010
1000
0001
,
0100
0000
1000
0000
0000
0000
0010
0000
1000
0000
0010
0001
0010
1000
0002
0000
,
0000
0000
0000
0203
0000
0000
2300
3002
,
0000
0000
0020
0000
0000
0000
0000
0000
0000
0000
0000
0000
0000
0033
1000
0000
,
0000
0000
0000
0001
0000
0000
0100
0020
,
0000
0001
0000
0001
0000
0001
0000
2000
,
0000
0000
0000
0000
0000
0000
0000
0000
0000
0000
0000
0000
0000
0000
0000
0000
0000
0000
0000
0000
0000
0000
0000
0000
0000
0000
0000
0000
0000
0000
0000
0000
0000
0000
0000
0000
0000
0000
0000
0000
0000
0000
0000
0000
0000
0000
0000
0000
0000
0000
0000
0000
0000
0000
3030
0000
0000
0000
0000
0000
1000
0000
0000
0000
0000
0000
0000
0000
0000
0010
0000
0000
0000
0000
0000
0000
0000
0000
0001
0000
0000
0000
0000
0000
0100
0000
0000
0000
0000
0000
0000
0000
0001
0000
0000
0000
,
0000
1000
0000
0010
0000
0000
0100
0000
0000
0001
0000
1000
0000
0001
0000
0100
0000
0000
0100
0000
0000
0010
0000
0001
,
0000
1000
0000
0001
0000
1000
0000
0010
0000
0001
0000
0100
0000
0010
0000
1000
0000
0001
0000
0000
0000
1000
0000
0001
,
0000
0100
0000
0010
0000
0001
0000
0000
0000
1000
0000
0001
0000
0100
0000
0010
0000
0001
0000
0000
0000
1000
0000
0001
,
0000
0100
0000
0001
0000
1000
0000
0100
0000
0010
0000
0001
0000
1000
0000
0100
0000
0001
0000
0000
0000
0001
0000
0000
,
1000
0000
0000
0010
0000
0000
1000
0000
0000
1000
0001
0100
1000
0000
0000
0100
0000
0000
0001
0000
0000
1000
0000
0000
,
0001
0000
0000
0001
0000
0000
1000
0000
0000
0010
1000
0001
0100
0000
0000
1000
0000
0000
0001
0000
0000
0100
0000
0000
,
1000
0000
0000
0001
0000
0000
1000
0000
0000
0001
1000
0001
0100
0000
0000
1000
0000
0000
0001
0000
0000
0100
0000
0000
,
0010
0000
0000
1000
0000
0000
0001
0000
0000
0100
1000
0100
0001
0010
0100
1000
0001
1000
0010
0000
0000
0001
0000
0000
,
1000
0000
0010
0000
0001
0010
0001
0000
1000
0000
0100
0000
1000
0001
0100
0000
,
0010
0000
1000
0000
0101
0000
0010
0000
1000
0000
0100
0001
1000
0010
0100
0000
,
0001
0000
1000
0000
0001
0000
1000
0000
0010
0000
0100
1000
0001
0100
0010
0000
,
1000
0000
0000
0000
0010
0000
0000
0000
1000
0000
0010
0000
1000
0000
0001
0000
0100
0000
0010
0000
0100
0000
0000
0010
0000
0000
0100
0000
0001
0000
0000
0000
,
1000
0000
0010
0000
0100
0000
1000
0000
0001
0000
0010
0000
1000
0001
0100
0000
,
1000
0000
0010
0000
1000
0000
0100
0000
0001
0000
1000
0000
0001
0100
0010
0000
,
1000
0000
0000
0000
0001
0000
0000
0000
0100
0000
0000
0000
0010
0000
0000
0000
1000
0000
0000
0000
0001
0000
0000
0000
0100
0000
0000
0010
1000
0000
0000
0000
,
0001
1000
0010
0100
1000
0001
1000
0010
,
0100
1000
0001
0100
0010
1000
0001
0000
;

//--------------- dance-single - 風神-ESP ----------------
#NOTES:
     dance-single:
     風神:
     Hard:
     14:
     0,0,0,0,0:
0000
0000
0000
0000
,
0000
0000
0000
0000
,
0000
0000
0000
0000
,
0000
0000
0000
0000
,
0000
0000
0000
0000
0000
0000
0000
0001
,
1000
0000
0010
1000
0010
0000
0100
0000
0001
0010
0001
0000
1000
0000
1000
0000
,
0010
0000
0100
0000
0010
1000
0010
0100
0001
0000
1000
0000
0001
0100
0001
1000
,
0010
0000
1000
0000
0010
1000
0000
0100
0001
0000
1000
0000
0001
0100
0010
1000
,
0001
0000
0010
0000
1000
0000
0010
1000
0001
0100
0010
1000
0001
0000
0010
0000
,
1000
0000
0001
0010
0001
0000
1000
0000
0010
0000
0100
0010
0100
0000
1000
0000
,
0010
0000
1000
0010
1000
0000
0001
0000
0100
0000
0001
1000
0001
0100
0010
0000
,
1000
0000
0001
1000
0001
0000
0100
0000
1000
0000
0010
1000
0010
0000
0100
0000
,
0001
0000
0000
0000
1000
0000
0000
0000
0010
0000
0000
0000
0001
0000
1000
0000
0001
0000
0100
0000
0010
0000
1000
0100
0001
0000
0100
0000
0010
0000
0000
0000
,
2000
0000
0000
0000
0000
0000
0001
0000
0000
3000
0000
0000
0000
0000
1010
0000
,
0202
0000
0000
0000
0000
0000
0000
0000
0303
0000
0000
0000
2002
0000
0000
0000
0000
0000
0000
0000
0000
0000
3003
0000
0000
0000
1000
0001
0010
0000
0000
0000
,
0020
0000
0000
0000
0000
0000
0100
0000
0030
0000
0000
0000
0001
1000
0001
0000
,
0200
0000
0000
0000
0000
0000
0010
0000
0000
0000
0010
0000
0000
0000
0310
0000
0000
0000
0010
0001
0010
0000
0100
0000
1000
0000
0000
0000
0001
0000
0000
0000
,
1000
0000
0010
1000
0010
0000
0100
0000
0001
0000
1000
0000
0001
0100
0010
0000
,
1000
0000
0010
0000
1000
0000
0001
0100
0010
0000
1000
0000
1000
0000
0001
1000
,
0001
0000
0010
1000
0010
0000
0100
0000
0001
0000
1000
0000
0010
0000
0001
0010
,
0001
0000
1000
0000
0001
0000
0100
0010
1000
0001
0100
0010
1000
0001
0020
0000
,
0000
0000
0000
2030
0000
0000
3200
0320
,
0000
0000
0032
0000
0000
0000
0020
0000
0000
0000
0000
0000
0000
0033
0200
0000
,
0000
0000
0000
2300
0000
0000
0000
3002
,
0000
0000
0000
0000
0000
0000
0000
0000
0000
0000
0000
0003
0000
0000
0020
0000
,
0000
0000
0000
0000
0000
0000
0000
0000
0000
0000
0000
0000
0200
0000
0000
0000
0000
0000
0000
0000
0000
0000
0000
0000
0000
0000
0000
0000
0000
0000
0000
0000
0000
0000
0000
0000
0000
0000
0000
0000
0000
0000
0000
0000
0000
0000
0000
0000
0000
0000
0000
0000
0000
0000
0330
0000
0000
0000
0000
0000
1000
0000
0000
0000
0000
0000
0000
0000
0000
0100
0000
0000
0000
0000
0000
0000
0000
0000
0001
0000
0000
0000
0000
0000
0100
0000
0000
0000
0001
0000
0000
0000
0100
0000
0000
0000
,
1000
0000
0000
0001
1000
0001
0100
0000
0000
1000
0001
0100
0010
1000
0001
0010
0100
1000
0001
0000
0000
0001
1000
0100
,
0001
0000
0000
1000
0100
0010
0001
0000
0000
0001
0010
0100
1000
0100
0010
0001
0010
0100
1000
0000
0000
0001
1000
0001
,
1000
0000
0000
0010
0100
0010
0100
0000
0000
0100
0010
0100
0010
0001
0010
0100
1000
0100
0010
0000
0000
0001
0010
0100
,
1000
0000
0000
1000
0001
1000
0001
0000
0000
1000
0001
1000
0100
0001
0010
0100
1000
0001
0010
0000
0000
0001
1000
0010
,
1000
0000
0001
0100
0010
1000
0010
1000
0001
0100
0010
1000
0010
1000
0001
0100
0010
0001
1000
0000
0000
0010
0001
1000
,
0010
1000
0001
0100
0000
0010
1000
0010
1000
0010
0001
0000
1000
0010
1000
0001
0100
0010
1000
0000
0000
0001
0100
0010
,
1000
0010
1000
0010
1000
0010
0100
0001
1000
0010
0100
0001
1000
0010
0100
0001
1000
0010
0100
0000
0000
0001
0010
0001
,
0010
0000
1000
0000
0010
0000
1000
0000
0001
0000
0100
0000
0010
0000
1000
0000
0010
0000
0100
0000
0001
0000
1000
0000
0010
0000
0100
0000
0010
0000
1000
0000
0001
0000
0010
0000
0100
0000
1000
0000
0100
0000
0010
0000
0000
1000
0000
0000
,
0001
0010
0001
1000
0010
1000
0010
1000
0010
0100
0001
0010
0001
1000
0001
0100
,
1000
0010
0100
0001
1000
0010
0000
1000
0001
0100
0010
0000
1000
0000
0010
0001
,
0010
0000
1000
0000
0010
0000
0000
0000
0100
0000
0001
0000
0000
0000
0010
0000
1000
0000
0000
0000
0010
0000
0000
0000
0100
0000
0000
0000
0001
1000
0010
0000
,
0001
0000
1000
0000
0010
0000
0000
0000
1000
0000
0010
0000
0000
0000
0100
0000
0001
0000
1000
0000
0010
0000
0100
1000
0001
0100
0010
1000
0001
0000
0000
0000
,
1000
0000
0010
0000
1000
0010
1000
0000
0001
0000
0100
0000
0001
1000
0001
0000
,
0100
0000
0010
0000
1000
0000
0001
0000
0100
0000
0010
0000
1000
0001
0010
0000
,
1000
0000
0000
0000
0001
0000
0000
0000
0100
0000
0000
0000
0010
0000
0000
0000
1000
0000
0000
0000
0001
0000
0000
0000
0100
0000
0000
0000
0010
1000
0100
0000
,
0001
0000
0010
0000
1000
0000
0001
0000
1000
0000
0001
0000
1000
0010
1000
0000
,
0100
0000
0001
1000
0001
0000
1000
0000
0001
0000
0100
0000
0010
0001
0000
0000
;

//--------------- dance-single - 風神†-CSP ----------------
#NOTES:
     dance-single:
     風神†:
     Challenge:
     16:
     0,0,0,0,0:
0000
0000
0000
0000
,
0000
0000
0000
0000
,
0000
0000
0000
0000
,
0000
0000
0000
0000
,
0000
0000
0000
0000
0000
0000
0000
0000
0000
0000
0000
0000
0000
0000
1000
0001
,
0100
0010
1000
0000
0010
0000
0001
0010
0001
1000
0001
0100
0001
1000
0010
1000
,
0010
0100
1000
0000
0010
0000
1000
0010
1000
0001
0100
0010
1000
0001
0010
0001
,
1000
0010
1000
0000
0100
0000
1000
0001
0100
0010
1000
0001
0010
0001
1000
0010
,
1000
0010
0100
0000
1000
0000
0010
0100
1000
0001
0100
0010
1000
0001
0101
0000
,
1010
0000
1010
0000
0101
0000
0010
0001
0010
0001
1000
0000
0001
0000
0100
1000
,
0001
0000
0100
0000
1000
0000
0010
1000
0100
1000
0010
0000
1000
0000
0001
0010
,
0001
0000
1000
0100
1000
0000
0010
0100
1000
0001
0100
0000
0010
0000
0100
1000
,
0001
0000
0000
0000
0000
0000
0100
0000
0000
0000
0000
0000
0010
0000
0000
0000
0000
0000
0000
0000
0000
0000
0000
0000
1000
0000
0000
0000
0000
0000
0000
0000
0000
0000
0000
0000
0010
0000
0000
0000
0000
0000
0001
0000
0000
0000
0000
0000
1000
0000
0000
0000
0000
0000
0010
0000
0000
0000
0000
0000
0100
0000
0000
0000
0000
0000
0010
0000
0000
0001
0000
0000
1000
0000
0000
0001
0000
0000
1000
0000
0000
0100
0000
0000
0022
0000
0000
0000
0033
0000
0000
0000
0000
0000
0000
0000
,
2020
3030
0000
1001
0000
0000
0000
0110
,
2002
0000
0000
0000
0000
0000
0000
0000
3003
0000
0000
0000
0200
0000
0000
0000
0000
0000
0000
0000
0000
0000
0000
0300
0000
0000
0010
0001
1000
0000
0000
0000
,
0220
0000
0000
0330
0000
0000
0011
0000
0000
0000
0000
0000
0000
0000
1010
0000
,
0101
0000
0000
0000
0000
0000
1000
0000
0000
0000
0001
0000
0000
0000
1000
0000
0010
0000
0100
0001
1000
0000
0001
0000
0010
0000
0000
0000
0001
0000
0000
0000
,
0010
0000
0001
0010
0001
0000
1000
0000
0100
0000
0001
1000
0010
0000
1000
0000
,
0010
0000
0100
1000
0100
0000
0001
0000
0010
0000
0100
1000
0100
0000
0001
0000
,
0010
0000
1000
0001
0100
0010
1000
0000
1000
0000
0010
1000
0001
0000
0100
0000
,
0010
0000
0000
0000
0010
0000
1000
0000
0001
0000
0100
0000
1000
0000
0010
0000
0100
0000
0001
0000
1000
0000
0010
0000
0100
0010
0001
0100
2000
0000
0000
0000
,
0000
0000
0000
0000
0000
0000
0000
0000
3000
0000
0000
0000
0202
0000
0000
0000
0000
0000
0000
0000
0000
0303
0000
0000
0010
0000
0000
0000
1000
0000
0000
0000
,
0000
0000
0000
0000
0001
0000
0000
0000
0000
0000
0000
0000
0000
0000
0000
0000
0000
0000
0000
0000
0000
0000
0000
0000
0000
0000
0001
0010
1000
0000
0000
0000
,
0000
0000
0010
0000
0000
0000
1000
0000
0000
0000
0100
0000
0000
0010
1000
0000
,
0001
0100
0000
0010
1000
0001
0000
0002
,
0000
0000
0000
0000
0000
0000
0000
0000
0000
0000
0000
0000
2000
0000
0000
0000
0000
0000
0000
0000
0000
0000
0000
0000
0000
0000
0000
0000
0000
0000
0000
0000
0000
0000
0000
0000
0000
0000
0000
0000
0000
0000
0000
0000
0000
0000
0000
0000
3003
0000
0000
0000
0000
0000
0000
0000
0000
0000
0000
0000
1000
0000
0000
0000
0000
0000
0000
0000
0000
0100
0000
0000
0000
0000
0000
0000
0000
0000
0010
0000
0000
0000
0000
0000
0001
0000
0000
0000
0100
0000
0000
0000
0001
0000
0000
0000
,
1000
0100
1000
0001
1000
0100
0010
0001
0010
0100
0010
0100
1000
0001
0010
0001
0100
0001
0100
0010
1000
0010
1000
0001
,
0010
0100
0010
0100
0010
0001
1000
0010
1000
0010
1000
0001
0100
0001
0010
0001
1000
0100
0010
0100
0010
0100
1000
0001
,
0100
0001
0100
0010
0100
0010
1000
0001
1000
0001
0100
0001
1000
0010
0100
0010
0100
0001
1000
0100
0010
0001
1000
0010
,
0100
0010
0100
0001
1000
0010
0100
0010
0100
0010
1000
0001
0100
0010
1000
0001
0010
0001
0010
0100
0010
0200
1300
0010
,
1000
0010
1000
0001
0100
0010
0100
0001
0100
0020
1030
0001
1000
0010
0100
0001
0010
0001
0010
0001
0100
0020
1030
0001
,
0100
0001
1000
0001
0010
0100
0010
0100
0010
0002
0103
0001
0010
0100
0010
0100
1000
0010
0100
0001
1000
0020
0130
0010
,
0100
0001
0010
0001
0100
0010
0100
0001
0100
0002
1003
0010
0100
0001
0010
0001
1000
0001
0100
0010
0100
0020
0130
0001
,
1000
0000
0010
0000
0100
0000
0010
0000
0100
0000
0001
0000
0010
0000
0100
0000
1000
0000
0020
0000
1030
0000
0001
0000
0100
0000
0010
0000
1000
0000
0010
0000
0100
0000
0010
0000
0100
0000
0001
0000
0010
0000
1000
0000
0000
0001
0000
0000
,
0010
0000
1000
0000
0100
0000
0000
0000
0010
0000
0001
0000
0000
0000
1000
0000
0010
0000
0100
0000
0001
0100
1000
0000
0010
0000
0000
0000
1000
0000
0100
0000
,
1000
0000
0001
0000
0100
0000
0000
0000
0010
0000
1000
0000
0000
0000
0100
0000
0000
0000
0001
0000
1000
0000
0010
0000
0001
1000
0010
0001
0100
0000
0000
0000
,
1000
0000
0000
0000
0010
0000
0000
0000
0100
0000
0001
0000
0000
0000
0010
0000
0000
0000
0010
0000
1000
0100
0001
0000
0100
0000
0000
0000
0010
0000
1000
0000
,
0001
0000
0010
0000
0001
0000
1000
0000
0010
0000
0000
0000
1000
0000
0010
0000
0100
0000
0001
0000
1000
0001
0010
1000
0100
0001
0010
0100
1000
0000
0000
0000
,
0100
0000
0001
0000
0010
0000
1000
0000
0010
0000
1000
0000
0001
0100
0010
0000
,
1000
0000
0100
0000
1000
0000
0001
0000
0100
0000
0010
0000
1000
0001
0010
0000
,
1000
0000
0000
0000
0001
0000
0000
0000
0100
0000
0000
0000
0010
0000
0000
0000
1000
0000
0000
0000
0001
0000
0000
0000
0010
0000
1000
0000
0001
0100
1000
0000
,
0010
1000
0010
0000
0001
0000
0001
0000
1000
0000
0001
0000
0100
0010
1000
0000
,
0001
0000
0000
0000
0010
0000
0000
0000
1000
0000
0010
0000
0100
0000
0000
0000
0001
0000
0000
0000
0100
0000
0000
0000
0010
0100
0010
0000
0000
0000
0000
0000
;
