#TITLE:GROOVY;
#ARTIST:目黒将司 Remixed by 小西利樹;
#ARTISTTRANSLIT:Shoji Meguro Remixed by Ryota Kozuka;
#MUSIC:GROOVY.ogg;
#BANNER:GROOVY.png;
#BACKGROUND:GROOVY-bg.png;
#SAMPLESTART:52.498;
#SAMPLELENGTH:15;
#OFFSET:-0.082;
#BPMS:0=178;
#BGSTAGE:29;

//--------------- dance-single - XLev450X-bSP ----------------
#NOTES:
     dance-single:
     XLev450X:
     Beginner:
     3:
     0,0,0,0,0:
0000
0000
0000
0000
,
0000
0000
0000
0000
,
0000
0000
0000
0000
,
0000
0000
0000
0000
,
0000
0000
0000
0000
,
0000
0001
0000
0001
,
0000
0001
0000
0000
,
0000
0010
0000
0100
,
0000
0010
0000
0000
,
0000
1000
0000
1000
,
0000
1000
0000
0000
,
0000
1000
0000
0001
,
0000
1000
0000
0000
,
0000
0100
0000
0010
,
0000
0100
0000
0000
,
0000
1000
0000
0100
,
0000
1000
0000
0000
,
0000
0001
0000
0010
,
0000
0001
0000
0000
,
0000
0010
0000
0100
,
0000
0010
0000
0000
,
0000
1001
0000
0000
,
0000
0000
0000
0000
,
0000
1001
0000
0000
,
0000
0000
0000
0000
,
0000
1001
0000
0000
,
0000
0000
0000
0000
,
0000
1001
0000
0000
,
0000
0000
0000
0000
,
0000
0100
0000
0100
,
0000
0001
0000
0000
,
0000
1000
0000
1000
,
0000
0010
0000
0000
,
0000
0100
0000
0100
,
0000
0010
0000
0000
,
0000
0001
0000
1000
,
0000
0001
0000
0000
,
0000
1001
0000
0000
,
0000
0000
0000
0000
,
0000
0001
0000
0010
,
0000
0100
0000
0000
,
0000
1000
0000
0010
,
0000
1000
0000
0000
,
0000
0100
0000
0010
,
0000
0100
0000
0000
,
0000
0001
0000
0010
,
0000
0001
0000
0000
,
0000
1000
0000
0001
,
0000
1000
0000
0000
,
0000
0100
0000
0010
,
0000
0100
0000
0000
,
0000
1000
0000
0010
,
0000
1000
0000
0000
,
0000
0001
0000
0010
,
0000
0001
0000
0000
,
0000
0001
0000
0001
,
0000
1000
0000
1000
,
0000
0100
0000
0010
,
0000
0100
0000
0000
,
0000
0001
0000
1000
,
0000
0010
0000
0000
,
0000
1000
0000
0100
,
0000
0010
0000
0000
,
0000
1000
0000
1000
,
0000
0001
0000
0001
,
0000
0100
0000
0010
,
0000
0100
0000
0000
,
0000
0001
0000
1000
,
0000
0001
0000
0000
,
0000
0010
0000
0100
,
0000
0010
0000
0000
,
0000
0110
0000
0000
,
0000
0000
0000
1001
;

//--------------- dance-single - XLev450X-BSP ----------------
#NOTES:
     dance-single:
     XLev450X:
     Easy:
     6:
     0,0,0,0,0:
0000
0000
0000
0000
,
0000
0000
0000
0000
,
0000
0000
0000
0000
,
0000
0000
0000
0000
,
0000
0000
0000
0000
,
0000
0001
1000
0010
,
0100
1000
0001
0010
,
0000
1000
0100
0001
,
0100
1000
0010
0100
,
0000
1000
0001
0100
,
1000
0001
1000
0000
0010
0000
0100
0000
,
1000
0001
0010
0100
,
1000
0000
0001
0000
0010
0001
0010
0000
,
1000
0010
1000
0000
0100
0000
1000
0000
,
0001
0100
0010
0001
,
0000
1000
0100
0010
,
1000
0100
0001
0010
,
0000
1000
1000
0001
,
0100
0010
1000
0001
,
0000
0001
1000
0001
,
1000
0001
1000
0000
0010
0000
1000
0000
,
0000
1000
0001
0110
,
0000
1000
0010
0110
,
0000
0010
0100
1010
,
0000
1000
0001
1001
,
0000
0001
1000
0011
,
0000
1000
0010
0110
,
0000
1000
0001
0110
,
0000
1000
0001
1001
,
0000
1000
0010
0100
,
0000
0000
1000
0000
0001
0000
1000
0001
,
1000
0010
1000
0100
,
0000
0000
0010
0000
1000
0000
0010
1000
,
0010
0001
0100
1000
,
0001
0000
0100
0000
1000
0000
0001
1000
,
0001
0010
0100
1000
,
0010
1000
0010
0000
0001
0010
0001
0000
,
1000
1001
0000
0000
,
0000
0000
0000
0000
,
0000
0001
1000
0100
,
0001
1000
0010
0100
,
0000
0001
1000
0010
,
0100
1000
0001
1000
,
0000
0001
0001
1000
,
0000
0010
0010
0100
,
0000
1000
0001
0100
,
1000
0001
0000
0010
0000
0000
1000
0000
0000
0010
0000
0000
,
0000
1000
0100
0001
,
0000
0100
0010
1000
,
0000
0001
1000
0001
,
0000
0010
1000
0100
,
0000
0010
1000
0001
,
0100
1000
0001
0100
,
0000
0010
1000
0010
,
0100
0001
0000
1000
,
0001
0100
0000
1000
,
0001
0010
1000
0100
,
0000
0000
0000
0001
0000
0000
1000
0000
0010
0000
0000
0000
,
0100
0001
1000
0001
,
0000
0100
0100
0010
,
0000
1000
1000
0001
,
0000
0100
0010
1000
,
0010
0100
1000
0001
,
0000
1000
1000
0001
,
0100
1000
0001
0100
,
0000
0000
0000
0001
0000
0000
1000
0000
0010
0000
0000
0000
,
0100
0001
1000
0010
,
0000
0001
0001
1000
,
0100
0001
0000
1000
,
0000
0000
0000
0001
0000
0000
0000
0000
0100
0000
0000
0000
,
1000
0000
0000
0000
0000
0001
0000
0000
0000
1000
0000
0000
,
0000
0001
1000
0001
,
0000
0000
0100
0000
0000
0010
0000
0000
0000
0010
0000
1001
;

//--------------- dance-single - XLev450X-DSP ----------------
#NOTES:
     dance-single:
     XLev450X:
     Medium:
     11:
     0,0,0,0,0:
0000
0000
0000
0000
,
0000
0000
0000
0000
,
0000
0000
0000
0000
,
0000
0000
0000
0000
,
0000
0000
0000
0000
,
0000
0000
0001
0000
1000
0000
0010
1000
,
0010
0000
0001
0000
0100
0000
0001
0100
,
0001
0000
1000
0000
0001
0000
1000
0001
,
1000
0000
0010
0000
0100
0000
0010
0100
,
0010
0001
1000
0010
,
0000
0000
1000
0000
0100
0000
0010
1000
,
0010
0001
0100
0001
,
1000
0001
0100
0101
,
0000
0000
1000
0000
0001
0000
0010
1000
,
0010
0000
0100
0000
1000
0000
0010
1000
,
0010
0000
0001
0000
0010
0000
1000
0001
,
1000
0001
0100
0001
,
0000
1000
1000
0010
,
0100
1000
0001
0010
,
0000
0100
0010
1000
,
0001
1000
0001
0000
0010
0000
1000
0000
,
0001
0000
1000
0000
0000
0001
0000
0000
,
0100
0000
0010
0000
0000
1000
0000
0000
,
0001
0000
0100
0000
0000
0010
0000
0000
,
1000
0000
0001
0000
0000
0100
0000
0000
,
0101
0000
1000
0000
0000
0010
0000
0000
,
0100
0000
1010
0000
0000
0001
0000
0000
,
0100
0000
0001
0000
0000
1000
0000
0000
,
1001
0000
0010
0000
0000
0100
0000
0000
,
1001
0001
1000
0001
,
0000
0010
1000
0010
,
0000
0100
0010
0100
,
0000
0001
0010
1000
,
0000
0001
1000
0001
,
0100
1000
0000
0001
,
0000
1000
0010
0100
,
1000
0001
0100
0010
,
0100
1001
0000
0000
,
0000
0000
0000
0000
,
0000
0001
1000
0010
,
0100
0000
0000
1000
0000
0000
0001
0000
0000
1000
0000
0010
,
1000
0000
0010
0100
0000
0000
0001
0000
0000
1000
0000
0000
,
0001
0100
1000
0001
,
0000
0001
1000
0010
,
0001
0010
0000
1000
0000
0000
0010
0000
0000
0100
0000
0010
,
0100
0000
0000
1000
0000
0000
0001
0000
0000
1000
0000
0010
,
1000
0010
0001
0100
,
0000
0000
0000
1000
0000
0000
0001
0000
0000
1000
0000
0001
,
1000
0000
0000
0010
0000
0000
0100
0000
0000
0010
0000
0001
,
0010
0000
0000
1000
0000
0000
0100
0000
0000
1000
0000
0100
,
1000
0010
0100
0001
,
0000
0000
0000
1000
0000
0000
0001
0000
0000
1000
0000
0001
,
1000
0000
0000
0010
0000
0000
0100
0000
0000
1000
0000
0010
,
1000
0001
0010
0100
,
0000
0001
1000
0001
,
0000
1000
0010
0101
,
0000
1000
0001
1010
,
0000
0010
1000
0100
,
0001
0000
0000
1000
0000
0000
0010
0000
0000
1000
0000
0001
,
1000
0000
0010
1000
0000
0000
0010
0000
0000
0001
0000
0000
,
0100
1000
0000
0001
,
0000
0000
0000
1000
0000
0000
0100
0000
0000
0001
0000
0001
,
0010
0000
1000
0010
0000
0010
0100
0000
0001
1000
0000
0100
,
0001
0000
1000
0010
0000
0000
0001
0000
0000
1000
0000
0000
,
0000
0010
1000
0001
,
0100
0000
0000
0001
0000
0000
1000
0000
0010
0000
0000
0000
,
0000
0100
0001
1000
,
0010
1000
0001
0010
,
1000
0000
0000
0010
0000
0010
1000
0000
0010
0001
0000
0000
,
0010
0000
0000
1000
0100
0000
0001
0010
0000
0100
0000
0001
,
1000
0000
0100
0001
1000
0001
1000
0000
0001
0010
0000
1000
,
0100
0000
0010
1000
0000
0001
1000
0000
0000
0100
0000
0000
,
1000
0000
0001
0000
0000
0100
0000
0000
0010
0001
0000
1001
;

//--------------- dance-single - XLev450X-ESP ----------------
#NOTES:
     dance-single:
     XLev450X:
     Hard:
     14:
     0,0,0,0,0:
0000
0000
0000
0000
,
0000
0000
0000
0000
,
0000
0000
0000
0000
,
0000
0000
0000
0000
,
0000
0000
0000
0000
,
0000
0000
0001
1000
0010
1000
0010
0001
,
0010
0000
0001
0010
0001
0000
1000
0000
0010
0000
0001
0000
1000
0000
0010
0000
,
1000
0000
0010
1000
0010
0000
0001
0000
0010
0000
0100
0000
1000
0000
0001
0000
,
1000
0000
0001
1000
0001
0000
1000
0000
0010
0000
1000
0000
0001
0000
0010
0000
,
0001
0000
0010
0001
0010
0000
1000
0000
0001
0000
0000
0100
0000
0000
1000
0000
,
0001
0000
1000
0001
1000
0000
0001
0000
1000
0000
0000
0001
0000
0000
1000
0000
,
0010
0000
1000
0010
1000
0000
0010
0000
0100
0000
0000
0001
0000
0000
1000
0000
,
0001
0000
1000
0001
1000
0000
0001
0000
0010
0000
0000
1000
0000
0000
0010
0000
,
1000
0001
1000
0001
1000
0000
0001
0000
0010
0000
0001
0000
1000
0000
0001
0000
,
1000
0000
0001
1000
0001
0000
1000
0000
0010
0000
1000
0000
0010
0000
0100
0000
,
0001
0000
0010
0100
0010
0100
0010
0000
1000
0000
0001
0000
1000
0000
0010
0000
,
0001
0000
1000
0100
0001
0000
1000
0000
0010
0000
1000
0000
0010
0000
0100
0000
,
0001
1000
0001
1000
0001
0000
1000
0000
0010
0000
1000
0000
0010
0000
1000
0000
,
0010
0000
1000
0010
1000
0000
0010
0000
0100
0000
1000
0000
0001
0000
0010
0000
,
0001
0000
0010
0001
0010
0000
1000
0000
0001
0000
0100
0000
1000
0000
0001
0000
,
1000
0000
0010
1000
0010
1000
0100
0000
0001
0000
1000
0000
0010
0000
1000
0000
,
0001
0000
1000
0001
1000
0000
0100
0000
0001
0000
0000
1000
0000
0000
0001
0000
,
0010
0000
1000
0000
0010
0000
0000
1000
0000
0000
0001
0000
0100
0000
0001
0000
,
1000
0001
0100
0000
0001
0000
0000
0100
0000
0000
0010
0000
0000
0000
1000
0000
,
0001
0000
0000
0000
0010
0000
0000
1000
0000
0000
0100
0000
0010
0000
0001
1000
,
0010
0000
0000
0000
1000
0000
0000
0001
0000
0000
0100
0000
0000
0000
1000
0000
,
0001
0000
0000
0000
0010
0000
0000
1000
0000
0000
0100
0000
0000
0000
0001
0000
,
0010
0000
0100
0001
1000
0000
0000
0001
0000
0000
0100
0000
0000
0000
1000
0000
,
0001
0000
0000
0000
0010
0000
0000
1000
0000
0000
0100
0000
0000
0000
0001
0000
,
0010
0001
1000
0001
1000
0000
0000
0000
0001
0000
0000
0000
0100
0000
0000
0000
,
1000
0001
1000
0000
0010
0000
0010
0000
,
1000
0100
1000
0000
0001
0000
0010
0000
,
0001
1000
0001
0000
0010
1000
0010
0000
,
0001
0010
0001
0000
1000
0000
0100
0000
,
1000
0001
1000
0100
0001
0000
0100
0000
,
1000
0001
1000
0000
0010
0000
1000
0000
,
0100
0000
0000
0000
1000
0100
0001
0000
1000
0001
0100
0000
0001
1000
0010
0001
,
1000
0000
0000
0010
0000
0000
0100
0000
0000
1000
0000
0000
0001
0000
0000
0000
0000
0000
0000
0000
1000
0000
0000
0000
0000
0000
0000
0000
0001
0000
0000
0000
0000
0000
0000
0000
0100
0000
0000
0000
0000
0000
0000
0000
1000
0000
0000
0000
,
0000
0001
0000
1000
0000
0010
0000
0100
0000
0001
1000
0010
,
0001
0100
0010
1000
0000
0000
0001
0000
0000
0010
0000
0001
,
0010
0000
1000
0010
0000
0000
0100
0000
0000
1000
0000
0001
,
0100
0000
1000
0010
0000
0000
0010
0000
0000
0001
0000
0100
,
1000
0000
0001
0100
0000
0000
1000
0000
0000
0010
0000
1000
,
0010
0000
0100
0010
0000
0000
0001
0000
0000
0010
0000
1000
,
0010
0000
0100
0010
0000
0000
0001
0000
0000
0010
0000
0001
,
0010
0000
0000
1000
0000
0001
1000
0000
0010
1000
0000
0010
,
0100
0000
1000
0010
0000
0001
0010
0000
0001
1000
0000
0100
,
1000
0001
1000
0100
0000
0000
1000
0000
0000
0010
0000
1000
,
0010
0000
0100
0010
0000
0000
0001
0000
0000
0010
0000
1000
,
0001
0000
0100
0001
0000
0000
0010
0000
0000
0010
0000
0100
,
0010
0000
1000
0010
0000
0000
0001
0000
0000
0010
0000
1000
,
0001
0000
0001
1000
0000
1000
0001
0000
0010
0100
0000
0010
,
0001
0000
0010
1000
0000
0001
0100
0000
1000
0001
0000
0100
,
0010
0000
1000
0010
0000
0000
0001
0000
0000
1000
0000
0010
,
1000
0000
0010
0100
0000
0000
0001
0000
0000
0001
0000
1000
,
0001
0000
1000
0001
0000
0000
0100
0000
0000
1000
0001
0100
,
0010
1000
0010
0100
0000
0000
1000
0001
0010
0100
1000
0100
,
0001
1000
0001
1000
0000
0000
0001
0000
0000
0100
0000
0000
,
1000
0010
0100
1000
0010
1000
0001
0010
0001
0010
0000
0000
,
1000
0010
1000
0010
0100
0001
1000
0000
1000
0001
0000
0100
,
0001
0000
1000
0010
0000
0100
0010
0000
0010
0001
0000
0010
,
1000
0000
0001
0100
0000
1000
0010
0000
0010
0100
0000
0010
,
1000
0000
0001
0010
0000
1000
0001
0000
0100
0001
0000
1000
,
0100
0001
1000
0100
0000
0000
0010
0000
0000
1000
0000
0010
,
1000
0000
0010
0001
0000
0000
0010
0000
1000
0100
0000
0001
,
0100
0000
0001
1000
0000
0010
0000
0100
0000
0100
0000
1000
,
0001
0000
0010
1000
0000
0000
1001
0000
0010
1000
0000
0010
,
0100
0000
1000
0001
0000
0000
0010
0000
0000
0001
0010
0001
,
0010
0000
0000
1000
0000
0000
0010
0000
0000
1000
0000
0010
,
1000
0000
0010
0100
0000
0000
0001
0000
0000
1000
0000
0010
,
0001
0000
0100
1000
0000
0100
0001
0000
0100
1000
0001
0100
,
1000
0001
0100
1000
0100
0001
1000
0100
0001
0100
0000
0000
,
0010
0000
1000
0000
0000
0100
0000
0000
1000
0001
0000
1001
;
