#TITLE:GOLDEN SKY (RGR-Special);
#ARTIST:SMiLE.dk;
#MUSIC:GOLDEN SKY (RGR-Special).ogg;
#BANNER:GOLDEN SKY (RGR-Special).png;
#BACKGROUND:GOLDEN SKY (RGR-Special)-bg.png;
#CDTITLE:./CDTITLES/DanceDanceRevolution SuperNOVA.png;
#SAMPLESTART:29.330;
#SAMPLELENGTH:15;
#BPMS:0=135;

//--------------- dance-single - StormTaker21 ----------------
#NOTES:
     dance-single:
     StormTaker21:
     Challenge:
     15:
     :
0000
0000
0000
0000
,
0000
0000
0000
0000
,
0000
0000
0000
0000
,
0000
0000
0000
0000
,
0000
0000
0000
0000
,
0011
0000
0001
0010
0001
0000
0010
0000
0100
0000
0010
0100
0010
0000
0100
0000
,
1000
0000
0100
1000
0100
0000
1000
0000
0010
0000
1000
0000
0001
0000
0010
0000
,
0011
0000
0110
0100
0010
0001
0010
0100
,
0010
0000
0001
0010
0100
0000
0010
0000
0011
0000
0100
0000
1100
0000
0010
0000
,
1000
0000
0001
0000
0010
0000
0100
0000
0010
0001
0010
0000
0100
0000
1000
0000
,
0010
0000
1000
0100
0010
0000
0001
0000
0010
0000
0100
1000
0010
0000
1000
0000
,
1001
0000
0001
0010
0100
0000
0010
0000
0001
0000
0010
0100
1000
0000
0010
0000
,
1000
0001
0010
0000
0100
0000
0010
0000
0011
0000
0000
0100
1000
0000
0010
0000
,
1010
0000
0100
0000
0010
0000
0001
0000
0010
0100
1000
0000
0010
0000
1000
0000
,
0100
0010
0001
0000
0010
0000
0100
0000
1000
0010
1000
0000
0001
0000
0010
0000
,
0100
0010
0001
0000
1000
0000
0100
0000
1000
0010
1000
0000
0100
0000
0010
0000
,
2002
0000
0000
0000
0000
0000
0000
3003
0001
0010
0001
0010
0001
0000
0001
0000
,
0011
0000
0100
1000
0001
0000
0010
0000
0100
0000
0010
0001
0010
0000
0100
0000
,
1000
0100
0010
0000
1000
0100
1000
0010
1000
0100
1000
0010
1000
0100
1000
0001
,
0010
0000
0001
0010
0000
0100
0010
0000
0011
0000
0000
1000
0010
0000
1000
0100
,
0010
0000
0001
0000
0011
0000
0100
1000
0010
1000
0100
0010
0001
0000
0010
0000
,
0100
1000
0001
0010
0001
0100
0010
0000
0011
0000
0100
1000
0010
0000
1000
0000
,
0100
0010
0001
0010
0100
1000
0010
1000
0001
0000
0010
0000
0100
0000
1000
0010
,
1000
0000
0001
0010
0100
0000
1000
0001
1000
0010
1000
0100
0010
0000
0001
0000
,
1000
0000
0100
0000
0010
0000
0001
0000
1000
0001
1000
0000
2002
0000
3003
0000
,
0100
0000
0010
0001
0010
0000
0100
0000
0010
0000
0001
0010
0100
0000
0010
0000
,
0010
0000
0100
1000
0010
0000
0100
0000
0010
0001
0010
0000
0100
1000
0010
0000
,
1001
0000
0100
0000
0011
0000
0100
0000
0010
0100
0010
0000
0011
0000
0100
0000
,
0010
0000
0100
0010
0001
0010
0100
0000
0010
0000
0001
0000
0010
0000
0100
0000
,
0011
0000
0100
0010
0001
0000
0010
0100
0010
0000
0001
1000
0100
1000
0010
1000
,
0100
0000
0010
0001
0010
0100
1000
0001
1000
0010
1000
0100
1000
0010
1000
0100
,
0010
0000
1000
0001
0010
0100
0010
0000
0001
0000
0010
0100
0010
0000
0001
0000
,
0110
0000
0001
1000
0010
0000
1000
0000
0100
0010
0001
0010
0100
0000
1000
0000
,
0001
1000
0010
1000
0100
0000
0010
0000
0011
0000
0100
0010
0001
1000
0010
1000
,
0100
0010
0001
1000
0100
0010
0001
1000
0100
0000
0010
0001
0010
0000
0100
0000
,
0011
0000
0100
0010
0001
0010
0100
0010
0001
0000
0010
0000
0100
0000
1000
0010
,
1000
0000
0100
0000
0011
0000
0100
0010
0001
0000
1000
0100
1000
0000
0010
1000
,
0010
0000
1000
0001
0010
0100
0010
0001
0010
0000
0100
0000
0011
0000
0010
0100
,
1000
0000
0010
1000
0100
0000
0001
0000
0110
0000
0001
0000
0110
0000
0001
0010
,
0100
0000
1000
0010
0001
0010
0000
0100
1000
0010
0000
1000
0100
0010
0000
0001
,
0100
0000
0010
0000
0001
0000
0010
0000
0100
1000
0010
1000
0100
0000
0010
0000
,
0001
0010
0100
0010
0001
0000
0010
0000
0110
0000
0001
0010
0100
0000
0010
0000
,
0011
0000
0100
0010
0001
0000
0010
0000
0110
0000
0001
0010
0100
0000
0010
0000
,
1100
0000
0010
1000
0100
1000
0010
1000
0100
1000
0001
1000
0010
1000
0100
1000
,
0001
0000
0010
0100
0010
0000
0001
0000
0010
0000
0100
0010
0001
0000
0010
0000
,
0011
0000
0100
0010
0001
0000
0010
0000
0001
0000
1000
0100
0010
0000
0100
0000
,
0010
0000
0001
0100
1000
0010
1000
0100
1000
0010
1000
0100
1000
0010
1000
0001
,
1000
0000
0000
0100
0010
0000
0001
0000
0010
0000
0100
0010
0001
0000
0010
0000
,
0110
0000
0000
0000
0011
0000
0100
0000
0010
0000
0001
0010
0100
0000
0010
0000
,
0100
1000
0010
1000
0100
0000
0010
0000
0011
0000
0000
0100
0010
0000
0001
0000
,
1000
0010
1000
0100
0010
0001
1000
0100
0010
0000
0000
0001
1000
0000
0100
0000
,
1000
0000
0001
0010
0100
0000
0010
0001
0010
0100
0010
0001
1000
0100
1000
0010
,
2000
0000
0000
0000
0000
0000
0000
0000
0000
0000
0000
0000
0000
3000
0000
0000
;

//--------------- dance-double - ----------------
#NOTES:
     dance-double:
     :
     Easy:
     4:
     0.191022,0.248329,0.053062,0.084899,0,126,121,5,8,0,0,0.191022,0.248329,0.053062,0.084899,0,126,121,5,8,0,0:
00000000
00000000
00000000
00000000
,
00000000
00000000
00000000
00000000
,
00000000
00000000
00000000
00000000
,
00000000
00000000
00000000
00000000
,
00000000
00000000
00000000
00000000
,
00000001
00000000
00001000
00000000
,
00000100
00000000
00000010
00000000
,
00001000
00001000
00000001
00000001
,
00001000
00000001
00001000
00000000
,
00000010
00000000
00000001
00000000
,
00000100
00001000
00000100
00000000
,
00001000
00000000
00010000
00000000
,
01000000
00010000
01000000
00000000
,
00100000
00000000
01000000
00000000
,
00010000
10000000
00100000
00000000
,
01000000
00000000
10000000
00000000
,
20020000
00000000
00000000
30030000
,
00010000
10000000
01000000
00000000
,
10000000
00010000
00100000
00000000
,
01000000
00100000
00010000
00000000
,
10000000
00100000
00010000
00000000
,
00001000
00000000
00010000
00000000
,
00001000
00000100
00000010
00000000
,
00000001
00000001
00001000
00001000
,
00002002
00000000
00000000
00003003
,
00000001
00000000
00001000
00000000
,
00000100
00000000
00000010
00000000
,
00001000
00001000
00000001
00000001
,
00001000
00000001
00001000
00000000
,
00000001
00000010
00000100
00000000
,
00001000
00000001
00000010
00000000
,
00001000
00000000
00010000
00000000
,
00100000
10000000
01000000
00000000
,
00010000
01000000
00010000
00000000
,
10000000
00010000
10000000
00000000
,
00100000
00100000
01000000
01000000
,
20020000
00000000
00000000
30030000
,
00100000
10000000
01000000
00000000
,
00010000
10000000
01000000
00000000
,
00010000
00000000
00001000
00000000
,
00000100
00001000
00000001
00000000
,
00000010
00001000
00000010
00000000
,
00000100
00000001
00000100
00000000
,
00000001
00000001
00001000
00001000
,
00002002
00000000
00000000
00003003
,
00000100
00000000
00000001
00000000
,
00000010
00000000
00001000
00000000
,
00010000
00000000
00100000
00000000
,
00010000
00000000
01000000
00000000
,
10000000
00000000
01000000
00000000
,
00010000
00000000
00001000
00000000
,
00000100
00000000
00000001
00000000
,
00001001
00000000
00000000
00000000
;

//--------------- dance-double - ----------------
#NOTES:
     dance-double:
     :
     Medium:
     5:
     0.291081,0.331105,0.18041,0.084899,0,192,175,17,8,0,0,0.291081,0.331105,0.18041,0.084899,0,192,175,17,8,0,0:
00000000
00000000
00000000
00000000
,
00000000
00000000
00000000
00000000
,
00000000
00000000
00000000
00000000
,
00000000
00000000
00000000
00000000
,
00000000
00000000
00000000
00000000
,
10000000
01000000
00010000
10000000
,
00100000
00010000
01000000
00100000
,
01000000
00010000
00001000
00000100
,
00000010
00001000
00000100
00001001
,
00000010
00000001
00001000
00000010
,
00000001
00000100
00001000
00000000
,
00010000
01000000
00100000
10000000
,
00100000
00010000
10000000
01100000
,
00010000
10000000
00100000
01000000
,
10000000
00100000
00010000
00000000
,
00001000
00000100
00000001
00000010
,
00002002
00003003
00000100
00000010
,
00001001
00000010
00001000
00000001
,
00000100
00000010
00000100
00001000
,
00010000
00100000
10000000
01000000
,
00100000
00010000
10000000
00010000
,
01000000
10000000
00100000
10010000
,
01000000
00010000
02200000
03300000
,
10000000
01000000
00010000
00100000
,
10000000
01000000
00010000
00011000
,
00001000
00000100
00000010
00000001
,
00001000
00000001
00000100
00000010
,
00000001
00000010
00001000
00010000
,
01000000
00010000
00100000
10010000
,
01100000
10000000
00010000
01000000
,
00100000
00010000
10000000
00100000
,
10000000
01000000
00010000
00001000
,
00000100
00000010
00000001
00001000
,
00000010
00000100
00001001
00000110
,
00001000
00010000
00022000
00033000
,
01000000
00100000
00010000
01000000
,
00010000
00100000
10000000
00100000
,
10010000
01000000
00100000
10000000
,
01000000
00010000
00001000
00000010
,
00000001
00000100
00001000
00000100
,
00000010
00000001
00001000
00000010
,
00000100
00000001
00000010
00000110
,
00010000
00001000
00022000
00033000
,
01000000
10000000
01000000
00010000
,
00100000
00010000
01000000
10010000
,
00100000
00000000
01000000
00000000
,
00100000
00000000
10000000
01000000
,
00010000
00000000
00001000
00000010
,
00000001
00000000
00000010
00000100
,
00000001
00000000
00000100
00000000
,
00000010
00001000
00000001
00000000
,
00000010
00000100
00001000
00010000
,
00011000
00000000
00000000
00000000
;

//--------------- dance-double - ----------------
#NOTES:
     dance-double:
     :
     Hard:
     9:
     0.415397,0.441473,0.222859,0.010612,0,274,253,21,1,0,0,0.415397,0.441473,0.222859,0.010612,0,274,253,21,1,0,0:
00000000
00000000
00000000
00000000
,
00000000
00000000
00000000
00000000
,
00000000
00000000
00000000
00000000
,
00000000
00000000
00000000
00000000
,
00000000
00000000
00000000
00000000
,
00010000
00000000
00001000
00000000
00100000
00010000
01000000
00000000
,
00001000
00000000
00010000
00000000
00000010
00010000
00000100
00000000
,
00011000
00101000
00011000
00010100
,
00001000
00000010
00000100
00001000
00010000
00000000
00110000
00000000
,
01000000
10000000
00000000
00010000
10000000
00100000
00000000
01000000
,
00001000
00010000
00000000
00000010
00001000
00000001
00000000
00001000
,
00000001
00000100
00000000
00001000
00010000
01000000
00000000
10000000
,
00100000
01000000
00000000
00010000
10000000
01000000
00010000
00000000
,
00001000
00000100
00000000
00000001
00001000
00000010
00000000
00010000
,
00001000
01000000
00000000
00010000
10000000
01000000
00000000
00100000
,
00010000
10000000
00000000
00100000
01000000
00010000
00000000
10000000
,
02000000
00000000
00100000
03010000
,
00011000
00000000
00000010
00001000
00000100
00000000
00010000
00001000
,
00000010
00000000
00000001
00000100
00001000
00010000
01000000
00000000
,
10000000
00000000
00010000
01000000
00100000
00000000
10000000
01000000
,
00010000
00000000
00001000
00000000
00000010
00000001
00000100
00000000
,
00000010
00001000
00000100
00000000
00011000
00000000
00100000
00010000
,
01000000
00100000
10000000
00000000
01000000
00000000
10010000
00000000
,
01000000
00000000
00001000
00010000
00000010
00001000
00000001
00000000
,
00000011
00000000
00000100
00000000
00001000
00000010
00001000
00000000
,
00000001
00000000
00000100
00000000
00001000
00010000
00001000
00000000
,
00100000
00000000
00010000
00000000
10000000
00100000
10000000
00000000
,
11000000
11000000
11000000
11000000
,
00100000
00010000
01000000
00000000
00001000
00000000
00010010
00000000
,
00001001
00000000
00000100
00000010
00001000
00000000
00000100
00010000
,
00001000
00000000
00100000
00010000
01000000
10000000
01000000
00000000
,
00010000
00000000
10000000
01000000
00010000
00000000
00001000
00000100
,
00000001
00000000
00001000
00000000
00000100
00000010
00000001
00000000
,
00000100
00001000
00000100
00000000
00001000
00000000
00010000
01000000
,
10000000
00100000
01000000
00000000
00010000
00000000
10010000
00000000
,
01000000
00000000
00100000
00010000
01000000
00001000
00010000
00000000
,
00000010
00000000
00001000
00000000
00000100
00010000
00001000
00000000
,
00110000
00000000
00001000
00010000
00000100
00000000
00001000
00000001
,
00000010
00000000
00000100
00001000
00000001
00000100
00000010
00000000
,
00001000
00000000
00000001
00000100
00001000
00000000
00010000
01000000
,
00010000
00000000
00001000
00000000
00010000
00100000
00010000
00000000
,
00001000
00000010
00000001
00000000
00001001
00000000
00000100
00000010
,
00001000
00010000
00100000
00000000
10000000
00000000
11000000
00000000
,
00010000
00000000
01000000
10000000
01000000
00010000
00100000
00000000
,
01100000
00000000
10000000
00000000
00010000
01000000
00001000
00000000
,
00011000
00000010
00001000
00000001
,
00000010
00000000
00000010
00000000
00000010
00000100
00001000
00000001
,
00000100
00001000
00010000
01000000
,
10000000
00000000
00000000
00000000
00010000
01000000
00100000
00000000
,
00010000
00001000
00000010
00001000
,
00010000
00100000
10000000
01000000
00010000
00000000
00000000
00000000
,
00001000
00000000
00000010
00000000
00000001
00000100
00001000
00010000
,
00100000
00000000
00000000
00000000
;
