#TITLE:GOLD;
#SUBTITLE:;
#ARTIST:;
#TITLETRANSLIT:;
#SUBTITLETRANSLIT:;
#ARTISTTRANSLIT:;
#GENRE:;
#CREDIT:;
#MUSIC:GOLD.ogg;
#BANNER:GOLD.png;
#BACKGROUND:GOLD-bg.png;
#CDTITLE:;
#SAMPLESTART:64.432;
#SAMPLELENGTH:15.000;
#SELECTABLE:YES;
#OFFSET:-0.216;
#BPMS:0.000=185.000;
#STOPS:;
#BGSTAGE:31;
#BGCHANGES:;
#FGCHANGES:;

//--------------- dance-single - XLev450X-bSP ----------------
#NOTES:
     dance-single:
     XLev450X:
     Beginner:
     3:
     0,0,0,0,0:
0000
0000
0000
0000
,
0000
0000
0000
0000
,
0000
0000
0000
0000
,
0000
0000
0000
0000
,
0000
0000
0000
0000
,
0000
0000
0000
0000
,
0000
0000
0000
0000
,
0000
0000
0000
0000
,
0000
0000
0000
0000
,
0001
0001
0001
0000
,
0000
0000
0000
0000
,
1000
1000
1000
0000
,
0000
0000
0000
0000
,
0010
0100
0010
0000
,
0000
0000
0000
0000
,
0100
0010
0100
0000
,
1001
0000
0000
0000
,
0000
0000
0000
0000
,
0001
0000
1000
0000
,
0010
0000
0100
0000
,
0001
0000
1000
0000
,
0010
0000
0000
0000
,
0100
0000
0001
0000
,
1000
0000
0010
0000
,
0100
0000
0001
0000
,
1000
0000
0000
0000
,
0001
0000
0000
0000
,
1000
0000
0000
0000
,
0010
0000
0000
0000
,
0100
0000
0000
0000
,
0001
0000
1000
0000
,
0010
0000
0000
0000
,
0100
0000
0001
0000
,
1000
0000
0000
0000
,
0001
0001
0001
0000
,
1000
1000
1000
0000
,
0010
0000
0100
0000
,
0010
0000
0000
0000
,
0010
0010
0010
0000
,
0100
0100
0100
0000
,
1001
0000
0000
0000
,
0110
0000
0000
0000
,
0001
0000
1000
0000
,
0001
0000
0000
0000
,
1000
0000
0001
0000
,
1000
0000
0000
0000
,
0100
0000
0010
0000
,
0100
0000
0000
0000
,
0010
0000
0100
0000
,
0010
0000
0000
0000
,
0001
0001
0001
0000
,
1000
1000
1000
0000
,
0010
0000
0100
0000
,
0001
0000
0000
0000
,
0100
0100
0100
0000
,
0010
0010
0010
0000
,
0001
0000
1000
0000
,
0010
0000
0000
0000
,
0100
0000
0001
0000
,
1000
0000
0000
0000
,
0010
0000
0100
0000
,
0001
0000
0000
0000
,
0010
0000
1000
0000
,
0010
0000
0000
0000
,
0100
0000
0001
0000
,
0100
0000
0000
0000
,
0010
0000
1000
0000
,
0001
0000
0000
0000
,
0100
0000
0001
0000
,
1000
0000
0000
0000
,
0010
0000
0100
0000
,
0001
0000
0000
0000
,
1000
0000
0010
0000
,
0100
0000
0001
1000
,
0110
0000
0000
0000
;

//--------------- dance-single - XLev450X-BSP ----------------
#NOTES:
     dance-single:
     XLev450X:
     Easy:
     5:
     0,0,0,0,0:
0000
0000
0000
0000
,
0000
0000
0000
0000
,
0000
0000
0000
0000
,
0000
0000
0000
0000
,
0000
0000
0000
0000
,
0001
0000
1000
0000
,
0010
0000
0000
0000
,
0100
0000
0001
0000
,
1000
0000
0000
0000
,
0202
0000
0000
0303
,
2020
0000
0000
3030
,
0220
0000
0000
0330
,
2002
0000
0000
3003
,
0202
0000
0000
0303
,
2020
0000
0000
3030
,
0220
0000
0000
0330
,
2002
0000
0000
0000
,
0000
0000
0000
3003
,
0001
1000
0010
0000
,
0100
0001
1000
0000
,
0100
0000
0010
0000
,
1000
0001
0100
0010
,
1000
0000
0001
0000
,
0100
0010
1000
0000
,
0001
0000
0010
0000
,
0100
0001
1000
0010
,
0100
0000
0001
0000
,
1000
0001
1000
0000
,
0010
0000
0100
0000
,
1000
0010
0100
0000
,
0001
0000
1000
0000
,
0002
0000
0000
0003
,
0020
0030
0200
0300
,
0002
0000
0000
0003
,
1000
0000
0010
0000
,
0100
0000
0001
0000
,
1000
0000
0010
0000
,
0100
0001
1000
0000
,
0010
0000
0100
0000
,
1000
0001
0100
0010
,
2002
0000
0000
3003
,
0010
0000
1000
0000
,
0002
0000
0000
0003
,
0100
0000
0010
0000
,
2000
0000
0000
3000
,
0010
0000
0100
0000
,
0002
0000
0000
0003
,
1000
0000
0010
0000
,
0100
0000
0001
0000
,
0220
0000
0000
0330
,
0001
0000
1000
0000
,
0010
0000
0100
0000
,
0002
0000
0000
0003
,
2000
0000
0000
3000
,
0010
0000
0100
0000
,
0001
1000
0010
0000
,
0100
0000
0001
0000
,
2000
0000
0000
3000
,
0001
0000
1000
0000
,
0010
0100
0001
0000
,
1000
0000
0010
0000
,
0100
0000
0001
0000
,
2000
0000
0000
3000
,
0002
0000
0000
0003
,
0020
0030
0200
0300
,
0002
0003
1000
0001
,
0100
0000
0010
0000
,
1000
0000
0001
0000
,
0010
0000
0100
0000
,
0001
0000
1000
0001
,
0100
0000
0010
0000
,
1000
0000
0010
0100
,
0001
0000
1000
0000
,
0010
0000
0100
0001
,
0220
0000
0000
0000
,
0000
0000
0000
0000
,
0000
0000
0000
0000
,
0000
0000
0000
0000
,
0330
0000
0000
0000
;

//--------------- dance-single - XLev450X-DSP ----------------
#NOTES:
     dance-single:
     XLev450X:
     Medium:
     10:
     0,0,0,0,0:
0000
0000
0000
0000
,
0000
0000
0000
0000
,
0000
0000
0000
0000
,
0000
0000
0000
0000
,
0000
0000
0000
0000
,
0001
0000
1000
0000
0010
0100
0001
0000
,
1000
0000
0010
0100
0001
0000
1000
0010
,
0100
0000
0001
0000
1000
0010
0100
0000
,
0001
0000
0000
0000
1000
0000
0000
0000
0110
0000
0000
0110
0000
0000
0110
0000
,
1001
0000
0101
0000
,
1000
0000
0000
1000
0000
0000
1000
0000
1000
0000
0000
0000
0000
0000
0000
0000
,
0010
0000
0100
0000
,
0001
0000
0000
0001
0000
0000
0001
0000
0001
0000
0000
0000
0000
0000
0000
0000
,
0202
0303
2020
3030
,
0010
0000
0000
0010
0000
0000
0010
0000
0010
0000
0000
0000
0000
0000
0000
0000
,
0110
0000
0000
0101
0000
0000
1010
0000
1001
0000
0000
0000
0000
0000
0000
0000
,
0202
0000
0000
0303
,
1000
0000
0001
0000
1000
0010
0100
0000
,
0001
0000
1000
0000
0100
0001
1000
0000
,
0000
0010
0000
0100
0001
1000
0010
0000
,
0100
0000
0001
0000
1000
0010
0100
1000
,
0000
0001
0000
0100
0010
1000
0001
0000
,
0010
0000
0001
0000
1000
0010
0100
0000
,
0000
0001
0000
0100
0010
1000
0001
0000
,
0100
0000
0001
0000
0010
1000
0010
0100
,
0000
0001
0000
1000
0010
0100
0001
1000
,
0100
0010
0001
1000
,
1000
0000
0010
0000
0000
0001
0000
0000
,
1000
0000
0010
0000
0100
0000
0001
1000
,
0010
0000
0100
0001
0000
0000
0000
0000
,
0010
0000
1000
0000
,
0001
0100
0010
0000
,
1001
0000
0000
0000
0101
0000
0000
0001
,
0010
1000
0110
0000
0000
0000
0001
0000
,
1000
0010
0100
0000
,
0001
1000
0100
0000
,
0001
0000
1000
0000
,
0010
0100
0001
0000
1000
0000
0000
0000
,
0010
1000
0100
0000
,
0001
1000
0010
0100
,
2002
0000
0000
3003
,
0001
0000
0000
1000
0000
0000
0010
0000
2000
0000
0000
0000
3000
0000
0000
0000
,
1001
0000
0110
0000
,
0001
0000
0000
0001
0000
0000
0001
0000
0001
0000
0000
0000
0000
0000
0000
0000
,
1100
0000
0011
0000
,
0010
0000
0000
0010
0000
0000
0010
0000
0010
0000
0000
0000
0000
0000
0000
0000
,
1100
0000
0110
0000
,
1001
0000
0000
1001
0000
0000
1001
0000
1001
0000
0000
0000
0000
0000
0000
0000
,
0110
0000
0000
0110
0000
0000
0110
0000
0110
0000
0000
0000
0000
0000
0000
0000
,
1001
0000
0000
0000
,
1000
0001
0100
0000
,
0001
0000
1000
0000
0010
0100
0000
0000
,
0001
1000
0010
0100
,
0001
0000
1000
0000
,
0010
0100
0001
0000
,
1000
0000
0010
0000
0100
0001
0000
0000
,
0010
1000
0001
0000
,
0100
1000
0010
0000
,
0001
0000
1000
0000
0010
0100
0001
0000
,
0010
0000
0000
1000
0000
0000
0010
0000
,
0100
0001
1000
0000
0010
0000
0100
0000
,
0101
0000
0000
1010
0000
0000
0000
0000
,
0010
0000
0100
0000
0001
1000
0010
0000
,
0100
0001
1000
0000
,
0010
1000
0010
0000
0100
0001
0100
0000
,
0010
0100
0001
0010
1000
0010
0100
0000
,
0001
0000
0100
0000
0001
1000
0010
0100
,
0000
0001
0000
1000
0010
0100
0001
0000
,
1000
0010
0100
0001
,
0000
1000
0000
0010
0100
0000
0001
0000
,
1000
0000
0010
0000
0100
0001
1000
0010
,
0000
0100
0000
0001
1000
0010
0100
0000
,
0001
0000
1000
0000
0010
0100
0001
0000
,
1000
0010
0100
0001
1000
0010
0100
0010
,
2002
0000
0000
0000
,
0000
0000
0000
0000
,
0000
0000
0000
0000
,
0000
0000
0000
0000
,
3003
0000
0000
0000
;

//--------------- dance-single - XLev450X-ESP ----------------
#NOTES:
     dance-single:
     XLev450X:
     Hard:
     14:
     0,0,0,0,0:
0000
0000
0000
0000
,
0000
0000
0000
0000
,
0000
0000
0000
0000
,
0000
0000
0000
0000
,
0000
0000
0000
0000
,
0001
1000
0010
0100
0001
0010
1000
0100
,
0001
0000
1000
0000
0010
0000
0001
0000
0100
0000
0000
0001
0000
0000
1000
0000
,
0010
0100
0001
1000
0010
0100
0001
1000
,
0010
0000
0001
0000
0100
0000
0001
0000
1000
0000
0000
0010
0000
0000
0100
0000
,
0002
0000
0000
0003
2000
0000
0000
3000
,
0010
0000
0000
0010
0000
0000
0010
0000
0200
0000
0000
0000
0000
0000
0300
0000
,
0002
0000
0000
0003
2000
0000
0000
3000
,
0010
0000
0000
0100
0000
0000
0010
0000
2000
0000
0000
0000
0000
0000
3000
0000
,
0002
0000
0000
0003
0200
0000
0000
0300
,
0010
0000
0000
1000
0000
0000
0010
0000
0200
0000
0000
0000
0000
0000
0300
0000
,
0001
0000
0000
0001
0000
0000
0001
0000
2000
0000
0000
0000
3000
0000
0000
0000
,
0220
0000
0000
0330
,
1001
0000
0000
0000
0011
0000
0000
0000
0010
1000
0100
0010
0002
0000
0003
0000
,
0001
1000
0010
0100
0001
1000
0010
0000
,
0010
0001
1000
0000
0010
0100
1000
0000
,
0010
0100
0010
1000
0001
0100
0010
0000
,
1000
0000
0001
0000
0100
0000
0010
0000
0001
0000
0010
0000
0001
0010
0100
1000
,
0010
0010
1000
0001
0010
0100
1000
0000
,
0001
1000
0010
0100
0001
1000
0010
0000
,
0100
0001
1000
0010
0100
0000
0001
0000
,
1000
0000
0010
0000
0100
0000
0001
0000
1000
0000
0100
1000
0010
0100
0001
0100
,
0010
0001
1000
0000
0010
0000
0100
0000
,
0010
0001
1000
0000
0100
1000
0100
0000
,
0010
0001
0100
0010
1000
0010
0001
1000
,
0100
0010
0001
0200
0000
0000
0300
0000
,
0001
0010
1000
0000
0010
0100
0001
1000
,
0010
0000
0100
0001
1000
0010
0100
0000
,
2002
0000
0000
0000
3003
0000
0000
0000
0220
0000
0000
0330
0000
0000
1000
0000
,
0001
0000
0100
0000
2020
0000
0000
0000
0000
3030
0000
0000
0010
0000
0100
0000
,
0001
1000
0010
0001
0000
0100
0000
1000
,
0001
0000
1000
0000
0010
0000
0200
0000
0000
0000
0300
0000
0000
0000
0000
1000
,
0010
0100
0001
1000
0000
0010
0000
0100
,
0001
1000
0010
0200
0000
0300
0001
1000
,
0010
0100
0001
1000
0000
0010
0000
0100
,
0001
0000
1000
0000
0010
0000
0200
0000
0000
0300
0001
0000
0000
0000
1000
0000
,
0020
0000
0000
0000
0000
0030
0000
0000
0200
0000
0000
0000
0300
0000
0000
0000
,
1001
0000
0000
1001
0000
0000
1001
0000
2002
0000
0000
0000
3003
0000
0000
0000
,
0202
0303
2020
3030
,
0010
0000
0000
0010
0000
0000
0010
0000
0010
0000
0000
0000
1000
0000
0010
0000
,
0001
0100
0001
2000
3000
0000
0010
0000
,
2000
0000
3000
0002
0000
0003
0000
0010
,
0100
1000
0010
0001
0010
0000
0100
0000
,
0002
0000
0003
2000
0000
3000
0010
0000
,
0100
0000
0000
0001
0000
0000
0020
0000
,
0000
0030
1000
0001
,
0100
0000
0000
0010
0000
0000
1000
0000
,
0000
0001
0000
0000
0100
1000
0000
0000
,
0001
0000
0100
0010
0000
1000
0000
0001
,
0000
0000
0100
0000
0000
0000
0010
0000
0000
0000
0000
0000
0100
1000
0010
0100
,
0002
0000
0000
0003
0000
0000
0010
0000
1000
0000
0000
0000
0100
0000
0000
0000
,
0010
0000
0000
0000
0000
0000
0000
0000
0000
0000
0000
0000
1000
0000
0000
0000
0000
0000
0000
0000
0000
0000
0000
0000
0001
0000
0000
0000
0000
0000
0200
0000
0000
0000
0000
0000
0000
0000
0000
0300
0000
0000
0000
0000
0010
0000
0000
0000
,
0100
1000
0100
0010
0000
0110
0000
0100
,
0000
0000
0020
0000
0000
0000
0000
0030
0000
0000
1000
0000
0100
0000
0000
0000
,
0001
0000
0100
0000
0010
0000
1000
0000
0001
0000
0200
0000
0000
0300
0000
0000
,
2020
3030
0000
0202
0303
1000
0100
0000
,
0010
0100
0001
1000
0010
0000
0100
0000
,
0202
0303
0000
2020
0000
3030
0000
0010
,
0100
0000
0010
1000
0100
0000
0001
0000
,
0100
0010
1000
0000
0001
0000
0100
0000
,
0001
1000
0010
0100
0001
1000
0010
0100
,
0001
0000
0000
0000
1000
0000
0000
0000
0010
0000
0000
0000
0010
0100
0001
0010
,
0001
1000
0010
1000
0100
0001
1000
0100
,
0000
0000
0010
0000
0000
0000
0001
0000
0010
0000
1000
0000
0100
0000
0001
1000
,
0100
0010
0001
0100
1000
0010
0100
0001
,
0000
0000
1000
0000
0000
0000
0010
0000
1000
0000
0100
0000
0001
0100
1000
0001
,
0010
1000
0100
0010
0001
1000
0010
0100
,
0000
0001
0000
1000
0010
0100
0001
0000
,
1000
0010
0100
0001
1000
0010
0100
1000
,
0001
0000
0100
1000
0100
1000
0010
0100
0001
0010
0100
1000
0001
0100
0001
1000
,
0220
0000
0000
0000
,
0000
0000
0000
0000
,
0000
0000
0000
0000
,
0000
0000
0000
0000
,
0330
0000
0000
0000
;
