#TITLE:GIRIGIRI DADDY;
#ARTIST:Shoichiro Hirata;
#GENRE:R&B;
#MUSIC:GIRIGIRI DADDY.ogg;
#BANNER:GIRIGIRI DADDY.png;
#BACKGROUND:GIRIGIRI DADDY-bg.png;
#CDTITLE:./CDTitles/bm IIDX 4th style.png;
#SAMPLESTART:70.959;
#SAMPLELENGTH:15;
#OFFSET:-0.002;
#BPMS:0=98.087
,114=115
,115=98.087;
#STOPS:114=0.03
,114.333=0.03
,114.667=0.03;
#DISPLAYBPM:98:115;
#BGSTAGE:4;

//--------------- dance-single - XLev450X-bSP ----------------
#NOTES:
     dance-single:
     XLev450X:
     Beginner:
     3:
     0,0,0,0,0:
0000
0000
0000
0000
,
0000
0000
0000
0000
,
0000
0000
0000
0000
,
0000
0000
0000
0000
,
0000
0000
0000
0000
,
0001
0000
1000
0010
,
1000
0000
0100
0001
,
1000
0000
0001
1000
,
1001
0000
0000
0000
,
0010
0010
0010
0000
,
0100
1000
0100
0000
,
0100
0100
0100
0000
,
0010
0001
0010
0000
,
1000
0001
1000
0000
,
0100
1000
0100
0000
,
0010
0001
0010
0000
,
0100
0010
1000
0000
,
0001
1000
0001
0100
,
1000
0010
1000
0000
,
0010
0100
0001
1000
,
0001
0100
0010
0000
,
0010
0001
0010
0000
,
0100
1000
0100
0000
,
1000
0001
0010
0100
,
0001
1000
0010
0000
,
2000
0000
0000
3000
,
0002
0000
0000
0003
,
0200
0000
0000
0300
,
0020
0000
0000
0030
2002
0000
3003
0000
,
0001
0001
0001
0000
,
1000
0100
1000
0000
,
1000
1000
1000
0000
,
0001
0010
0001
0000
,
0100
1000
0001
0100
,
0010
1000
0001
0000
,
0001
1000
0100
0010
,
1000
0001
0010
0000
,
0100
1000
0001
0100
,
1000
0001
0010
0000
,
0100
0010
1000
0010
,
0100
0001
0010
0000
,
1000
0001
1000
0100
,
0010
0000
1000
0100
,
0001
0000
0100
1000
,
0020
0000
0000
0000
0000
0000
0000
0030
;

//--------------- dance-single - XLev450X-BSP ----------------
#NOTES:
     dance-single:
     XLev450X:
     Easy:
     6:
     0,0,0,0,0:
0000
0000
0000
0000
,
0000
0000
0000
0000
,
0000
0000
0000
0000
,
0000
0000
0000
0000
,
0000
0000
0000
0000
,
0001
0000
1000
0000
0010
0100
0001
0010
,
1000
0000
0100
0000
0001
0000
0100
0010
,
1000
0000
0010
0000
0100
0001
0010
0000
,
1000
0000
0000
0000
0001
0000
0000
2002
0000
0000
0000
0000
0000
3003
0000
0000
,
0010
0000
0010
1000
0001
0000
0100
0000
,
1000
0001
0100
0000
0010
0001
1000
0001
,
0100
0000
1000
0000
0010
1000
0100
0001
,
1000
0000
0001
0000
0100
0010
1000
0000
,
0010
0000
1000
0001
0100
0000
1000
0001
,
1000
0010
0100
0001
1000
0000
0010
0000
,
1000
0001
0100
1000
0001
0000
0100
0000
,
0010
0001
1000
0001
1000
0010
0100
0000
,
0001
0000
1000
0000
0001
0000
1000
0010
,
1000
0000
0000
0000
0100
0000
0000
0000
0001
0000
0100
0000
0001
0100
1000
0001
,
0100
0000
0001
0000
1000
0010
1000
0100
,
1000
0000
0001
0000
0100
0001
1000
0010
,
0010
0000
0000
0000
1000
0000
0000
0000
0101
0000
0000
0010
0000
0000
1000
0000
,
0001
0000
0001
0000
1000
0000
0010
0100
,
0001
0000
1000
0000
0001
1000
0010
0100
,
1000
0000
0001
0000
1000
0001
0100
0000
,
2000
0010
0010
3010
,
0002
0100
0100
0103
,
0020
1000
1000
1030
,
0002
0000
0000
0000
0000
0000
0000
0000
0000
0000
0000
0000
0010
0000
0000
0000
0000
0000
0003
0000
0000
0000
0000
0000
1000
0000
0000
0000
0010
0000
0000
0000
0001
0000
0000
0000
0020
0000
0000
0000
0000
0000
0000
0000
0000
0030
0000
0000
,
0001
1000
0010
0000
1000
0100
0001
1000
,
0010
0000
0100
0000
0001
1000
0010
0100
,
0001
0000
1000
0000
0010
0100
0001
0010
,
2002
0000
0000
0000
0000
0000
0000
3003
,
0001
1000
0010
0000
1000
0100
0001
1000
,
0010
0000
1000
0000
0001
0100
0010
0000
,
1000
0000
0001
0000
1000
0010
1000
0100
,
0001
0000
0100
0000
0010
1000
0001
0000
,
0010
0000
0000
0000
0100
0000
0000
0000
1000
0000
0000
0001
0000
0000
1000
0000
,
0010
0000
0010
0000
1000
0001
0100
0010
,
1000
0000
0001
0000
0100
0010
1000
0100
,
0001
0000
1000
0000
0001
0100
0010
0000
,
1000
0000
0000
0000
0001
0000
0000
0000
1000
0000
0000
0010
0000
0000
0100
0000
,
0001
0000
1000
0000
0010
0100
1000
0000
,
0010
0000
0000
0000
0100
0000
0000
0000
0001
0000
0000
1000
0000
0000
0010
0000
,
1000
0000
0000
0001
0000
1000
0000
0010
0000
1000
0000
0002
0000
0000
0003
0000
;

//--------------- dance-single - XLev450X-DSP ----------------
#NOTES:
     dance-single:
     XLev450X:
     Medium:
     9:
     0,0,0,0,0:
0000
0000
0000
0000
,
0000
0000
0000
0000
,
0000
0000
0000
0000
,
0000
0000
0000
0000
,
0000
0000
0000
0000
,
1000
0001
1000
0000
0010
0100
0001
1000
,
0010
1000
0010
0000
0100
0001
1000
0001
,
0100
0010
1000
0000
0001
0010
0100
0000
,
0001
0000
0000
1000
0000
0010
0000
0100
0000
2002
0000
0000
0000
0000
3003
0000
,
0010
1000
0001
0100
0010
1000
0001
0000
,
0100
0000
1000
0000
0001
0000
0010
0000
1000
0000
0001
0000
0001
0010
0001
0000
,
1000
0010
0100
0000
1000
0001
1000
0000
,
1000
0010
1000
0100
0001
0010
1000
0000
,
0010
0000
1000
0001
1000
0010
0100
0000
,
1000
0000
0001
0000
0100
0010
1000
0000
,
0010
0100
0001
0010
1000
0001
0100
0000
,
0001
0000
0000
0000
1000
0000
0000
0001
0000
0000
1000
0000
0010
0000
0000
0000
,
0001
0000
0000
0000
1000
0000
0000
0000
0010
0000
0000
0100
0000
0000
0001
0000
,
1000
0000
0000
0000
0010
0000
0000
1000
0000
0001
0000
0100
0000
0000
0010
0000
,
1000
0000
0000
0000
0001
0000
0000
0000
0100
0000
0000
0010
0000
0000
1000
0000
,
0001
0000
1000
0001
0000
0100
0000
0010
0000
1000
0000
0001
0000
0000
0000
0000
,
0010
0000
0000
0000
1000
0000
0000
0000
0001
0000
0000
0100
0000
0000
0010
0000
,
1000
0000
0000
0000
0001
0000
0000
0000
0100
0000
0000
0001
0000
0000
1000
0000
,
0010
0000
0010
0000
1000
0000
0001
0000
0100
1000
0000
0001
0000
0000
0010
0000
,
1000
0000
0000
0001
0000
0100
0000
0010
0000
1000
0000
0010
0000
0000
0000
0000
,
0002
0000
0000
1000
0000
0000
1003
0000
0000
0000
0010
0000
0100
0000
1000
0000
,
0002
0000
0000
0100
0000
0000
0103
0000
0000
0000
0010
0000
1000
0000
0100
0000
,
2000
0000
0000
0100
0000
0000
3100
0000
0000
0000
0010
0000
1000
0000
0010
0000
,
0200
0000
0000
0000
0000
0000
0000
0000
0000
0010
0000
0000
0000
0000
0000
0000
0000
0000
0310
0000
0000
0000
0000
0000
1000
0000
0000
0000
0001
0000
0000
0000
1000
0000
0000
0000
0020
0000
0000
0000
0000
0000
0130
0000
0000
0000
0000
0000
,
1000
0000
0001
0000
1000
0000
0010
0000
0100
0000
0001
1000
0000
0010
0000
0000
,
0100
0000
0001
0010
0001
0000
1000
0000
0010
0000
0100
0001
0010
0000
0000
0000
,
1000
0000
0001
0100
0010
0000
0000
1000
0010
0000
0100
0000
0001
0000
0010
0000
,
1000
0000
0001
0100
0000
0010
1000
0000
0010
0100
0000
0001
1000
0000
0010
0000
,
0100
0000
0000
0000
0001
0000
0000
0000
1000
0000
0000
0010
0000
0000
0100
0000
,
0001
0000
0000
0000
1000
0000
0000
0010
0000
1000
0000
0001
0000
0000
0100
0000
,
0010
0000
0000
0000
1000
0000
0000
0001
0100
0000
0010
1000
0000
0000
0001
0000
,
1000
0000
0010
0100
0000
0001
0000
1000
0000
0010
0000
0100
0000
0000
0000
0000
,
0001
0000
1000
0000
0010
0000
0100
0000
1000
0000
0010
0100
0000
0000
0001
0000
,
0010
0000
0000
0000
0001
0000
0000
1000
0000
0010
0000
0100
0000
0000
1000
0000
,
0001
0000
0010
0001
0010
0000
1000
0010
1000
0000
0010
0000
0100
0000
0000
0000
,
1000
0000
0000
0001
0000
0100
0000
0010
0000
1000
0000
0010
0000
0100
0001
0000
,
1000
0000
0010
0000
0100
0000
1000
0000
0001
0000
0010
0001
0000
0000
1000
0000
,
0001
0000
0100
0000
0010
0000
1000
0000
0010
0000
1000
0010
0000
0000
0100
0000
,
0001
0000
0000
0000
1000
0000
0000
0000
0001
0000
0000
0100
0000
0000
0010
0000
,
1000
0000
0001
0100
0000
1000
0000
0010
0000
0100
0000
0002
0000
0000
0003
0000
;

//--------------- dance-single - XLev450X-ESP ----------------
#NOTES:
     dance-single:
     XLev450X:
     Hard:
     12:
     0,0,0,0,0:
0000
0000
0000
0000
,
0000
0000
0000
0000
,
0000
0000
0000
0000
,
0000
0000
0000
0000
,
0000
0000
0000
0000
,
0001
0000
0000
1000
0000
0010
0000
1000
0000
0010
0000
0100
0001
0000
1000
0000
,
0001
0000
0000
0000
0100
0000
0010
0000
0000
0000
1000
0000
0000
0000
0001
0000
0000
0000
0010
0000
0000
0000
0001
0100
1000
0000
0010
0000
0100
0000
0000
0000
,
0001
0000
0000
0000
0000
0000
1000
0000
0000
0100
0000
0000
0000
0000
0000
1000
0000
0000
0000
0000
0000
0001
0000
0000
0000
0000
0000
0100
0000
0000
0000
0000
0000
0010
0000
0000
1000
0000
0000
0000
0100
0000
0000
0000
0000
0001
0000
0000
,
1000
0000
0000
0011
0000
1010
0000
1001
0000
0220
0000
0000
0000
0000
0330
0000
,
0001
0000
0010
1000
0010
0000
0100
1000
0000
0010
0001
0100
0001
0000
1000
0000
,
0100
1000
0001
0100
0001
0000
0010
1000
0100
0010
0001
1000
0001
0010
0001
0000
,
0100
0000
1000
0100
1000
0000
0010
1000
0000
0010
0000
0100
1000
0100
1000
0000
,
0001
0000
0000
0000
0000
0000
0010
0000
0000
0100
0000
0000
0000
0000
0000
0010
0000
0000
0000
0000
0000
1000
0000
0000
0000
0000
0000
0001
0000
0000
0000
0000
0000
0100
0000
0000
0001
0000
0000
0000
1000
0000
0000
0000
0000
0001
0000
0000
,
0100
0000
0000
1000
0000
0000
0001
0000
0000
0010
0000
0000
1000
0000
0000
0000
0100
0000
0000
0000
0000
0001
0000
0000
0000
0000
0000
0100
0000
0000
1000
0000
0000
0000
0000
0000
0001
0000
0000
0000
0000
0000
0010
0000
0000
0001
0000
0000
,
0010
0000
1000
0100
0000
0010
0000
1000
0000
0010
1000
0010
0100
0001
1000
0010
,
0100
0000
0001
0010
0000
1000
0000
0001
0000
0100
1000
0000
0010
0001
0000
1000
,
0010
0000
0000
0000
0100
0000
1000
0000
0000
0000
0010
0000
0000
0000
1000
0000
0000
0000
0001
0000
0010
0000
0001
0000
1000
0000
0010
0000
0100
0000
0001
0100
,
1000
0000
0000
0010
1000
0000
0000
0001
1000
0000
0000
0010
0000
0100
0010
1000
,
0100
0000
0001
0010
0000
1000
0000
0100
1000
0100
0010
0001
0010
0000
1000
0001
,
0010
0000
1000
0001
0000
0100
0000
1000
0000
0010
1000
0000
0010
0100
0001
1000
,
0010
0000
1000
0100
0000
0001
0000
1000
0000
0001
0000
0100
0010
0001
0010
0001
,
1000
0000
0100
1000
0010
0000
1000
0010
1000
0000
0001
0000
0100
0000
0010
1000
,
0001
0000
0100
0000
0001
1000
0000
0010
1000
0000
0001
0100
0000
0010
1000
0001
,
0010
0000
1000
0010
1000
0000
0100
0000
1000
0000
0001
0100
0001
0000
1000
0010
,
1000
0000
0000
0000
0010
0000
0100
0000
0000
0000
0001
0000
0000
0000
1000
0000
0000
0000
0010
0000
0001
0000
0010
0000
1000
0000
0001
0000
1000
0000
0001
1000
,
0020
0000
0000
1000
0000
0000
0130
0000
0000
0000
1000
0000
0010
0000
0100
0000
,
2000
0000
0000
0010
0000
0000
3100
0000
0010
0000
0001
0000
0010
0001
0010
0100
,
2000
0000
0000
0001
0000
0000
3100
0000
0010
0000
1000
0000
0010
0000
1000
0001
,
0200
0000
0000
0000
0000
0000
0000
0000
0000
0000
0000
0000
0000
0000
0000
0000
0000
0000
0000
0000
0000
0000
0000
0000
0000
0000
0000
0000
0000
0000
0000
0000
0000
0000
0000
0000
0010
0000
0000
0000
0000
0000
0000
0000
0000
0000
0000
0000
0000
0000
0000
0000
0000
0000
0000
0000
0000
0000
0000
0000
0000
0000
0000
0000
0000
0000
0000
0000
0000
0000
0000
0000
0301
0000
0000
0000
0000
0000
0000
0000
0000
0000
0000
0000
0000
0000
0000
0000
0000
0000
0000
0000
0000
0000
0000
0000
1000
0000
0000
0000
0000
0000
0000
0000
0000
0001
0000
0000
0000
0000
0000
0000
1000
0000
0000
0000
0000
0000
0000
0000
0001
0000
0000
0000
0000
0000
0000
0000
1000
0000
0000
0000
0000
0000
0000
0000
0000
0000
0100
0000
0000
0000
0000
0000
0001
0000
0000
0000
0000
0000
0000
0000
0000
0000
0000
0000
0000
0000
0000
0000
0000
0000
0000
0000
0000
0000
0000
0000
0110
0000
0000
0000
0000
0000
0000
0000
0000
0000
0000
0000
0000
0000
0000
0000
0000
0000
0000
0000
0000
0000
0000
0000
,
0000
0001
0010
0001
1000
0010
0000
0100
1000
0001
0010
0000
1000
0010
0000
0100
,
1000
0000
0001
0000
0100
0000
0010
0000
1000
0000
0001
0000
0100
0000
0010
0000
1000
0000
0010
0000
1000
0100
0001
0000
0100
0000
0010
0000
0000
0000
1000
0000
,
0001
1000
0010
1000
0010
0001
0000
0001
1000
0100
0010
0001
0010
0000
1000
0001
,
0100
0000
0000
0000
1000
0000
0100
0000
0000
0000
1000
0000
0001
0000
0000
0000
0001
0000
0100
0000
0000
0000
1000
0000
0100
0000
0001
0000
0100
0000
1000
0010
,
0001
0000
1000
0000
0010
0000
0000
0001
0000
1000
0001
0000
0100
0000
1000
0010
,
1000
0000
0100
0000
1000
0001
0000
0010
0000
1000
0000
0010
0000
0100
0001
1000
,
0010
0000
0100
1000
0100
0000
0001
0010
0000
1000
0000
0001
0000
1000
0010
0000
,
1000
0000
0001
0010
0000
1000
0000
0001
0100
0000
1000
0010
0000
1000
0001
0000
,
1000
0000
0000
0010
0000
0100
0000
1000
0000
0001
0100
0001
1000
0000
0010
0001
,
0010
0000
0100
1000
0000
0001
0000
0100
0000
1000
0001
0100
0010
1000
0000
0001
,
0100
0000
0010
1000
0001
0000
0010
0001
0000
0100
1000
0000
0001
0000
1000
0000
,
0001
0000
1000
0010
0000
0100
0000
1000
0000
0001
0000
0100
0000
0001
1000
0001
,
1000
0000
0010
1000
0000
0001
0100
1000
0001
0000
1000
0001
0000
0100
0000
0010
,
1000
0000
0001
0100
0000
1000
0000
0001
0000
1000
0000
0010
0100
0001
1000
0010
,
1000
0000
0001
1000
0000
0010
0000
0100
0000
1000
0000
0001
0000
0100
0010
0000
,
1000
0000
0001
0100
0000
0010
0000
1000
0000
0001
0000
0200
0000
0000
0300
0000
;

//--------------- dance-single - XLev450X respects DDRSparksBro2-CSP ----------------
#NOTES:
     dance-single:
     XLev450X respects DDRSparksBro2:
     Challenge:
     13:
     0,0,0,0,0:
0000
0000
0000
0000
,
0000
0000
0000
0000
,
0000
0000
0000
0000
,
0000
0000
0000
0000
,
0000
0000
0000
0000
,
0010
0000
0001
1000
0100
0000
0000
0000
0100
0000
1000
0001
0010
0000
0000
0000
,
0001
0000
1000
0100
1000
0100
0000
1000
0000
0010
0000
0100
0001
0000
0000
0000
,
0011
0000
0001
0010
0100
0000
0000
0000
1100
0000
1000
0001
0100
0000
0000
0000
,
0001
0000
0000
0011
0000
1000
0000
0101
0000
2000
0000
0000
0000
0000
0001
0001
,
3001
0000
1000
0001
0100
0001
0010
0100
1000
0000
0001
0010
0000
0000
0001
0001
,
0010
0100
0010
0100
1000
0100
1000
0001
0000
1000
0100
1000
0001
0000
0100
0000
,
0001
1000
0010
1000
0100
0010
0001
1000
0100
0000
0000
1000
0001
1000
0010
0100
,
0001
0000
0000
0010
0001
1000
0100
1000
0100
0000
0000
1100
0000
0100
0010
0001
,
1001
0000
0010
0001
1000
0000
0000
0001
1000
0000
0010
0001
0010
0001
0000
1000
,
0010
1000
0010
0100
0010
0100
0001
0010
0001
0010
0001
1000
0001
0010
0000
0100
,
1000
0000
0001
0100
0001
0100
0000
0010
0000
1000
0001
1000
0100
1000
0010
0000
,
1000
0000
0001
1000
0001
0100
0010
1000
0100
1000
0010
1000
0100
0010
0000
0000
,
0001
0010
0100
0010
0001
0000
0000
1000
0010
0100
0010
1000
0000
0000
0001
0000
,
0101
0000
0000
0000
0110
0000
0000
1100
0000
0101
0000
1000
0010
0010
0100
0000
,
0110
0000
0000
0000
1001
0000
0000
0001
0010
0001
1000
0100
0000
0000
0010
0000
,
0001
0000
0100
0010
0000
1000
0000
1100
0000
0101
0000
1001
0000
0000
0000
0000
,
1000
0010
0100
0010
1000
0000
0000
0001
0010
0100
0010
0001
0000
0000
1000
0000
,
1100
0000
0000
0000
0110
0000
0000
0101
0000
1100
0000
0001
0010
0010
0100
0000
,
0110
0000
0000
0000
1001
0000
0000
1000
0010
1000
0001
0100
0000
0000
0010
0000
,
1000
0000
0100
0010
0000
0001
0000
0101
0000
1100
0000
1000
0001
0100
0001
0000
,
1000
0000
0000
0100
0000
0000
0010
0000
0001
0000
0100
0000
0001
0000
1000
0000
,
0001
0000
0000
0100
0000
0000
0010
0000
1000
0000
0100
0000
1000
0000
0001
0000
,
1000
0000
0000
0100
0000
0000
1000
0000
0100
0000
1000
0000
0010
0000
0100
0000
,
0001
0000
0000
0000
0000
0000
0000
0000
0000
1000
0000
0000
0000
0000
0000
0000
0000
0000
0100
0000
0000
0000
0000
0000
0010
0000
0000
0000
0001
0000
0000
0000
0100
0000
0000
0000
1001
0000
0000
0000
0000
0000
0001
0000
0000
0000
0000
0000
,
1000
0000
0001
0100
0001
0100
0010
1000
0010
1000
0100
0001
0100
1000
0000
0001
,
1000
0000
0000
0010
0000
0000
1000
0000
0000
0100
0000
0000
0001
0000
0000
0100
0000
0000
1000
0000
0000
0001
0000
0000
1000
0000
0000
0000
0000
0000
0100
0000
0000
0000
0000
0000
1000
0000
0000
0000
0010
0000
0000
0000
0100
0000
0000
0000
,
0001
0000
0100
0000
0001
1000
0000
0100
1000
0100
1000
0001
0010
0001
0000
0000
,
0002
0100
0103
0020
1000
1030
0002
0010
0013
0200
1000
1300
0001
0010
0100
0010
,
0001
0000
0000
0000
1001
0000
0000
0100
1000
0010
0100
0001
0000
0000
0101
0000
,
1001
0000
0000
0000
1100
0000
0000
0101
0000
0100
0000
0001
1000
0010
1000
0000
,
1100
0000
0000
0000
1010
0000
0000
1000
0010
1000
0100
1000
0000
0000
1000
0000
,
0001
0000
0000
0000
0000
0000
0100
0000
0000
0010
0000
0000
0000
0000
0000
1000
0000
0000
0000
0000
0000
1010
0000
0000
0000
0000
0000
0011
0000
0000
0000
0000
0000
0001
0000
0000
1000
0000
0000
0000
0100
0000
0000
0000
1000
0000
0000
0000
,
1001
0000
0000
0000
1010
0000
0000
0010
0100
0001
0010
0001
0000
0000
1100
0000
,
0010
0000
0000
0000
0101
0000
0000
1010
0000
1000
0000
0001
1000
0010
1000
0000
,
0001
0000
1000
0100
0010
0000
0001
0010
0100
0000
1000
0001
1000
0000
0001
0000
,
1000
0000
0100
0010
0000
0001
0000
0011
0000
1010
0000
1000
0001
0100
0001
0000
,
0001
0010
0100
0010
0001
0000
0000
1000
0010
0100
0010
1000
0000
0000
0001
0000
,
0101
0000
0000
0000
0110
0000
0000
1100
0000
0101
0000
1000
0010
0010
0100
0000
,
0110
0000
0000
0000
1001
0000
0000
1000
0010
1000
0001
0100
0001
0000
0010
0000
,
0001
0000
0100
0010
0000
1000
0000
1100
0000
0101
0000
1001
0000
0000
0000
0000
;
