#TITLE:GHOSTS ~Vincent De Moor Mix~;
#SUBTITLE:;
#ARTIST:Tenth Planet;
#TITLETRANSLIT:;
#SUBTITLETRANSLIT:;
#ARTISTTRANSLIT:;
#GENRE:;
#CREDIT:;
#MUSIC:GHOSTS ~Vincent De Moor Mix~.ogg;
#BANNER:GHOSTS ~Vincent De Moor Mix~.png;
#BACKGROUND:GHOSTS ~Vincent De Moor Mix~-bg.png;
#CDTITLE:;
#SAMPLESTART:55.322;
#SAMPLELENGTH:15.000;
#SELECTABLE:YES;
#OFFSET:-0.099;
#BPMS:0.000=139.023;
#STOPS:;
#BGSTAGE:3;
#DISPLAYBPM:139.000;
#BGCHANGES:;
#FGCHANGES:;

//--------------- dance-single - XLev450X-bSP ----------------
#NOTES:
     dance-single:
     XLev450X:
     Beginner:
     2:
     0,0,0,0,0:
0000
0000
0000
0000
,
0000
0000
0000
0000
,
0000
0000
0000
0000
,
0000
0000
0000
0000
,
0000
0000
0000
0000
,
0000
0000
0000
0000
,
0000
0000
0000
0000
,
0000
0000
0000
0000
,
1000
0000
0000
0000
,
0001
0000
0000
0000
,
0100
0000
0000
0000
,
0010
0000
0000
0000
,
1000
1000
1000
0000
,
0001
0001
0001
0000
,
0100
0100
0100
0000
,
0010
0010
0010
0000
,
1000
0000
1000
0000
,
0001
0000
0001
0000
,
0100
0000
0010
0000
,
0100
0000
0010
0000
,
1000
0000
1000
0000
,
0100
0000
0100
0000
,
0001
0000
0001
0000
,
0010
0000
0010
0000
,
1000
1000
1000
0000
,
0100
0100
0100
0000
,
0001
0001
0001
0000
,
0010
0010
0010
0000
,
0100
0100
0100
0000
,
0001
0001
0001
0000
,
1000
1000
1000
0000
,
0010
0010
0010
0000
,
1000
0000
0000
0000
,
0001
0000
0000
0000
,
0100
0000
0000
0000
,
0010
0000
0000
0000
,
1000
0000
0000
0000
,
0001
0000
0000
0000
,
0010
0000
0000
0000
,
0100
0000
0100
0000
,
0001
0000
0001
0000
,
0100
0000
0100
0000
,
1000
0000
1000
0000
,
0010
0000
0010
0000
,
0001
0001
0001
0000
,
0100
0100
0100
0000
,
1000
1000
1000
0000
,
0010
0010
0010
0000
,
0100
0000
0010
0010
,
0010
0000
0001
0001
,
0001
0000
0100
0000
,
1000
0000
0001
0000
,
0100
0000
0010
0010
,
0010
0000
0100
0100
,
0100
0000
0001
0000
,
1000
0000
0100
0100
,
0100
0000
0000
0000
;

//--------------- dance-single - XLev450X-BSP ----------------
#NOTES:
     dance-single:
     XLev450X:
     Easy:
     4:
     0,0,0,0,0:
0000
0000
0000
0000
,
0000
0000
0000
0000
,
0000
0000
0000
0000
,
0000
0000
0000
0000
,
0000
0000
0000
0000
,
0000
0000
0000
0000
,
0000
0000
0000
0000
,
0000
0000
0000
0000
,
2000
3000
0000
0000
,
0002
0003
0000
0000
,
0200
0300
0000
0000
,
0020
0030
0000
0000
,
1000
1000
1000
0000
,
0001
0001
0001
0000
,
0100
0100
0100
0000
,
0010
0010
0010
0000
,
1000
0000
1000
0000
,
0001
0000
0001
0000
,
0100
0000
0010
0000
,
0100
0000
0010
0000
,
1000
0100
1000
0001
,
1000
0100
1000
0001
,
1000
0100
1000
0001
,
1000
0100
1000
0001
,
0100
0010
1000
0001
,
0100
0010
1000
0001
,
0100
0010
1000
0001
,
0100
0010
0100
0010
,
0001
1000
0010
0100
,
0001
1000
0010
0100
,
0001
0000
1000
0000
,
0010
0100
0001
1000
,
2000
3000
0000
0000
,
0002
0003
0000
0000
,
0200
0300
0000
0000
,
0020
0030
0000
0000
,
2000
3000
0000
0000
,
0002
0003
0000
0000
,
0020
0030
0000
0000
,
0200
0300
0100
0100
,
1000
0001
1000
0100
,
1000
0001
1000
0100
,
1000
0001
1000
0100
,
0010
0001
0100
0001
,
1000
0010
1000
0001
,
1000
0010
1000
0001
,
1000
0010
1000
0001
,
0010
0100
1000
0001
,
0100
0000
0010
0010
,
1000
0000
0001
0001
,
0010
0000
0100
0000
,
1000
0000
0001
0000
,
0100
0000
0010
0010
,
1000
0000
0100
0100
,
0010
0000
0001
0000
,
1000
0000
0100
0010
,
0001
0000
0000
0000
;

//--------------- dance-single - XLev450X-DSP ----------------
#NOTES:
     dance-single:
     XLev450X:
     Medium:
     6:
     0,0,0,0,0:
0000
0000
0000
0000
,
0000
0000
0000
0000
,
0000
0000
0000
0000
,
0000
0000
0000
0000
,
0000
0000
0000
0000
,
0000
0000
0000
0000
,
0000
0000
0000
0000
,
0000
0000
0000
0000
,
0020
0000
0000
0030
,
0200
0000
0000
0300
,
0020
0000
0000
0030
,
0200
0000
0000
0300
,
1001
0100
0100
0100
,
1001
0100
0100
0100
,
1001
0100
0100
0100
,
1001
0100
0100
0100
,
1001
0100
1001
0010
,
1001
0100
1001
0010
,
1001
0100
1001
0010
,
1001
0100
0010
1001
,
0100
0000
0010
0000
0001
0000
1000
0100
,
0010
0000
0001
0000
1000
0000
0001
0100
,
0010
0000
1000
0000
0100
0000
0010
0001
,
1000
0000
0010
0000
0001
0000
0010
0100
,
1000
0010
1000
0000
0001
0000
0010
0100
,
1000
0001
0100
0000
1000
0000
0100
0010
,
0001
0100
0010
0000
1000
0000
0001
0010
,
0100
1000
0001
0000
0100
0010
1000
0001
,
0010
0000
1000
0000
0001
0100
0010
1000
,
0001
0000
0100
0000
0010
0001
1000
0010
,
0100
0001
1000
0010
,
0100
1000
0100
0000
0010
0001
0010
0100
,
0020
0000
0000
0000
,
0000
0000
0000
0000
,
0000
0000
0000
0000
,
0000
0000
0000
0030
,
0100
0000
1000
0000
0001
0100
0001
0000
,
1000
0000
0010
0000
0100
0001
0100
0000
,
0010
1000
0001
1000
,
0100
0010
0001
0100
0010
1000
0001
0000
,
1000
0000
0000
0100
0000
0000
0010
0000
0001
0000
0000
0100
0000
0000
0010
0000
,
1000
0000
0000
0001
0000
0000
0100
0000
0001
0000
0000
1000
0000
0000
0100
0000
,
0010
0000
0000
0001
0000
0000
0100
0000
0010
0000
0000
1000
0000
0000
0100
0000
,
0010
0000
0000
0001
0000
0000
1000
0000
0010
0000
0000
1000
0000
0000
0001
0000
,
0100
0000
0000
0010
0000
0000
0010
0000
1000
0000
0000
0100
0000
0000
0100
0000
,
0010
0000
0000
0001
0000
0000
0001
0000
0100
0000
0000
1000
0000
0000
1000
0000
,
0001
0000
0000
0010
0000
0000
0010
0000
0100
0000
0000
0001
0000
0000
0001
0000
,
1000
0000
0000
0010
0000
0000
0010
0000
0001
0000
0000
0010
0000
0000
0100
0000
,
1000
0001
0100
0010
1000
0001
0010
0000
,
0001
1000
0100
0001
0000
0100
1000
0000
,
0001
0100
1000
0100
,
0010
0001
0100
0010
0000
1000
1000
0000
,
0001
0100
0010
1000
0100
0000
0010
0000
,
1000
0010
0100
0001
0010
0000
0100
0000
,
1000
0001
0001
1000
,
0010
0000
0000
0100
0000
0000
0001
0000
0010
0000
0000
0100
0000
0000
1001
0000
,
0110
0000
0000
0000
;

//--------------- dance-single - XLev450X-ESP ----------------
#NOTES:
     dance-single:
     XLev450X:
     Hard:
     12:
     0,0,0,0,0:
0000
0000
0000
0000
,
0000
0000
0000
0000
,
0000
0000
0000
0000
,
0000
0000
0000
0000
,
0000
0000
0000
0000
,
0000
0000
0000
0000
,
0000
0000
0000
0000
,
0000
0000
0000
0000
,
1000
0100
2000
0000
0000
0000
0000
0000
0000
0000
0000
0000
3000
0000
0000
0000
,
0001
0100
0002
0000
0000
0000
0000
0000
0000
0000
0000
0000
0003
0000
0000
0000
,
1000
0010
2000
0000
0000
0000
0000
0000
0000
0000
0000
0000
3000
0000
0000
0000
,
0001
0010
0002
0000
0000
0000
0000
0000
0000
0000
0000
0000
0003
0000
0000
0000
,
1000
0000
0000
0100
0000
0010
0001
0000
0100
0000
0000
0010
0000
1000
0100
0000
,
0010
0000
0000
0001
0000
0100
0010
0000
1000
0000
0000
0001
0000
0010
0100
0000
,
1000
0000
0000
0010
0000
0100
0001
0000
0010
0000
0000
0100
0000
1000
0001
0000
,
0100
0000
0000
0010
0000
1000
0100
0000
0010
0000
0000
0001
0000
1000
0010
0000
,
0100
0000
0000
0001
0000
1000
0010
0000
0100
0000
0000
0001
0000
0010
0100
0000
,
1000
0000
0000
0001
0000
0010
0100
0000
1000
0000
0000
0010
0000
0100
0001
0000
,
0010
0000
0000
0100
0000
1000
0010
0000
0100
0000
0000
0001
0000
0010
0100
0000
,
1000
0000
0000
0001
0000
0100
0010
0000
1000
0000
0000
0100
0000
0010
0100
0000
,
2000
0000
0000
0001
0000
0000
0001
0000
0000
0000
0000
0001
3000
0000
0001
0000
,
0020
0000
0000
0100
0000
0000
0100
0000
0000
0000
0000
0100
0030
0000
0100
0000
,
2000
0000
0000
0010
0000
0000
0010
0000
0000
0000
0000
0010
3000
0000
0010
0000
,
0200
0000
0000
0001
0000
0000
0001
0000
0000
0000
0000
0001
0300
0000
0001
0000
,
0020
0000
0000
0100
0030
0000
0001
0000
2000
0000
0000
0010
3000
0000
0001
0000
,
0200
0000
0000
1000
0300
0000
0001
0000
0020
0000
0000
1000
0030
0000
0001
0000
,
0200
0000
0000
0010
0300
0000
0001
0000
2000
0000
0000
0100
3000
0000
0001
0000
,
0020
0000
0000
0100
0030
0000
0001
0000
0100
0000
0000
0010
0000
0000
1001
0000
,
0010
1000
0001
0100
0010
1000
0001
0000
,
0100
0010
0001
1000
0010
0100
1000
0000
,
0001
0100
0010
1000
0001
0100
0010
0000
,
0010
0000
1000
0000
0001
0000
0100
0000
0001
0010
0100
0010
0001
0100
0001
1000
,
0200
0000
0000
0300
,
0020
0000
0000
0030
,
0002
0000
0000
0003
,
0200
0000
0000
0300
,
0010
1000
0010
1000
0010
0000
0000
0000
0100
0010
0100
0010
0100
0000
0000
0000
,
0001
0100
0001
0100
0001
0000
0000
0000
0010
0100
0010
0100
0010
0000
0000
0000
,
1000
0010
1000
0010
1000
0000
0000
0000
0100
0001
0100
0001
0100
0000
0000
0000
,
0010
0100
0010
0100
0010
0100
0010
0100
0001
1000
0001
1000
0001
1000
0001
0000
,
0010
0000
0000
0100
0000
1000
0010
0000
0100
0000
0000
0001
0000
1000
0100
0000
,
0010
0000
0000
0001
0000
0100
0010
0000
1000
0000
0000
0001
0000
0010
0100
0000
,
1000
0000
0000
0010
0000
0100
0001
0000
0010
0000
0000
0100
0000
1000
0001
0000
,
0100
0000
0000
0010
0000
1000
0100
0000
0010
0000
0000
0001
0000
1000
0100
0000
,
0010
0000
0000
0001
0000
0100
0010
0000
1000
0000
0000
0100
0000
0010
0001
0000
,
1000
0000
0000
0010
0000
0100
0001
0000
1000
0000
0000
0100
0000
0010
0001
0000
,
0100
0000
0000
0010
0000
1000
0001
0000
0010
0000
0000
0100
0000
1000
0010
0000
,
0100
0000
0000
0001
0000
1000
0100
0000
0010
0000
0000
0001
0000
0100
0001
0000
,
2000
0000
0000
0100
0000
0000
0100
0000
0000
0000
0000
0001
3000
0000
0001
0000
,
0200
0000
0000
0010
0000
0000
0010
0000
0000
0000
0000
1000
0300
0000
1000
0000
,
0020
0000
0000
0001
0000
0000
0001
0000
0000
0000
0000
0100
0030
0000
0100
0000
,
0002
0000
0000
0100
0000
0000
0100
0000
0000
0000
0000
1000
0003
0000
1000
0000
,
0020
0000
0000
0100
0030
0000
0100
0000
0002
0000
0000
0100
0003
0000
0100
0000
,
2000
0000
0000
0010
3000
0000
0010
0000
0200
0000
0000
0010
0300
0000
0010
0000
,
0002
0000
0000
1000
0003
0000
0100
0000
0020
0000
0000
0100
0030
0000
0001
0000
,
0100
0000
0000
0010
0000
1000
0001
0000
0010
0000
0000
0100
0000
1000
0001
0000
,
0110
0000
0000
0000
;

//--------------- dance-single - XLev450X-CSP ----------------
#NOTES:
     dance-single:
     XLev450X:
     Challenge:
     15:
     0,0,0,0,0:
0000
0000
0000
0000
,
0000
0000
0000
0000
,
0000
0000
0000
0000
,
0000
0000
0000
0000
,
0000
0000
0000
0000
,
0000
0000
0000
0000
,
0000
0000
0000
0000
,
0000
0000
0000
0000
,
0020
0000
0030
0000
,
0022
0000
0033
0000
,
2020
0000
3030
0000
,
2002
0000
3003
0000
,
0010
0000
0000
1000
0000
0100
0010
0000
0001
0000
0000
0100
0000
0010
1000
0000
,
0100
0000
0000
0010
0000
0001
0100
0000
0010
0000
0000
1000
0000
0100
0010
0000
,
0001
0000
0000
0100
0000
0010
1000
0000
0001
0000
0000
0010
0000
0100
1000
0000
,
0001
0000
0000
0100
0000
0010
1000
0000
0001
0000
0000
0010
0000
0100
1000
0000
,
0010
0000
0000
1000
0000
0100
0010
0000
0001
0000
0000
1000
0000
0100
0010
0000
,
0001
0000
0000
1000
0000
0010
0100
0000
0001
0000
0000
1000
0000
0010
0100
0000
,
0001
1000
0001
0100
0000
0010
1000
0000
1000
0001
1000
0100
0000
0010
0001
0000
,
0010
0001
0010
0001
1000
0100
1000
0100
0010
0001
0100
0010
0000
1000
0001
0000
,
1001
0000
0000
1000
0000
0001
0100
0000
0010
0000
0000
1000
0000
0010
0100
0000
,
0001
0000
0000
0010
0000
0001
0100
0000
0010
0000
0000
1000
0000
0010
0100
0000
,
0010
0000
0000
1000
0000
0100
0010
0000
0001
0000
0000
0010
0000
0100
1000
0000
,
0010
0000
0000
0100
0000
0001
0010
0000
0100
0000
0000
1000
0000
0010
0100
0000
,
0010
0000
0000
1000
0000
1000
0100
0000
0010
0000
0000
0001
0000
0001
0100
0000
,
0010
0000
0000
1000
0000
1000
0100
0000
0010
0000
0000
0001
0000
0001
1000
0000
,
0010
0000
0000
0100
0000
0100
0001
0000
0010
0000
0000
0010
0000
0010
1000
0000
,
0010
0000
0000
0100
0000
0100
0010
0000
0010
0000
0000
0001
0000
0001
0010
0000
,
0100
1000
0100
1000
0100
0000
0000
0000
0001
0100
0001
0100
0001
0000
0000
0000
,
1000
0100
1000
0000
1001
0000
0001
0000
1000
0001
0100
0001
0100
0001
1000
0000
,
0001
0100
0010
0000
1001
0000
0100
0000
0001
1000
0100
1000
0100
1000
0001
0100
,
0001
0010
0100
1000
0001
0010
0100
1000
0010
0100
0001
1000
0010
0100
0001
1000
,
0020
0000
0030
0000
,
2000
0000
0000
0010
0000
0000
0010
0000
3100
0000
0000
0001
0000
0000
0001
0000
,
0020
0000
0000
0100
0000
0000
0100
0000
1030
0000
0000
0010
0000
0000
0010
0000
,
0200
0000
0000
0001
0000
0000
0001
0000
0310
0000
0000
0100
0000
0000
1000
0000
,
0100
1000
0100
1000
0000
0001
0010
0000
0100
1000
0100
1000
0000
0001
0100
0000
,
0001
0010
0001
0010
0000
0010
0100
0000
0001
0010
0001
0010
0000
0010
1000
0000
,
0001
1000
0100
1000
0001
1000
0100
1000
0001
0010
0100
0010
0001
0010
0100
0010
,
0001
1000
0001
1000
0010
0100
0010
1000
0001
1000
0001
0010
0000
0100
1000
0000
,
2100
0000
0000
0100
0000
0000
0100
0000
0000
0000
0000
0010
0000
0000
0010
3000
,
0200
0000
0000
0001
0000
0000
0001
0000
0000
0000
0000
0010
0000
0000
0010
0300
,
2000
0000
0000
0010
0000
0000
0010
0000
0000
0000
0000
0001
0000
0000
0001
3000
,
0020
0000
0000
0100
0000
0000
0100
0000
0000
0000
0000
0001
0000
0000
0001
0030
,
0200
0000
0000
0010
0000
0000
0001
0300
0020
0000
0000
1000
0000
0000
0031
0000
,
0200
0000
0000
1000
0000
0000
0010
0300
2000
0000
0000
0100
0000
0000
0001
3000
,
0200
0000
0000
0010
0000
0000
0301
0000
0200
0000
0000
0010
0000
0000
0010
0300
,
1000
0000
0000
0001
0000
0010
0100
0000
1000
0000
0000
0010
0000
1000
0100
0000
,
0020
0000
0030
0200
0000
0300
0200
0000
,
0300
0020
0000
0030
0200
0300
0200
0000
,
0310
0000
0000
0001
0000
1000
0010
0000
0100
0000
0000
0001
0000
0010
0100
0000
,
1000
0000
0000
0010
0000
0100
0001
0000
0010
0000
0000
0100
0000
1000
0010
0000
,
0100
0000
0000
0001
0000
0001
0010
0000
0100
0000
0000
1000
0000
1000
0010
0000
,
0100
0000
0000
0001
0000
0001
0100
0000
0010
0000
0000
0010
0000
0010
0001
0000
,
1000
0000
0010
0000
0010
0000
1000
0000
1000
0000
0000
0001
0000
0100
0010
0000
,
1000
0000
0000
0100
0000
0010
0001
0000
0100
0000
0000
0010
0000
1000
0001
0000
,
0110
0000
0000
0000
;
