#TITLE:GET UP AGAIN;
#ARTIST:Zekk feat. くらべ;
#ARTISTTRANSLIT:Zekk feat. kurabe;
#GENRE:COMPETITIVE DRUMSTEP;
#BANNER:GET UP AGAIN.png;
#BACKGROUND:GET UP AGAIN-bg.png;
#CDTITLE:./CDTitles/bm IIDX 30 RESIDENT.png;
#MUSIC:GET UP AGAIN.ogg;
#SAMPLESTART:45.167;
#SAMPLELENGTH:15;
#BPMS:0=180;

//--------------- dance-single - バツ-bSP ----------------
#NOTES:
     dance-single:
     バツ:
     Beginner:
     3:
     0,0,0,0,0:
0000
0000
0000
0000
,
0000
0000
0000
0000
,
0000
0000
0000
0000
,
0000
0000
0000
0000
,
0000
0000
0000
0000
,
0000
0000
0000
0000
,
1000
0000
0001
0000
,
0100
0000
0010
0000
,
1001
0000
0000
0000
,
0110
0000
0000
0000
,
0001
0000
0000
0000
,
0010
0000
0000
0000
,
0100
0000
0000
0000
,
1000
0000
0000
0000
,
0100
0000
0000
0000
,
0010
0000
0000
0000
,
0001
0000
0000
0000
,
0000
0000
0000
0000
,
1000
0000
0010
0000
,
0100
0000
0000
0000
,
0001
0000
1000
0000
,
0010
0000
0000
0000
,
1000
0000
0010
0000
,
0100
0000
0000
0000
,
0001
0000
1000
0000
,
0010
0000
0000
0000
,
0100
0000
1000
0000
,
0001
0000
0000
0000
,
1000
0000
0001
0000
,
1000
0000
0000
0000
,
0010
0000
0100
0000
,
1000
0000
0000
0000
,
0001
0000
0100
0000
,
0010
0000
0000
0000
,
1001
0000
0001
0000
,
1000
0000
0010
0000
,
0100
0000
0001
0000
,
1000
0000
0000
0000
,
1000
0000
0001
0000
,
0100
0000
0010
0000
,
1000
0000
0000
0000
,
0001
0000
0000
0000
,
0010
0000
1000
0000
,
0001
0000
0100
0000
,
0010
0000
0000
0000
,
1000
0000
0000
0000
,
0001
0000
1000
0000
,
0010
0000
0100
0000
,
0001
0000
0000
0000
,
1000
0000
0000
0000
,
0010
0000
1000
0000
,
0010
0000
0000
0000
,
0100
0000
0001
0000
,
0100
0000
0000
0000
,
1000
0000
0010
0000
,
1000
0000
0000
0000
,
0100
0000
0001
0000
,
1000
0000
0000
0000
,
0010
0000
0000
0000
,
1000
0000
0000
0000
,
0100
0000
0000
0000
,
0001
0000
0000
0000
,
1000
0000
0000
0000
,
0010
0000
0000
0000
,
0100
0000
0000
0000
,
0001
0000
0000
0000
,
1000
0000
0001
0000
,
0100
0000
0000
0000
,
1000
0000
0010
0000
,
0100
0000
0000
0000
,
1001
0000
0000
0000
,
0000
0000
0000
0000
,
1000
0000
0001
0000
,
0100
0000
0000
0000
,
0010
0000
0001
0000
,
1000
0000
0000
0000
,
0100
0000
0010
0000
,
1000
0000
0000
0000
,
0001
0000
0100
0000
,
0010
0000
0000
0000
,
1000
0000
0000
0000
,
0000
0000
0000
0000
,
0000
0000
0000
0000
,
0000
0000
1001
0000
;

//--------------- dance-single - バツ-BSP ----------------
#NOTES:
     dance-single:
     バツ:
     Easy:
     6:
     0,0,0,0,0:
0000
0000
0000
0000
,
0000
0000
0000
0000
,
0000
0000
0000
0000
,
0000
0000
0000
0000
,
0000
0000
0000
0000
,
0000
0000
0000
0000
,
1000
0000
0001
0000
,
0100
0000
0010
0000
,
1000
0001
0100
0010
,
0000
0000
1001
0000
,
0010
0000
1000
0000
,
0001
0000
0100
0000
,
0010
0000
1000
0000
,
0100
0001
1000
0000
,
0010
0000
0000
0000
,
1000
0000
0000
0000
,
0202
0000
0000
0000
,
0000
0303
0200
0000
,
0300
0010
1000
0001
,
1000
0000
0010
0000
0100
0001
0100
0000
,
0010
0000
1000
0000
,
0010
0000
0100
0000
0001
0010
0001
0000
,
1000
0000
0000
0000
,
0001
0000
0100
0000
,
0010
1000
0001
0000
,
0200
0000
0300
0000
,
1001
0000
0000
0000
,
0001
0000
0100
0000
,
0010
0000
0000
0000
,
1000
0000
0001
0000
,
1000
0001
0100
0000
,
0010
1000
0001
0000
,
0100
0000
0000
0000
0010
0000
0000
0002
,
0000
0000
0000
0003
0000
0000
0000
2000
,
0000
3000
0010
0100
,
0001
0000
1000
0000
,
0010
1000
0001
0000
,
0100
0000
0010
0000
,
0001
1000
0010
0000
,
0100
0000
1000
0000
,
0001
0100
0010
1000
,
0001
0000
0000
0000
,
0001
0000
1000
0000
,
0010
0100
1000
0000
,
0001
0000
1000
0000
,
0010
0000
0100
0000
,
0001
1000
0010
0000
,
0100
0000
0001
0000
,
1000
0000
0000
0000
0010
0000
0000
0002
,
0000
0000
0000
0003
,
1000
0000
0000
0000
0001
0000
0000
0100
,
0000
0000
1000
0000
0000
0001
0000
0000
,
0010
0000
1000
0001
0100
0000
0000
0010
,
0000
0000
1000
0000
0000
0001
0000
0000
,
0100
0000
0001
0000
0100
0000
0000
0010
,
0000
0000
1000
0000
0000
0100
0000
0000
,
0001
0000
0000
0000
1000
0000
0000
0020
,
0000
0000
0000
0030
,
0100
0000
0001
0000
,
1000
0000
0010
0001
,
1000
0000
0010
0000
,
0100
0000
0010
0000
,
1000
0001
0100
0000
,
0001
0000
1000
0000
,
0010
0000
1000
0000
,
0001
0000
0100
0000
,
0001
0000
1000
0000
0010
0100
0001
0000
,
1000
0000
0010
0000
1000
0001
0100
0000
,
0010
0000
1000
0000
0010
1000
0010
0000
,
0100
0000
0001
0000
,
0010
0001
0010
0000
1000
0000
0000
0000
,
0001
0000
0100
0000
0010
0000
0000
1000
,
0000
0001
0100
0010
,
1000
0000
0001
0100
,
0010
0000
0001
0000
1000
0001
1000
0000
,
0010
0100
0001
0000
,
1000
0000
0010
0000
,
0100
0000
0001
0000
,
1000
0000
0000
0000
0010
0000
0100
0002
,
0000
0000
0000
0003
,
1001
0000
0000
0000
,
0000
0000
0000
0000
,
0000
0000
0000
0000
,
0000
0000
0000
0000
0010
0010
0010
0010
;

//--------------- dance-single - バツ-DSP ----------------
#NOTES:
     dance-single:
     バツ:
     Medium:
     10:
     0,0,0,0,0:
0000
0000
0000
0000
,
0000
0000
0000
0000
,
0000
0000
0000
0000
,
0000
0000
0000
0000
,
0000
0000
0000
0000
,
0000
0000
0000
0000
,
0001
0000
1000
0000
0010
0100
0001
0000
,
0010
0001
0010
0000
1000
0010
0100
0000
,
0001
0000
0100
0000
0010
0000
1000
0000
0100
0000
0001
0000
0100
0000
0001
1000
,
0000
0100
0000
0001
0200
0300
0010
1000
,
0001
0000
0010
0000
0100
0000
1000
0000
0010
0000
0000
0001
0000
0000
2000
0000
,
0000
0000
3000
0000
0110
1000
0001
1000
,
0010
0000
0001
0000
0010
0000
0100
0000
1000
0000
0000
0010
0000
0000
0200
0000
,
0000
0000
0000
0000
0000
0000
0300
0000
0010
0000
0000
0100
0000
0000
1000
0000
,
0200
0000
0000
0000
0000
0300
0010
0100
,
0000
0000
0000
0001
0100
1000
0001
0000
,
0202
0000
0000
0000
,
0000
0000
0303
0000
0010
1000
0100
0000
,
0001
0000
1000
0000
0010
0100
0001
0000
,
0010
0000
1000
0000
0010
1000
0010
0000
,
0010
0001
0010
0000
0100
0010
0100
0000
,
1000
0100
1000
0000
0010
0001
0010
0000
,
1000
0000
0010
0000
0000
0100
0001
0000
,
0010
1000
0010
0100
,
0001
0010
0001
0000
1000
0010
0100
0000
,
0001
0000
1000
0000
,
0010
0000
0100
0001
,
0100
0000
1000
0010
,
1000
0000
0100
0000
,
0001
1000
0010
0100
,
0001
0000
0100
0001
1000
0000
0100
0000
,
0010
0000
1000
0100
0001
0000
0010
0000
,
0100
1000
0001
0010
1000
0001
0010
0200
,
0000
0000
0300
1000
0001
1000
0010
2000
,
0000
0000
3001
0010
0001
0000
1000
0000
0100
0000
0000
0000
0001
0000
0000
0000
,
0010
0001
0010
0000
1000
0010
1000
0000
,
0010
0000
0100
0000
0010
0100
0010
0000
,
0010
0001
0010
0000
1000
0010
1000
0000
,
0010
0000
0100
0000
0001
0000
0010
0001
,
0000
1000
0000
0001
0010
0000
0100
0000
,
0001
0100
0001
0000
1000
0000
0010
1000
,
0000
0000
0000
0000
0001
0000
0000
0100
,
0000
0001
0100
0000
0010
0001
0010
0000
,
1000
0010
1000
0000
0100
0010
0100
0000
,
0010
0001
0010
1000
0001
0000
0100
0000
,
0010
0100
0010
0000
1001
0000
0000
0000
,
1000
0000
0001
1000
0001
0000
0100
0000
,
0010
1000
0010
0000
0100
0000
0010
0000
,
1000
0000
0001
0100
0010
0000
1000
0002
,
0000
0000
0000
0003
,
0001
0000
1000
0100
0010
0000
0000
0110
,
0000
0000
1001
0000
0000
1010
0000
0000
,
0010
0000
0100
0001
1000
0000
0000
1010
,
0000
0000
0110
0000
0000
1001
0000
0000
,
0001
0000
0100
0010
0001
0000
1000
0010
,
0000
0000
0100
0000
0001
0000
0000
0000
0100
0000
0010
0000
0000
0001
0100
0000
,
1000
0000
0001
0100
0010
0000
1000
0002
,
0000
0000
0000
0003
,
0110
0000
0001
0000
1000
0010
0000
0100
,
0000
0000
0000
0000
0000
0001
1000
0010
,
0100
0000
0001
0000
1000
0000
0001
0100
,
0000
0000
0000
0000
0000
0001
1000
0000
,
0010
0001
0010
0000
1000
0000
0010
0000
,
0100
0000
0010
0000
1000
0001
0100
0000
,
0010
0000
1000
0000
0001
0000
0100
0010
,
0000
0000
0000
0000
1001
0000
0000
0110
,
0000
0000
0001
0010
0001
0000
0000
0000
1000
0000
0000
0000
0001
0000
0000
0000
,
0100
0010
0001
0000
1000
0000
0001
0000
,
0100
0010
1000
0000
0001
0000
0100
0000
,
0010
0001
0010
0000
1000
0000
0001
0000
,
0100
0000
0001
0000
,
1000
0000
0010
0000
0100
0001
0000
0002
,
0000
0000
1003
0100
1000
0000
0001
0000
0010
0000
0000
0000
1000
0000
0000
0000
,
0100
1000
0100
0000
0001
0100
0001
0000
,
0100
0000
0010
0000
0100
0010
0100
0000
,
0100
1000
0100
0000
0001
0100
0001
0000
,
0100
0000
0010
0000
1000
0000
0100
1000
,
0000
0001
0000
1000
0100
0000
0010
0000
,
1000
0010
1000
0000
0001
0000
0100
0002
,
0000
0000
0000
0003
1000
0001
0100
0010
,
2000
0000
0000
0000
,
0000
0000
0000
0000
,
0000
0000
0000
0000
,
0000
0000
3000
0000
0001
1000
0001
1000
;

//--------------- dance-single - バツ-ESP ----------------
#NOTES:
     dance-single:
     バツ:
     Hard:
     14:
     0,0,0,0,0:
0000
0000
0000
0000
,
0000
0000
0000
0000
,
0000
0000
0000
0000
,
0000
0000
0000
0000
,
0000
0000
0000
0000
,
0000
0000
0000
0000
,
0001
1000
0010
0100
0001
0000
0010
0000
,
1000
0010
0100
0000
0001
0000
1000
0000
,
0001
0100
0010
1000
0001
0100
0010
1000
,
0000
0000
0001
0000
0000
0000
0100
0000
0010
0000
0000
0000
1000
0001
1000
0000
,
0100
0000
0010
0000
1000
0000
0001
0000
0100
0000
0000
0010
0000
0000
1000
0000
,
0000
0000
0001
0000
0000
0000
1000
0000
0010
0000
1000
0001
1000
0000
0100
0000
,
0001
0000
0100
0000
0010
0000
1000
0000
0001
0000
0000
0100
0000
0000
0010
0000
,
0000
0000
0001
0000
0000
0000
1000
0001
1000
0000
0000
0100
0000
0000
0020
0000
,
0000
0000
0000
0000
0000
0000
0000
0000
0030
0000
0100
0000
0010
1000
0002
0000
,
0000
0000
0003
0000
0000
0000
1000
0001
0100
0000
0010
0000
0100
0000
0010
0000
,
2000
0000
0000
0002
0000
0000
0000
0000
,
0000
0000
0000
0000
0000
3003
0000
0000
0100
1000
0001
1000
0001
0000
0100
0000
,
0020
0030
0002
0003
0100
0010
1000
0000
,
0010
0001
1000
0010
0000
0101
1100
0000
,
0101
0000
1010
0000
0010
0100
0001
1000
,
0000
0000
0010
0000
0100
0000
0001
0000
1000
0000
0000
0010
0000
0000
0100
0000
,
0000
0001
1000
0010
0000
0100
0001
1000
,
0000
0010
0001
1000
0010
0100
0001
0000
,
1000
0000
0001
0100
0000
0010
1000
0000
,
2002
0000
0000
0000
0000
0000
0000
3003
,
0010
0000
0000
1000
0001
0000
1000
0000
,
0010
0100
0000
1000
0010
0001
0000
0001
,
2000
0000
0000
0000
3000
0000
0000
0000
0100
0001
0100
0000
1000
0100
0000
0000
,
0001
0100
0010
1000
0001
0000
0100
0000
,
1000
0000
0001
0100
0000
0010
0001
0000
,
1000
0010
0000
0100
0010
0000
1000
0000
,
0001
0100
0010
1000
0001
0100
0010
0200
,
0000
0000
0000
0000
0300
0000
1010
0000
0001
0010
0001
0010
0001
1000
0200
0000
,
0300
0000
0001
1000
0001
0000
0010
0000
1000
0000
0000
0000
0001
0000
0000
0000
,
0010
0001
0010
0000
1000
0010
0100
0000
,
0010
0100
0001
1000
0010
0100
0001
1000
,
0000
0010
0000
0100
0001
1000
0000
0001
,
0100
0001
0000
0010
0100
0000
0001
1000
,
0000
0010
0000
0100
0000
0010
0001
0010
,
1000
0000
0010
0000
0100
0001
1000
0200
,
0000
0000
0000
0300
0001
0000
0000
1000
,
0000
0000
0010
1000
0001
0000
0100
0000
0010
0000
0000
0000
0010
0000
1000
0000
,
0001
0000
0100
0000
0010
0001
0010
1000
,
0010
0000
0100
0000
1000
0000
0010
0100
,
0000
1000
0001
2000
0000
0000
3000
0000
,
0001
0010
0000
1000
0010
0000
0010
0001
,
0000
0010
0100
0010
0001
0000
1000
0000
,
0010
0100
0001
1000
0010
0100
0001
2000
,
0000
0000
0000
0000
0000
0000
0000
0000
0000
0000
3000
0000
0001
0010
0001
0000
,
0100
0000
0001
1000
0010
0000
0001
0010
,
0000
1000
0010
0000
0100
0010
0000
1000
,
0001
0000
0100
0010
1000
0000
0001
0100
,
0000
0010
1000
0000
0001
0100
0000
0010
,
1000
0000
0001
0010
0001
0000
1000
0010
,
0000
0100
0010
0000
1000
0010
0000
0100
,
0001
0000
1000
0010
0100
0001
1000
0020
,
0000
0000
0000
0130
,
0010
0000
0001
0000
1000
0010
0000
0200
,
0000
0000
0000
0300
0000
1000
0100
0000
,
0001
0000
0100
0000
0010
0001
0010
2000
,
0000
0000
3000
0000
0000
0100
0010
0001
,
1000
0001
0100
0000
0010
0000
0001
0000
,
0100
0000
0000
0000
0010
0000
0000
0000
1000
0000
0000
0001
0000
0000
0010
0000
,
1000
0000
0001
0000
0010
0100
0010
2000
,
0000
0000
0000
3000
0010
0000
0001
1000
,
0000
0000
0010
0100
0010
0000
0000
0000
1000
0000
0000
0000
0001
0000
0000
0000
,
0010
0001
0010
0000
1000
0010
0100
0000
,
0001
0000
1000
0000
0010
0100
0001
1000
,
0000
0010
0100
0000
0001
0000
1000
0000
,
0010
0000
1000
0000
,
0010
0000
0000
0000
0100
0000
0000
0000
0001
0010
1000
0001
1000
0000
0200
0000
,
0300
0000
0001
1000
0001
0000
0010
0000
1000
0000
0000
0000
0001
0000
0000
0000
,
0010
0001
0010
0000
1000
0010
0100
0000
,
0010
0100
0001
1000
0010
0100
0001
1000
,
0000
0010
0001
0100
0000
1001
0000
0000
,
0100
0001
1000
0010
0100
0000
0001
1000
,
0000
0010
0000
0100
0000
0010
0001
0000
,
0001
0010
0100
1000
0100
0000
0001
0100
0010
1000
0001
0100
0010
1000
0200
0000
,
0000
0000
0000
0000
0000
0000
0300
0000
0010
0001
0010
0000
0100
0000
0000
0000
,
2002
0000
0000
0000
,
0000
0000
0000
0000
,
0000
0000
0000
0000
,
0000
0000
0000
3003
1001
1001
1001
1001
;

//--------------- dance-single - バツ-CSP ----------------
#NOTES:
     dance-single:
     バツ:
     Challenge:
     15:
     0,0,0,0,0:
0000
0000
0000
0000
,
0000
0000
0000
0000
,
0000
0000
0000
0000
,
0000
0000
0000
0000
,
0000
0000
0000
0000
,
0000
0000
0000
0000
,
1000
0000
0001
0000
0100
0001
0010
0000
1000
0000
0001
0000
0100
0010
1000
0000
,
0010
0000
0001
0000
1000
0100
0010
0000
0100
0000
0001
0000
1000
0001
0010
0000
,
0001
1000
0100
0010
0000
1000
0001
0100
,
0000
0000
1000
0100
0001
0010
0100
1000
0020
0000
1030
0000
0001
0000
1000
0000
,
0010
0000
0100
0000
0001
0000
0000
0000
1000
0000
0001
1000
0000
0000
0100
0000
,
0000
0000
0010
1000
0001
0000
0010
0001
1000
0000
0010
0000
0100
0000
1000
0000
,
0100
0000
0001
0000
0100
0000
0010
0000
1000
0000
0001
0100
0000
0000
0100
0000
,
0000
0000
0010
1000
0001
0000
0100
0000
1000
0100
0001
0000
0100
0000
0002
0000
,
0000
0000
1000
0000
0010
0003
0100
2000
,
0000
0000
0000
0000
3000
0000
1000
0001
0010
0000
1000
0000
0100
0000
0001
0000
,
2002
0000
0000
0000
,
0000
0000
0000
0000
3003
0000
0000
0000
0100
1000
0010
1000
0001
1000
0001
0010
,
0001
0000
0000
0000
1000
0100
0001
1000
0100
0000
0010
0000
0001
0000
0100
0000
,
1000
0000
0010
0000
0100
0000
0000
0000
0001
0000
1000
0000
0001
0100
0001
1000
,
0010
0000
0100
0000
1000
0000
0010
0000
0001
0000
0100
0000
0001
1000
0010
1000
,
0010
0000
0001
0000
0010
0100
1000
0001
0100
0000
0001
0000
1000
0000
0100
0001
,
0010
0100
0010
0001
1000
0001
0100
0010
,
0000
0000
1000
0010
1000
0000
0010
0100
0010
0000
1000
0000
0001
0000
1000
0100
,
0001
0000
0100
0000
1000
0000
0001
0010
0000
0000
1000
0000
0010
0000
0001
0000
,
0100
0000
1000
0100
0010
0001
0010
0100
1000
0000
0010
0000
0001
0000
0010
0000
,
2000
0000
0000
0000
3000
0000
0001
0010
0001
0000
0100
0000
1000
0000
0001
0000
,
0010
0000
0000
0100
0000
0000
0010
0000
1000
0000
0001
0000
0000
0000
0100
0000
,
0010
0000
0000
0000
1000
0010
1000
0000
0100
0000
0010
0001
0010
0000
0100
1000
,
0100
0000
0000
0000
0010
0000
0000
0000
0000
0000
0001
0000
0100
0000
0000
0000
0010
0000
0000
0000
1000
0000
0000
0000
0100
0000
0000
0000
0001
0100
1000
0000
,
0010
0000
1000
0010
0000
0100
0010
0000
,
1000
0001
0100
0000
0010
1000
0001
0000
,
0010
0000
0001
0000
1000
0000
0010
0000
0001
0000
1000
0010
0100
0000
2002
0000
,
0000
0000
0000
0000
3003
0000
0010
0001
1000
0010
0100
0001
1000
0010
0200
0000
,
0300
0000
0000
0000
0100
0001
1000
0000
0100
0000
0000
0000
0010
0000
0000
0000
0100
0000
0000
0000
0000
0000
0000
0000
1000
0000
0000
0000
0000
0000
0000
0000
,
0010
0000
0001
0000
0010
0000
1000
0001
0010
0000
0001
0000
0100
0000
0000
0000
,
0001
1000
0010
0100
0001
1000
0010
0100
,
0000
0000
0001
0000
0000
0000
1000
0000
0010
0000
0001
0100
0000
0000
0100
0000
,
1000
0100
0000
0001
0100
0000
0010
1000
,
0000
0000
0001
1000
0100
0000
0010
0000
1000
0000
0001
0000
0000
0000
0100
0000
,
0000
0010
0001
0000
1000
0010
0100
0002
,
0000
0000
0000
0000
2000
0000
3003
0002
,
0003
0000
0000
0000
0100
1000
0001
0000
0010
0000
0000
0000
0100
0000
0000
0000
1000
0000
0000
0000
0000
0000
0000
0000
0001
0000
0000
0000
0100
0000
0000
0000
,
0010
0000
1000
0000
0001
0000
0010
0001
,
0010
0000
1000
0000
0010
0100
1000
0001
,
0000
0000
0010
0000
1000
0000
0002
0000
0000
0000
0000
0000
0103
0010
0100
0001
,
1000
0100
0000
1000
0001
0010
1000
0000
,
0010
0100
0000
0010
0001
0000
1000
0000
,
0001
1000
0100
0001
0010
0100
1000
0010
0001
1000
0100
0001
0010
0100
2000
0000
,
0000
0000
0000
3000
,
0002
0000
0000
0000
1003
0000
0010
0000
0100
0000
0010
0000
1000
0000
0001
1000
,
0010
0000
0100
0000
0010
0000
0001
0100
1000
0000
0001
0010
1000
0000
0100
0000
,
0020
0000
0000
0030
1000
0000
0001
0000
0100
0000
0001
0100
1000
0000
0010
0000
,
0001
0000
0100
1000
0001
0000
0010
0000
1000
0001
0010
0000
1000
0010
0100
0000
,
0002
0000
0003
0000
0010
0000
0001
0000
1000
0000
0100
0010
0001
0000
0100
0000
,
0001
0000
0010
0000
1000
0010
0100
0000
0001
0000
0100
0000
0001
1000
0010
0000
,
2000
0000
0000
3000
0001
0000
0100
0000
0010
0001
0010
0100
1000
0100
0002
0000
,
0000
0000
0000
0003
,
1000
0001
0100
0000
0010
1000
0000
0202
,
0000
0000
0000
0000
0303
1000
0010
1000
,
0001
0000
0100
0000
0010
0000
1000
0002
,
0000
0000
1000
0000
1003
0001
0100
0010
,
0020
0030
0002
0003
2000
3000
0020
0030
,
0200
0300
0002
0003
1000
0010
0100
0000
,
1100
0000
0011
0000
0110
0000
0001
0020
,
0000
0000
0000
0000
1030
0000
0000
0002
,
0000
0000
0003
0000
1000
0000
0100
0010
0001
0000
0000
0000
0100
0000
0000
0000
1000
0000
0000
0000
0000
0000
0000
0000
0001
0000
0000
0000
0000
0000
0000
0000
,
0010
0001
1000
0000
0010
0000
0100
0000
,
0001
1000
0010
0000
0100
1000
0001
0000
,
0100
0000
0010
0000
1000
0000
0001
0010
0100
0000
0010
0000
1000
0000
0001
0000
,
0200
0010
0001
0010
,
0001
0000
0000
0000
0310
0000
0000
0000
0001
0100
0010
1000
0001
0100
0020
0000
,
0030
0000
0000
0000
0010
1000
0001
0000
0010
0000
0000
0000
0100
0000
0000
0000
0010
0000
0000
0000
0000
0000
0000
0000
0001
0000
0000
0000
0000
0000
0000
0000
,
0100
0000
1000
0000
0100
0000
0001
1000
0100
0000
1000
0000
0010
0000
0000
0000
,
1000
0001
0100
0010
1000
0001
0100
0010
,
0000
0000
1001
0000
0000
0000
0001
0000
0100
0000
1000
0010
1000
0000
0010
0000
,
1000
0000
0100
0000
0001
0000
0010
0000
0100
0000
1000
0000
0010
0001
0010
0000
,
1000
0000
0010
0000
0100
0000
0001
0000
1000
0001
0020
0000
0000
0000
0030
0000
,
0100
1000
0001
0100
0010
0000
0001
1000
0010
1000
0100
0000
0001
0010
0002
0000
,
0000
0000
0000
0000
0000
0003
0000
0000
0100
1000
0010
0100
0001
0010
0100
1000
,
0220
0000
0000
0000
,
0000
0000
0000
0000
,
0000
0000
0000
0000
,
0000
0000
0000
0000
0000
0330
0000
0000
1001
0000
1001
0000
1001
0000
1001
0000
;
