#TITLE:Full Moon Full Life;
#ARTIST:高橋あず美 & Lotus Juice;
#ARTISTTRANSLIT:Azumi Takahashi & Lotus Juice;
#MUSIC:Full Moon Full Life.ogg;
#BANNER:Full Moon Full Life.png;
#BACKGROUND:Full Moon Full Life-bg.png;
#SAMPLESTART:49.651;
#SAMPLELENGTH:15;
#OFFSET:-0.104;
#BPMS:0=193;
#BGCHANGES:1.250=Full Moon Full Life.mp4=1.000=0=0=0=StretchNoLoop====,
99999=-nosongbg-=1.000=0=0=0 // don't automatically add -songbackground-;
#BGSTAGE:27;

//--------------- dance-single - Makoto-bSP ----------------
#NOTES:
     dance-single:
     Makoto:
     Beginner:
     2:
     0,0,0,0,0:
0000
0000
0000
0000
,
0000
0000
0000
0000
,
0000
0000
0000
0000
,
0000
0000
0000
0000
,
0000
0000
0000
0000
,
0000
0000
0000
0000
,
0000
0000
0000
0000
,
0000
0000
0000
0000
,
0000
0000
0000
0001
0000
0000
0000
1000
,
0000
0000
0000
0001
0000
0000
0000
0000
,
0000
0000
0000
0010
0000
0000
0000
1000
,
0000
0000
0000
0010
0000
0000
0000
0000
,
0000
0000
0000
0100
0000
0000
0000
0001
,
0000
0000
0000
0100
0000
0000
0000
0000
,
0000
0000
0000
0001
0000
0000
0000
1000
,
0000
0000
0000
0000
,
0000
0000
0000
0010
0000
0000
0000
0000
,
0000
0000
0000
0100
0000
0000
0000
0000
,
0000
0000
0000
1000
0000
0000
0000
0000
,
0000
0000
0000
0001
0000
0000
0000
0000
,
0000
0000
0000
0001
0000
0000
0000
0001
,
0000
0000
0000
1000
0000
0000
0000
1000
,
0000
0000
0000
0010
0000
0000
0000
0100
,
0000
0000
0000
0010
0000
0000
0000
0000
,
0000
0000
0000
0001
0000
0000
0001
0000
,
0000
0000
0000
1000
0000
0000
1000
0000
,
0000
0000
0000
0010
0000
0000
0010
0000
,
0000
0000
0000
0100
0000
0000
0100
0000
,
0000
0000
0000
1000
0000
0000
0000
0000
,
0000
0000
0000
0001
0000
0000
0000
0000
,
0000
0000
0000
1000
0000
0000
0000
0001
,
0000
0000
0000
0000
,
0000
0000
0000
1010
0000
0000
0000
0000
,
0000
0000
0000
0000
,
0000
0000
0000
0101
0000
0000
0000
0000
,
0000
0000
0000
0000
,
0000
0000
0000
0001
0000
0000
0000
0000
,
0000
0000
0000
0001
0000
0000
0000
0000
,
0000
0000
0000
1000
0000
0000
0000
0000
,
0000
0000
0000
1000
0000
0000
0000
0000
,
0000
0000
0000
0010
0000
0000
0000
0010
,
0000
0000
0000
0000
,
0000
0000
0000
0001
0000
0000
0000
0001
,
0000
0000
0000
0000
,
0000
0000
0000
1000
0000
0000
0000
1000
,
0000
0000
0000
0000
,
0000
0000
0000
0100
0000
0000
0000
0100
,
0000
0000
0000
0000
,
0000
0000
0000
0001
0000
0000
0000
0000
,
0000
0000
0000
1000
0000
0000
0000
0000
,
0000
0000
0000
0001
0000
0000
0000
0000
,
0000
0000
0000
0000
,
0000
0000
0000
0010
0000
0000
0000
0000
,
0000
0000
0000
1000
0000
0000
0000
0000
,
0000
0000
0000
0010
0000
0000
0000
0000
,
0000
0000
0000
0000
,
0000
0000
0000
0001
0000
0000
0000
0000
,
0000
0000
0000
1000
0000
0000
0000
0000
,
0000
0001
0000
0000
,
0000
0000
0000
0000
,
0000
0000
0000
0010
0000
0000
0000
0000
,
0000
0000
0000
0100
0000
0000
0000
0000
,
0000
0010
0000
0000
,
0000
0000
0000
0000
,
0000
0000
0000
1000
0000
0000
0000
1000
,
0000
0000
0000
0001
0000
0000
0000
0000
,
0000
0000
0000
0001
0000
0000
0000
0001
,
0000
0000
0000
1000
0000
0000
0000
0000
,
0000
0000
0000
0010
0000
0000
0000
0000
,
0000
0000
0000
0100
0000
0000
0000
0000
,
0000
0000
0000
1000
0000
0000
0000
0000
,
0000
0000
0000
0001
0000
0000
0000
0000
,
0000
0000
0000
1001
0000
0000
0000
0000
,
0000
0000
0000
0000
,
0000
0000
0000
0000
,
0000
0000
0000
0000
,
0000
0000
0000
0010
0000
0000
0000
0000
,
0000
0000
0000
0100
0000
0000
0000
0000
,
0000
0000
0000
0010
0000
0000
0000
0000
;

//--------------- dance-single - Junpei-BSP ----------------
#NOTES:
     dance-single:
     Junpei:
     Easy:
     6:
     0,0,0,0,0:
0000
0000
0000
0000
,
0000
0000
0000
0000
,
0000
0000
0000
0000
,
0000
0000
0000
0000
,
0000
0000
0000
0000
,
0000
0000
0000
0000
,
0000
0000
0000
0000
,
0000
0000
0000
0000
,
0000
0000
0000
0001
0000
0000
0000
1000
,
0000
0000
0000
0001
0000
0100
0000
0010
,
0000
0000
0000
1000
0000
0000
0000
0010
,
0000
0000
0000
0001
0000
0000
0000
0000
,
0000
0000
0000
1000
0000
0000
0000
0001
,
0000
0000
0000
0010
0000
1000
0000
0010
,
0000
0000
0000
0001
0000
0000
0000
0010
,
0000
0000
0000
2002
0000
0000
0000
0000
,
0000
3003
0000
0200
0000
0000
0310
0000
,
0000
0000
0000
0002
0000
0000
0003
1000
,
0000
0000
0000
0020
0000
0000
0130
0000
,
0000
0000
0000
0002
0000
0000
0003
1000
,
0000
0000
0000
0010
0000
1000
0000
0010
,
0000
0000
0000
0001
0000
0000
0000
0100
,
0000
0000
0000
0001
0000
1000
0000
0001
,
0000
0000
0000
0010
0000
0100
0000
0010
,
0000
0000
0000
0002
0000
0000
0013
0000
,
0000
0000
0000
2000
0000
0000
3000
0010
,
0000
0000
0000
2000
0000
0000
3100
0000
,
0000
0000
0000
0200
0000
0000
0300
0001
,
0000
0000
0000
1000
0000
0001
0000
1000
,
0000
0000
0000
0010
0000
0000
0000
1000
,
0000
0000
0000
0010
0000
0001
0000
0010
,
0000
0000
0000
0220
0000
0000
0000
0000
,
0330
0000
0000
2000
0000
0000
0000
0100
,
3000
0200
0000
0000
0000
0000
0000
0010
,
0000
0300
0000
0020
0000
0000
0031
0200
,
0000
0000
1300
0200
0000
0000
0300
0002
,
0000
0000
0003
2000
0000
0000
3000
0020
,
0000
0100
0030
2000
0000
0000
3000
0002
,
0000
0000
0003
0200
0000
0000
0300
0020
,
0000
0000
0030
2001
0000
0000
0000
0002
,
0000
0000
3003
0001
0000
1000
0000
0010
,
0000
0100
0000
1000
0000
0001
0000
0010
,
0000
2002
0000
0000
,
0000
0000
3003
0000
0000
0000
0000
0010
,
0000
1000
0000
0010
0000
0100
0000
1000
,
0000
0000
0000
0010
0000
0100
0000
0010
,
0000
2020
0000
0000
,
0000
3030
0000
0001
,
0000
1000
0000
0002
0000
0000
0000
0000
,
0000
0000
0003
0000
0000
1000
0000
0000
,
0010
0000
0000
0200
0000
0000
0000
0000
,
0000
0000
0300
0000
0000
0001
0100
0000
,
1000
0000
0000
0010
0000
0000
0100
0000
,
0000
1002
0000
0000
0000
0000
0000
0000
,
0003
0000
0000
0001
0000
1000
0000
0010
,
0000
0000
0000
1000
0000
0100
0000
2000
,
0000
0000
3000
0010
0000
0001
0000
0010
,
0000
0000
0000
1000
0000
0100
0000
1000
,
0000
2002
0000
0000
,
0000
3003
0000
0010
,
0000
1000
0000
0001
0000
0100
0000
1000
,
0000
0001
0000
0010
0000
1000
0100
0000
,
1000
0000
0001
0000
0100
0020
0000
0000
,
0000
0000
0030
0000
0000
0000
0000
0001
,
0000
1000
0000
0002
0000
0000
0003
1000
,
0000
0001
0000
2000
3000
0010
0000
0000
,
0100
0000
0000
0020
0000
0000
0000
0000
,
0000
0000
0030
0000
0000
0001
0000
0000
,
1000
0000
0000
0010
0000
0000
0100
0000
,
0000
0002
0000
0000
0000
0000
0003
0000
,
0000
0010
0000
2000
0000
3000
0000
0002
,
0000
0003
0000
0020
0000
0030
0000
0200
,
0000
0300
0000
2002
0000
0000
0000
0000
,
0000
0000
0000
0000
,
3003
0000
0000
0220
0000
0000
0000
0000
,
0000
0000
0000
0000
0000
0000
0000
0330
,
0000
0000
0000
0001
0000
0000
0000
1000
,
0000
0000
0000
0001
0000
0000
0000
0010
,
0000
0000
0000
1000
0000
0000
0000
0010
,
0000
2002
3003
0000
;

//--------------- dance-single - Makoto-DSP ----------------
#NOTES:
     dance-single:
     Makoto:
     Medium:
     8:
     0,0,0,0,0:
0000
0000
0000
0000
,
0000
0000
0000
0000
,
0000
0000
0000
0000
,
0000
0000
0000
0000
,
0000
0000
0000
0000
,
0000
0000
0000
0000
,
0000
0000
0000
0000
,
0000
0000
0000
0000
,
0000
0000
0000
0001
0000
0000
0000
1000
,
0000
0000
0000
0010
0000
1000
0000
0001
,
0000
0100
0000
1000
0000
0000
0000
0001
,
0000
0000
0000
1000
0000
0001
0000
0100
,
0000
1000
0000
0010
0000
0000
0000
1000
,
0000
0000
0000
0001
0000
0010
0000
0001
,
0000
1000
0000
0100
0000
0000
0000
0010
,
0000
1001
0000
0000
,
0000
0000
0000
0010
0000
0000
0100
0000
,
0000
0000
0000
1000
0000
0000
0001
0000
,
0000
0100
0000
0010
0000
0000
1000
0000
,
0000
0000
0000
0001
0000
0000
0100
0000
,
0000
0010
0000
1000
0000
0001
0000
0100
,
0000
0000
0000
0001
0000
0010
0000
0001
,
0000
0000
0000
1000
0000
0100
0000
1000
,
0000
0010
0000
0100
0000
0001
0000
0010
,
0000
0000
0000
1000
0000
0000
0100
0000
,
0000
0000
0000
0001
0000
0000
0010
0000
,
0000
0000
0000
0100
0000
0000
1000
0000
,
0000
0000
0000
0010
0000
0000
0100
0000
,
0000
0001
0000
1000
0000
0001
0000
1000
,
0000
0000
0000
0010
0000
1000
0000
0001
,
0000
0000
0000
0010
0000
0001
0000
0010
,
0000
0100
0000
1001
0000
0000
0000
0000
,
0000
0000
0000
1000
0000
0000
0000
0010
,
0000
0100
0000
0000
0000
0001
0000
0010
,
0000
0000
0000
0001
0000
0000
1000
0000
,
0000
0001
0000
0000
0100
0000
0000
0010
,
0000
1000
0000
0001
0000
0000
0000
0100
,
0000
1000
0000
0001
0000
0000
0000
0100
,
0000
0000
0000
0010
0000
1000
0000
0001
,
0000
0010
0000
0100
0000
0000
0000
0001
,
0000
0000
0000
1000
0000
0010
0000
1000
,
0000
0100
0000
0001
0000
1000
0010
0000
,
0100
2002
0000
0000
,
0000
3003
0000
0002
,
0003
1000
0000
0010
0000
1000
0000
0100
,
0000
0001
0000
0010
0000
1000
0010
0000
,
1000
2010
0000
0000
,
0000
0001
3000
1001
0000
0000
0100
0000
,
0000
1000
0000
0020
0000
0000
0000
0000
,
0000
0000
0030
0000
0000
0100
0000
0000
,
0001
0000
0000
2000
0000
0000
0000
0000
,
0000
0000
3000
0000
0000
0010
1000
0000
,
0100
0000
0010
0001
0000
0000
0100
0000
,
0000
0020
0000
0000
0000
0000
0000
0000
,
0030
1000
0010
1000
0001
0100
0010
0000
,
1000
0001
0000
1000
0000
0010
0000
0002
,
0000
0000
0003
0100
0000
1000
0000
0001
,
0000
0010
0000
0100
0000
1000
0001
0000
,
0100
0120
0000
0000
,
0000
0030
0000
2000
,
3000
0001
0000
1000
0000
0010
0000
0100
,
0000
1000
0000
0001
0000
0100
0010
0000
,
1000
0000
0001
0000
0100
0020
0000
0000
,
0000
0000
0030
0000
0000
0000
0001
0010
,
0001
1000
0000
0020
0000
0030
0100
0010
,
1000
0010
0000
2000
3000
0001
0000
0000
,
0100
0000
0000
2000
3000
0001
0000
0000
,
0100
0000
0000
1000
0000
0010
1000
0000
,
0001
0000
0000
0100
0000
0000
0010
0000
,
0000
1000
0200
0000
0000
0000
0300
0000
,
0000
0001
0000
2000
0000
0000
3000
0200
,
0000
0000
0300
0020
0000
0000
0030
0002
,
0000
0000
0003
2002
0000
0000
0000
0000
,
0000
0000
0000
0000
,
0000
0000
3003
0001
0000
0000
1000
0000
,
0000
0010
0000
0001
0000
1000
0000
0000
,
0100
0000
0000
0001
0000
0000
1000
0000
,
0000
0010
0000
0100
0000
0001
0000
0000
,
1000
0000
0000
0010
0000
0000
0100
0000
,
0000
0002
0000
0000
0103
0000
0000
0000
;

//--------------- dance-single - Makoto & Junpei-ESP ----------------
#NOTES:
     dance-single:
     Makoto & Junpei:
     Hard:
     13:
     0,0,0,0,0:
0000
0000
0000
0000
,
0000
0000
0000
0000
,
0000
0000
0000
0000
,
0000
0000
0000
0000
,
0000
0000
0000
0000
,
0000
0000
0000
0000
,
0000
0000
0000
0000
,
0000
0000
0000
0000
,
0000
0000
0000
0001
0000
1000
0001
0000
,
0010
0000
1000
0100
0000
1000
0000
0001
,
0000
1000
0000
0100
0000
1000
0001
0000
,
0010
0000
1000
0000
0010
0000
0100
0010
,
0001
0000
0001
1000
0001
0000
0001
0000
0100
0000
1000
0000
0100
0000
0000
0000
,
0001
0100
0010
1000
0001
0010
0100
1000
,
0000
0001
0000
1000
0001
0010
1000
0100
,
0000
0010
0000
2001
0000
0000
0001
0000
,
3001
1000
0001
0010
0100
1000
0002
0000
,
0003
0000
0100
0000
0000
0000
1000
0000
0000
0000
0001
0000
0010
0000
0001
0100
,
1000
0100
0001
0000
0010
0100
0020
0000
,
0030
1000
0000
0010
0000
1000
0010
0000
,
0001
0010
0000
1000
0000
0100
1000
0000
,
0001
0010
0000
0100
0000
1000
0000
0001
,
0000
0100
0000
1000
0000
0010
1000
0000
,
0001
0010
0000
0100
0000
1000
0001
0000
,
0100
0000
0010
0000
0000
0000
1000
0100
0010
0000
0001
0000
0200
0000
0000
0000
,
0300
0001
0000
1000
0000
0010
2000
0100
,
3100
0001
0100
1000
0000
0010
1000
0000
,
0001
0010
0000
0100
0000
1000
0001
0000
,
0010
0001
0001
0010
0100
1000
0010
0000
,
0000
0001
0000
1000
0000
0010
0001
0100
,
0000
1000
0000
0001
0000
0010
0100
1000
,
0000
0001
1000
0001
1000
0010
1000
0001
,
0100
0010
0001
0010
0100
1000
0001
0000
0000
0000
0001
0000
0100
0000
1000
0000
,
0000
0010
1000
0000
0001
0100
0000
1000
,
0000
0000
0001
0000
0100
0000
0010
1000
0010
0000
1000
0000
0000
0001
0000
0000
,
1000
0000
0010
0100
0010
0000
0010
0000
0000
0100
0000
0000
0001
0000
1000
0000
,
0000
0001
0000
0100
0000
1000
0001
1000
,
0001
0010
0000
1000
0000
0001
0100
1000
,
0000
0001
0000
1000
0000
0010
1000
0001
,
0000
0100
0000
0010
0000
1000
0000
0001
,
0000
1000
0000
0000
0001
0000
0010
0000
0000
0000
0001
0000
0000
0000
1000
0000
,
0000
0010
0000
0001
0010
0001
0010
0000
,
1000
0001
0200
0000
0000
0001
0000
0001
,
0000
0001
0000
0301
0000
1000
0010
0000
,
1000
0001
0010
1010
0010
0011
0010
1010
,
0010
0001
1000
0010
0000
1000
0001
0000
,
0010
0000
2000
0000
0000
0010
0000
0010
,
0000
0010
0010
3010
0000
0000
0001
0000
,
0000
1000
0000
1020
0000
1000
0000
1000
,
0000
1000
0030
0001
0000
1000
0000
0000
,
0001
0000
0000
2000
0000
0001
0000
0001
,
0000
0001
0000
3010
0000
1000
0010
1000
,
0000
0001
0000
0010
0000
0000
0100
0000
,
0000
0001
0000
1000
0000
0010
0000
0001
,
0000
0001
0010
0001
0010
1000
0100
0000
,
0001
0000
0100
0000
0000
0000
1001
0000
0000
0000
0101
0000
0000
0000
0001
0010
,
0100
1000
0001
0010
0100
1000
0001
0000
0000
0000
1000
0000
0000
0000
0001
0000
,
0000
0100
0000
1000
0000
0010
1000
0000
,
0001
0000
0200
0000
0000
1000
0000
0010
,
0000
1000
0000
0301
0000
0010
0001
0010
,
0000
1000
0100
0110
0100
1100
0100
0101
,
0100
0010
0000
0100
0000
0001
1000
0001
,
0000
0010
1000
0000
0200
0010
0000
0010
,
0000
0010
0000
0310
0000
1000
0001
1000
,
0100
0001
0000
2001
0000
3000
0001
1000
,
0001
0010
0000
1002
0003
0200
0000
0000
,
0310
0000
0000
1000
0000
0001
0000
0010
,
0100
0000
0000
1000
0000
0010
1000
0000
,
0100
0001
0000
0010
0000
0000
1000
0000
,
0000
0100
0000
0001
0000
0010
0000
1000
,
0000
0001
0000
0010
0001
0010
0000
1000
,
0000
0010
0000
1000
0001
0100
0010
1000
,
0001
0100
0000
0010
0000
1000
0001
0000
,
0010
1000
0000
0010
0000
0001
0010
0000
,
1000
0010
0000
0100
0000
1000
0001
0000
,
1000
0010
0000
1000
0000
0010
1000
0000
,
0001
0010
0000
0100
0000
0001
0100
0000
,
0010
1000
0000
0001
0000
0010
0001
0000
,
1000
0010
0000
0100
0000
0001
1000
0000
,
0010
0200
0000
0000
0301
0000
0000
0000
;
