#TITLE:Freezing atmosphere;
#ARTIST:Twin AmadeuS;
#GENRE:NATURAL SOUND;
#MUSIC:Freezing atmosphere.ogg;
#BANNER:Freezing atmosphere.png;
#BACKGROUND:Freezing atmosphere-bg.png;
#CDTITLE:./CDTitles/bm IIDX 10th style.png;
#SAMPLESTART:16.662;
#SAMPLELENGTH:15;
#OFFSET:0.675;
#BPMS:0=135;
#BGCHANGES:0=Freezing atmosphere.mp4=1.000=0=0=0=StretchNoLoop====,
99999.000=-nosongbg-=1.000=0=0=0=StretchNoLoop====;
#BGSTAGE:3;

//--------------- dance-single - XLev450X-bSP ----------------
#NOTES:
     dance-single:
     XLev450X:
     Beginner:
     2:
     0,0,0,0,0:
0000
0000
0000
0000
,
0000
0000
0000
0000
,
0000
0000
0000
0000
,
0000
0000
0000
0000
,
0000
0000
0000
0000
,
0000
0000
0000
0000
,
0001
0000
1000
0000
,
0001
0000
0000
0000
,
0010
0000
1000
0000
,
0010
0000
0000
0000
,
0001
0000
1000
0000
,
0000
0000
0000
0000
,
0100
0000
0010
0000
,
0000
0000
0000
0000
,
1000
0000
0001
0000
,
0000
0000
0000
0000
,
0100
0000
0010
0000
,
0000
0000
0000
0000
,
1000
0000
0000
0000
,
0001
0000
0000
0000
,
0100
0000
0000
0000
,
0010
0000
0000
0000
,
1000
0000
0000
0000
,
0010
0000
0000
0000
,
0100
0000
0000
0000
,
0001
0000
0000
0000
,
0001
0000
0000
0000
,
1000
0000
0000
0000
,
0000
0000
0000
0000
,
0010
0000
0000
0000
,
0100
0000
0000
0000
,
0001
0001
0000
0000
,
0000
0000
0000
0000
,
1000
1000
0000
0000
,
0000
0000
0000
0000
,
0000
0000
0100
0000
,
0010
0000
0100
0000
,
0000
0000
0001
0000
,
0010
0000
0001
0000
,
0000
0000
1000
1000
,
0000
0000
0010
0100
,
0000
0000
0001
0001
,
0000
0000
0100
0010
,
0000
0000
1000
0000
,
0001
0000
1000
0000
,
0000
0000
1000
0000
,
0100
0000
1000
0000
,
0000
0000
0010
0000
,
0001
0000
0010
0000
,
0000
0000
1000
0000
,
0001
0000
1000
0000
,
0000
0000
0000
0000
,
0000
0000
0010
0000
,
0000
0000
0001
0000
,
0000
0000
1000
0000
,
0000
0000
0100
0000
,
0000
0000
0010
0000
,
0000
0000
0001
0000
,
0000
0000
1000
0000
,
0000
0000
0010
0000
,
0000
0000
1001
0000
;

//--------------- dance-single - XLev450X-BSP ----------------
#NOTES:
     dance-single:
     XLev450X:
     Easy:
     5:
     0,0,0,0,0:
0000
0000
0000
0000
,
0000
0000
0000
0000
,
0000
0000
0000
0000
,
0000
0000
0000
0000
,
0000
0000
0000
0000
,
0000
0000
0000
0000
,
0001
1000
0010
0000
,
0100
0010
0001
0000
,
0001
1000
0001
0000
,
0100
0000
0010
0000
0200
0000
0000
0300
,
2002
0000
0000
3003
,
0001
1000
0100
0010
,
1000
0001
0100
0000
,
0001
1000
0010
0100
,
0202
0000
0000
0000
0000
0303
2000
0000
,
0002
0000
0000
3003
0200
0000
0000
0300
,
0020
0000
0000
0030
0002
0000
0000
0003
,
2000
0000
0000
3000
0002
0000
0000
0003
,
1000
0010
1000
0000
,
0001
0100
0010
0000
,
0001
1000
0001
1000
,
0100
0010
0001
0000
,
0010
1000
0100
0000
,
0010
1000
0010
0000
,
0002
0000
2003
0000
,
3020
0000
0230
0000
,
0302
0000
0000
0000
2003
0000
0000
3000
,
0001
1000
0001
0000
,
0010
0000
1000
0000
0200
0000
0000
0300
,
0010
0001
1000
0000
,
0100
0000
1000
0000
0001
1000
0001
0000
,
0010
1000
0100
0000
,
0010
0000
0001
0000
0010
0001
0010
0000
,
1000
0100
1000
0001
,
1000
0001
0200
0000
,
0020
0000
0000
0330
0001
0000
1000
0000
,
0010
0000
0100
1000
,
0100
0000
0001
0100
,
1000
0000
0001
0001
,
1000
0000
0010
0000
,
0100
0000
2000
0000
,
0000
3000
0000
0000
0001
0000
0000
0000
,
0010
0000
0200
0000
,
0000
0300
0000
0000
0002
0000
0000
0003
,
2000
0000
0000
3000
0020
0000
0000
0000
,
0000
0000
0030
0000
2000
0000
0000
3000
,
0002
0000
0000
0003
0100
0000
0010
0000
,
1000
0000
0000
0000
0002
0000
0000
0003
,
2000
0000
0000
3000
0002
0000
0000
0000
,
0000
0000
0003
0000
2000
0000
0000
3000
,
0020
0000
0000
0030
0002
0000
0000
0000
,
0000
0003
2002
0000
,
0000
0000
0000
3003
0001
0000
0000
0000
,
1000
0000
0001
0000
,
0000
0000
0010
0000
,
1000
0000
0100
0000
,
0000
0000
0001
1000
,
0001
0000
0010
0100
,
0010
0001
0010
0000
1000
0000
0100
0000
,
0001
0000
1000
0001
,
0220
0000
0000
0000
0000
0000
0000
0000
0000
0330
0000
0000
2002
0000
0000
0000
0000
0000
0000
0000
0000
0000
0000
0000
,
0000
0000
0000
0000
,
0000
0000
0000
0000
,
0000
0000
0000
0000
,
0000
0000
3003
0000
;

//--------------- dance-single - XLev450X-DSP ----------------
#NOTES:
     dance-single:
     XLev450X:
     Medium:
     8:
     0,0,0,0,0:
0000
0000
0000
0000
,
0000
0000
0000
0000
,
0000
0000
0000
0000
,
0000
0000
0000
0000
,
0000
0000
0000
0000
,
0000
0000
0000
0000
,
0001
0000
1000
0000
0100
0000
0010
0000
,
0001
1000
0001
0100
,
1000
0010
1000
0100
,
0001
0000
0010
0000
2002
0000
0000
3003
,
0001
0000
0000
1000
0000
0000
0001
0000
0200
0000
0000
0010
0000
0000
0310
0000
,
0001
0000
0000
1000
0000
0000
0001
0000
0100
0000
0000
0001
0000
0000
1000
0000
,
0010
0000
0000
0100
0000
0000
1000
0000
2002
0000
0000
0000
0000
0000
3003
0000
,
0001
0000
0000
1000
0000
0000
0100
0000
0010
0000
0000
1000
0000
0000
0001
0000
,
0010
0000
0000
0100
0000
0000
1000
0000
0002
0000
0000
0000
0000
0000
0003
0000
,
1000
0000
0000
0001
0000
0000
0100
0000
0010
0000
0000
1000
0000
0000
0100
0000
,
0001
0000
0000
0100
0000
0000
1000
0000
0002
0000
0000
0000
0000
0000
0003
0000
,
0010
0000
0000
1000
0000
0000
0100
0000
0001
0000
0000
1000
0000
0000
0010
0000
,
0001
1000
0100
0001
,
1000
0000
0010
0000
1000
0010
1000
0000
,
0100
0001
1000
0100
,
0001
0000
0010
0000
0001
0010
0001
0000
,
1000
0000
0100
0000
1000
0001
1000
0000
,
0010
0000
1000
0000
1000
0100
1000
0000
,
0001
0000
1000
0000
0001
0100
0010
0000
,
1000
0000
0000
0001
0000
0000
0010
0000
1000
0000
0100
0000
1000
0000
0000
0000
,
0010
0001
0010
0000
0100
0010
0100
0000
,
1000
0000
0000
0000
0001
0000
0000
0000
1000
0000
0000
0010
0000
0000
0100
0000
,
1000
0000
0001
0010
0200
0000
0000
0300
,
1000
0000
0000
0000
0001
0000
0000
0000
0100
0000
0000
0010
0000
0000
1000
0000
,
0010
0000
0001
0000
0010
0000
1000
0000
0001
0000
0000
0100
0000
0000
0010
0000
,
0001
0000
0000
0000
1000
0000
0000
0000
0010
0000
0000
0100
0000
0000
0010
0000
,
0001
0000
1000
0000
0001
0000
1000
0000
0001
0000
0000
0100
0000
0000
1000
0000
,
0001
1000
0010
0000
0001
1000
0001
0000
,
0010
1000
0010
0000
0001
0100
0001
0200
,
0000
0000
0000
0300
0001
0000
1000
0000
,
0100
0010
0001
1000
,
0010
1000
0010
0000
0001
0000
0010
0000
,
1000
0000
0100
0000
1000
0001
1000
0000
,
0010
1000
0010
0000
0001
0000
1000
0000
,
0100
0000
0001
1000
,
0001
0000
0100
0000
1000
0010
1000
0000
,
0010
0100
0010
0000
0001
0000
1000
0000
,
0001
0000
1000
0100
,
1000
0010
1000
0100
,
0001
1000
0001
0100
,
1000
0001
0100
0010
,
1000
0000
0010
1000
,
0100
0000
1000
0000
0001
0010
0001
0000
,
1000
0100
1000
0000
0001
0000
0100
0000
,
1000
0001
0001
0000
0100
0000
0010
0000
,
1000
1000
0010
0000
0100
0000
1000
0000
,
0001
1000
0001
0000
1000
0000
0001
0000
,
1000
0000
0000
0001
0000
0000
0100
0000
0010
0000
0000
0000
1000
0000
0000
0000
,
0200
0000
0000
0300
0001
0000
1000
0000
,
0010
0000
0000
0100
0000
0000
1000
0000
0001
0000
0000
0000
0100
0000
0000
0000
,
0020
0000
0000
0030
1000
0000
0001
0000
,
1000
0000
0000
0100
0000
0000
0001
0000
1000
0000
0000
0000
0010
0000
0000
0000
,
0200
0000
0020
0330
0001
0000
1000
0000
,
0001
0000
0000
0100
0000
0000
0010
0000
1000
0000
0001
0000
0100
0000
0010
0000
,
2000
0000
0000
3000
2002
0000
0000
0000
,
0000
0000
0000
0000
,
0000
0000
0000
0000
,
0000
0000
0000
0000
,
0000
0000
3003
0000
;

//--------------- dance-single - XLev450X-ESP ----------------
#NOTES:
     dance-single:
     XLev450X:
     Hard:
     12:
     0,0,0,0,0:
0000
0000
0000
0000
,
0000
0000
0000
0000
,
0000
0000
0000
0000
,
0000
0000
0000
0000
,
0000
0000
0000
0000
,
0000
0000
0000
0000
,
0001
0000
0000
1000
0000
0000
0010
0000
0100
0000
0000
0001
0000
0000
1000
0000
,
0010
0000
0000
0100
0000
0000
1000
0000
0001
0000
0100
0000
1000
0000
0001
0000
,
0010
0000
0000
1000
0000
0000
0100
0000
0001
0000
0000
1000
0000
0000
0010
0000
,
0100
0000
0000
1000
0000
0000
0010
0000
0001
0000
0000
0000
0001
0010
0100
1000
,
0100
0000
0000
1000
0000
0000
0100
0000
0001
0000
0000
1000
0000
0000
0100
0000
,
0010
0000
0000
1000
0000
0000
0100
0000
0001
0000
0000
0010
0000
0000
0100
0000
,
1000
0000
0000
0001
0000
0000
1000
0000
0010
0000
0000
0100
0000
0000
1000
0000
,
0001
0000
0000
0100
0000
0000
1000
0000
0010
0000
0000
1000
0100
0001
0100
0001
,
1000
0000
0000
0010
0000
0000
0100
0000
1000
0000
0000
0001
0000
0000
0100
0000
,
1000
0000
0000
0001
0000
0000
1000
0000
0100
0000
0000
0010
0000
0000
0001
0000
,
1000
0000
0000
0010
0000
0000
0100
0000
1000
0000
0000
0001
0000
0000
0100
0000
,
1000
0000
0000
0001
0000
0000
0100
0000
1000
0000
0000
0001
0000
0000
0010
0000
,
1000
0000
0100
0000
1000
0000
0001
0000
0010
0000
0001
0010
0001
0000
1000
0000
,
0100
0000
1000
0010
1000
0000
0010
0100
0010
0000
0001
0010
0001
0000
1000
0100
,
1000
0001
1000
0010
0100
1000
0010
0001
,
0010
0000
0001
0010
0001
0000
0010
0100
0010
0000
1000
0010
1000
0000
0010
0000
,
0100
0000
0001
0000
1000
0100
1000
0001
,
0010
0000
0000
0001
0000
0000
0010
0000
0001
1000
0010
0100
0010
0000
1000
0000
,
0001
0000
1000
0000
0001
0100
1000
0000
,
0001
0000
0000
0100
0000
0000
1000
0000
0001
0000
0000
1000
0000
0000
0100
0000
,
0001
0000
0000
1000
0000
0000
0010
0000
1000
0001
0100
0001
0010
1000
0001
1000
,
0001
0000
0000
0000
1000
0000
0000
0000
0010
0000
0000
0001
0000
0000
0100
0000
,
1000
0000
0001
0000
2002
0000
0000
3003
,
0001
0000
0000
0000
1000
0000
0000
0000
0010
0000
0000
0100
0000
0000
1000
0000
,
0001
0000
0000
0000
0100
0000
0000
0000
0001
0000
0000
1000
0000
0000
0010
0000
,
0100
0000
0000
0000
0001
0000
0000
0000
1000
0000
0000
0001
0000
0000
0100
0000
,
1000
0000
0001
0000
0100
0000
0010
0000
0100
0000
0000
0001
0000
0000
1000
0000
,
0010
0000
0100
0010
1000
0000
0001
0000
1000
0000
0010
0100
0010
0000
0001
0000
,
0010
0000
0001
0000
1000
0000
0010
0000
0001
0000
1000
0000
0100
0000
0001
0000
0010
0000
0100
0000
1000
0000
0100
0000
,
0020
0000
0000
0000
0030
0000
0001
1000
0001
0000
1000
0000
0010
0000
0001
0000
,
1000
0000
0100
0000
1000
0000
0001
0000
0100
0000
0000
0001
0000
0000
0010
0000
,
1000
0010
1000
0010
0002
0013
2000
3100
,
0010
1000
0010
0001
0100
1000
0001
0010
,
1000
0001
0010
0000
1000
0001
1000
0000
,
0100
1000
0001
0000
0010
1000
0100
1000
,
0001
0000
0010
0000
1000
0001
0010
1000
0100
0000
0000
0010
0000
0000
1000
0000
,
0001
0100
1000
0001
0010
1000
0010
0100
,
1000
0100
0001
0000
0020
0000
0130
0000
0001
0010
0000
1000
0010
0000
0100
0010
,
0000
0001
0010
0000
1000
0100
0001
0010
1000
0000
0001
0200
0000
0000
0000
0000
,
0001
0000
0310
0000
1000
0000
0010
0100
,
0001
0000
0001
1000
0001
1000
0010
1000
,
0100
0000
0000
0000
1000
0000
0000
0000
0010
0000
0000
1000
0000
0000
0010
0000
,
0001
0010
1000
0001
0100
0000
1000
0000
,
0001
0000
1000
0000
0010
0000
0000
0000
0001
0000
0000
1000
0000
0000
0100
0000
,
0001
0100
1000
0000
0001
0010
1000
0000
,
0010
1000
0010
0000
0001
1000
0001
0100
,
1000
0100
0001
1000
0010
0001
1000
0010
0001
0000
0000
0000
1000
0000
0000
0000
,
0010
0000
0000
0100
0000
0000
0001
0000
1000
0000
0010
0000
0100
0000
1000
0000
,
0002
0000
0103
0000
1000
0001
0010
1000
,
0100
0000
0000
0001
0000
0000
1000
0000
0100
0000
1000
0000
0010
0000
0001
0000
,
2002
0000
0000
3003
0001
1000
0010
0100
,
1000
0000
0000
0001
0000
0000
0100
0000
1000
0000
0010
0000
0001
0000
0010
0001
,
0010
1000
0010
0100
1000
0001
0100
0010
,
1000
0000
0000
0010
0000
0000
0100
0000
1000
0000
0001
0000
1000
0000
0001
1000
,
0002
0000
0000
0003
2002
0000
0000
0000
,
0000
0000
0000
0000
,
0000
0000
0000
0000
,
0000
0000
0000
0000
,
0000
0000
3003
0000
;
