#TITLE:Four Leaves (Whitelily. remix);
#ARTIST:Whitelily.(みーに&しろさきあや);
#ARTISTTRANSLIT:Whitelily.(Kimijima Kohei&Shirosaki Aya);
#MUSIC:Four Leaves (Whitelily. remix).ogg;
#BANNER:Four Leaves (Whitelily. remix).png;
#BACKGROUND:Four Leaves (Whitelily. remix)-bg.png;
#CDTITLE:./CDTitles/SDVX EXCEED GEAR.png;
#SAMPLESTART:62.513;
#SAMPLELENGTH:15;
#OFFSET:-0.157;
#BPMS:0=191;
#BGSTAGE:16;

//--------------- dance-single - XLev450X-bSP ----------------
#NOTES:
     dance-single:
     XLev450X:
     Beginner:
     3:
     0,0,0,0,0:
0000
0000
0000
0000
,
0000
0000
0000
0000
,
0000
0000
0000
0000
,
0000
0000
0000
0000
,
0000
0000
0000
0000
,
0000
0000
0000
0000
0000
0000
0000
0010
,
0000
0000
0000
0000
0000
0000
0000
0010
,
0000
0000
0000
0000
0000
0000
0000
0010
,
0000
0000
0000
0000
,
0000
0000
0000
0000
0000
0000
0000
2002
,
0000
0000
0000
0000
,
0000
0000
0000
3003
0000
0000
0000
0001
,
0000
0000
0000
0001
0000
0000
0000
0001
,
0000
0000
0000
0000
0000
0000
0000
1000
,
0000
0000
0000
1000
0000
0000
0000
1000
,
0000
0000
0000
0000
0000
0000
0000
0010
,
0000
0000
0000
0100
0000
0000
0000
0010
,
0000
0000
0000
0000
0000
0000
0000
1000
,
0000
0000
0000
0001
0000
0000
0000
1000
,
0000
0000
0000
0000
0000
0000
0000
0010
,
0000
0000
0000
0000
,
0000
0000
0000
0000
0000
0000
0000
1000
,
0000
0000
0000
0000
,
0000
0000
0000
0000
0000
0000
0000
0100
,
0000
0000
0000
0000
,
0000
0000
0000
0000
0000
0000
0000
0001
,
0000
0000
0000
0000
,
0000
0000
0000
0000
0000
0000
0000
0001
,
0000
0000
0000
0010
0000
0000
0000
0000
,
0000
0000
0000
0000
0000
0000
0000
0010
,
0000
0000
0000
0100
0000
0000
0000
0000
,
0000
0000
0000
0000
0000
0000
0000
1000
,
0000
0000
0000
0100
0000
0000
0000
0000
,
0000
0000
0000
0000
0000
0000
0000
0001
,
0000
0000
0000
1000
0000
0000
0000
0000
,
0000
0000
0000
0000
0000
0000
0000
2000
,
0000
0000
0000
0000
,
0000
0000
0000
3000
0000
0000
0000
0002
,
0000
0000
0000
0000
,
0000
0000
0000
0003
0000
0000
0000
0020
,
0000
0000
0000
0000
,
0030
0000
0000
0000
0000
0000
0000
0200
,
0000
0000
0000
0000
,
0000
0000
0300
0000
0000
0000
0000
0001
,
0000
0000
0000
1000
0000
0000
0000
0001
,
0000
0000
0000
0000
0000
0000
0000
0010
,
0000
0000
0000
0100
0000
0000
0000
0010
,
0000
0000
0000
0000
0000
0000
0000
1000
,
0000
0000
0000
0010
0000
0000
0000
2000
,
0000
0000
0000
0000
0000
0000
3000
0001
,
0000
0000
0000
1000
0000
0000
0000
0001
,
0000
0000
0000
1000
0000
0000
0000
0010
,
0000
0000
0000
0100
0000
0000
0000
0010
,
0000
0000
0000
0000
0000
0000
0000
1000
,
0000
0000
0000
0100
0000
0000
0000
0010
,
0000
0000
0000
0001
0000
0000
0000
1000
,
0000
0000
0000
0100
0000
0000
0000
0010
,
0000
0000
0000
0000
0000
0000
0000
0010
,
0000
0000
0000
0100
0000
0000
0000
0010
,
0000
0000
0000
0100
0000
0000
0000
0001
,
0000
0000
0000
1000
0000
0000
0000
0001
,
0000
0000
0000
0000
0000
0000
0000
1000
,
0000
0000
0000
0001
0000
0000
0000
1000
,
0000
0000
0000
0000
0000
0000
0000
0100
,
0000
0100
0000
0100
0000
0000
0000
0000
,
0000
0000
0000
0000
0000
0000
0000
0010
,
0000
0010
0000
0010
0000
0000
0000
0000
,
0000
0000
0000
0000
0000
0000
0000
0001
,
0000
0001
0000
0001
0000
0000
0000
0000
,
0000
0000
0000
0000
0000
0000
0000
1000
,
0000
1000
0000
1000
0000
0000
0000
0000
,
0000
0000
0000
0000
0000
0000
0000
0110
,
0000
0000
0000
0000
,
0000
0000
0000
0000
0000
0000
0000
0001
,
0000
0000
0000
0000
,
0000
0000
0000
0000
0000
0000
0000
1000
,
0000
0000
0000
0000
,
0000
0000
0000
0000
,
0000
0010
0000
0000
0000
0100
0000
0000
,
0000
0010
0000
0000
0000
0000
0000
0000
,
0000
0001
0000
0000
0000
0010
0000
0000
,
0000
0001
0000
0000
0000
0000
0000
1000
,
0000
0000
0000
0100
0000
0000
0000
1000
,
0000
0000
0000
0000
0000
0000
0000
0010
,
0000
0000
0000
0010
0000
0000
0000
0100
,
0000
0000
0000
0000
0000
0000
0000
1000
,
0000
0000
0000
0001
0000
0000
0000
1000
,
0000
0000
0000
0000
0000
0000
0000
0010
,
0000
0000
0000
0100
0000
0000
0000
0010
,
0000
0000
0000
0000
0000
0000
0000
2002
,
0000
0000
0000
0000
,
0000
0000
0000
0000
,
0000
0000
0000
3003
;

//--------------- dance-single - XLev450X-BSP ----------------
#NOTES:
     dance-single:
     XLev450X:
     Easy:
     5:
     0,0,0,0,0:
0000
0000
0000
0000
,
0000
0000
0000
0000
,
0000
0000
0000
0000
,
0000
0000
0000
0000
,
0000
0000
0000
0000
,
0000
0000
0000
0000
0000
0000
0000
0001
,
0000
0000
0000
1000
0000
0000
0000
0001
,
0000
0000
0000
0010
0000
0000
0000
0100
,
0000
0000
0000
0010
0000
0000
0000
0001
,
0000
0000
0000
0000
0000
0000
0000
2000
,
0000
0000
0000
0000
,
0000
0000
0000
3001
0000
0000
0000
0001
,
0000
0001
0000
0010
0000
0000
0000
1000
,
0000
1000
0000
0100
0000
0000
0000
0001
,
0000
0000
0000
1000
0000
0000
0000
0001
,
0000
0000
0000
0010
0000
0000
0000
0100
,
0000
0010
0000
0100
0000
0000
0000
1000
,
0000
1000
0000
0100
0000
0000
0000
0001
,
0000
0000
0000
1000
0000
2002
0000
0000
,
0000
0000
0000
3003
0000
0000
0000
0010
,
0000
0000
0000
0010
0000
0000
0000
0001
,
0000
0000
0000
0000
0000
0000
0000
0100
,
0000
0000
0000
1000
0000
0000
0000
0100
,
0000
0000
0000
0000
0000
0000
0000
0010
,
0000
0000
0000
1000
0000
0000
0000
0010
,
0000
0000
0000
0000
0000
0000
0000
0001
,
0000
0000
0000
0100
0000
0000
0000
0001
,
0000
0000
0000
0000
0000
0000
0000
0001
,
0000
0000
0000
1000
0000
0000
0000
0001
,
0000
0000
0000
0010
0000
0000
0000
1000
,
0000
0000
0000
0100
0000
0000
0000
0010
,
0000
0000
0000
0000
0000
0000
0000
0001
,
0000
0000
0000
0100
0000
0000
0000
1000
,
0000
0000
0000
0010
0000
0000
0000
1000
,
0000
0000
0000
0001
0000
0000
0000
0100
,
0000
0000
0000
0000
0000
0000
0000
0002
,
0000
0000
0010
0000
0000
0020
0000
0000
,
0000
0000
0000
0033
0000
0000
0000
2000
,
0000
0000
0100
0000
0000
0200
0000
0000
,
0000
0000
0000
3300
0000
0000
0000
2002
,
0000
0000
0000
0000
3003
0000
0000
0001
,
0000
0000
0000
0010
0000
0000
0000
1000
,
0000
0000
0010
0000
0000
0002
0000
0000
,
0000
0000
0000
1003
0000
0000
0000
0010
,
0000
0000
0000
0001
0000
0000
0000
0010
,
0000
0000
0000
0000
0000
0000
0000
1000
,
0000
0000
0000
0100
0000
0000
0000
1000
,
0000
0000
0000
0000
0000
0000
0000
1000
,
0000
0001
0000
1000
0000
0001
0000
0000
,
0000
2002
0000
0000
0000
0000
3003
0001
,
0000
1000
0000
0010
0000
0100
0000
0001
,
0000
1000
0000
0100
0000
0010
0000
0001
,
0000
1000
0001
0100
0010
1000
0100
0001
,
0000
0000
0000
0001
0000
0100
0000
1000
,
0000
0100
0000
0001
0000
0010
0000
0100
,
0000
0001
0000
0100
0000
1000
0000
1001
,
0000
0000
0110
0000
0000
2002
0000
0000
,
0000
3003
0000
0220
0000
0330
0000
0001
,
0000
1000
0000
0010
0000
0100
0000
1000
,
0000
0010
0000
0100
0000
0001
0000
0001
,
0010
0001
0000
1000
0010
1000
0000
0100
,
0000
1000
0000
0001
0000
0000
0000
1000
,
0000
0000
0100
0000
0000
0010
0000
0100
,
0000
0010
0000
2002
0000
0000
3003
0001
,
0000
1000
0000
0010
0000
0000
0000
1000
,
0000
0100
0000
0001
0000
0010
0000
0100
,
0000
0010
0000
1000
0000
0000
0000
0001
,
0000
1000
0000
0001
0000
0000
0000
0010
,
0000
0000
0000
1000
0000
0000
0000
0100
,
0000
0010
0000
0100
0000
0000
0000
0001
,
0000
0000
1000
0000
0000
0002
0000
0000
,
0000
0000
0000
0103
0000
0000
0000
2000
,
0000
0100
0000
0000
0000
0100
0000
0000
,
0000
0100
0000
3100
0000
0000
0000
0010
,
0000
0000
0000
0001
0000
0000
0000
1000
,
0000
0000
0000
0000
0000
0000
0000
0100
,
0000
0000
0000
0001
0000
0000
0000
2000
,
0000
0000
0000
3000
,
0000
0010
0000
1000
0000
0001
0000
0000
,
0000
0100
0000
0010
0000
0001
0000
1001
,
0000
0000
0110
0000
0000
1001
0000
0000
,
0000
0000
0000
1000
0001
1000
0000
0010
,
0000
0100
0000
0010
0000
1000
0000
0001
,
0000
1000
0000
0010
0000
0100
0000
0010
,
0000
1000
0000
0010
0000
0001
0000
0010
,
0000
1000
0000
0100
0000
0010
0000
0001
,
0000
0101
0000
0100
0000
0110
0000
0010
,
0100
0010
0000
0010
1000
0010
0000
1010
,
0000
0101
0000
0011
0000
1100
0000
1000
,
0000
0000
0000
0001
0000
0000
0000
2002
,
0000
0000
0000
0000
,
0000
0000
0000
0000
,
0000
0000
0000
3003
;

//--------------- dance-single - XLev450X-DSP ----------------
#NOTES:
     dance-single:
     XLev450X:
     Medium:
     9:
     0,0,0,0,0:
0000
0000
0000
0000
,
0000
0000
0000
0000
,
0000
0000
0000
0000
,
0000
0000
0000
0000
,
0000
0000
0000
0000
,
0000
0000
0000
0000
0000
0000
0000
0001
,
0000
0000
0000
1000
0000
0000
0000
0010
,
0000
1000
0000
0010
0000
0000
0000
0001
,
0000
0000
1000
0000
0000
0202
0000
0000
,
0000
0303
0000
0220
0000
0000
0330
0001
,
0000
1000
0000
0010
0000
0001
0000
0001
,
1000
0001
1000
0002
0000
0000
0003
1000
,
0000
0010
0000
1000
0000
0000
0000
0001
,
0000
0100
0000
0001
0000
1000
0001
1000
,
0000
0010
0000
1000
0000
0000
0000
0010
,
0000
0100
0000
0001
0000
0000
0000
1000
,
0000
0000
0001
0000
0000
1000
0000
0000
0010
0000
0100
0000
0000
0000
0010
0000
,
0000
1000
0000
0010
1000
0010
0000
0001
,
0000
1000
0000
0000
0001
0000
0000
0100
0000
0000
0010
0000
2000
0000
0000
0000
,
0000
0000
0000
0020
0000
0000
3030
0002
,
0000
0000
0000
0023
0000
0000
0000
0230
,
0000
0000
0000
0000
0300
0000
0000
2000
,
0000
0000
0000
3002
0000
0000
0000
0203
,
0000
0000
0000
0000
0300
0000
0000
0020
,
0000
0000
0000
2030
0000
0000
0000
3200
,
0000
0000
0300
0001
0000
0100
0000
0001
,
0000
0000
0000
1000
0000
0000
0000
2002
,
0000
0000
0000
0000
0000
3003
0000
0010
,
0000
1000
0000
0100
0000
0001
0100
0001
,
0000
1000
0000
0010
0000
0000
0000
1000
,
0000
0010
0000
0100
0000
0010
0100
0010
,
0000
1000
0000
0001
0000
0000
0000
1000
,
0000
0100
0000
1000
0000
0010
1000
0010
,
0000
0001
0000
0010
0000
0100
0000
0001
,
0000
1000
0001
1000
0000
0001
1000
0020
,
0000
0000
0000
0200
0000
0330
0000
0001
,
0000
0000
0100
0000
0000
2000
0000
0000
,
0000
0000
0000
0002
0000
0000
3003
0010
,
0000
0000
0001
0000
0000
0200
0000
0000
,
0000
0000
0000
0020
0000
0000
0330
1000
,
0000
0000
0000
0001
0000
0000
0000
0100
,
0000
0000
0000
0010
0000
0000
0000
0001
,
0000
0000
1000
0000
0000
0002
0000
0000
,
0000
0000
0000
2000
0000
0000
3003
0010
,
0000
1000
0000
0001
0000
0000
0000
0100
,
0000
1000
0000
0001
0000
1000
0010
1000
,
0000
0001
0000
0100
0000
1000
0000
0001
,
1000
0001
0000
0010
0100
0010
0000
1000
,
0000
0001
0000
0100
0000
0010
0001
2000
,
0000
0200
0000
3300
0000
1010
0000
0101
,
0001
0100
0001
0100
0010
1000
0010
0000
,
1010
0001
0011
2000
,
0000
3001
0001
0000
0010
0000
0100
0000
,
0000
0000
0100
0010
0001
0000
0010
0000
,
0001
1000
0001
1000
0010
1000
0002
0000
,
0000
1000
0000
0100
0000
1003
0000
1001
,
0000
0000
0110
0000
0000
1000
0001
0000
,
0000
0000
0000
0000
0001
0000
0010
0000
0000
0001
0000
0000
1000
0000
0000
0000
,
0000
0001
0000
0010
0000
0000
1000
0000
,
0000
0100
0000
1000
0000
0001
0000
1000
,
0000
0100
0001
0000
1000
0000
0010
0000
,
0100
1000
0000
0001
0000
0010
0001
0010
,
0000
1000
0000
0100
0000
1000
0000
0001
,
1000
0001
0000
1001
0000
0000
0000
0001
,
0000
1000
0000
0010
0000
0000
0100
0000
,
1000
0001
0000
0100
0000
1000
0000
0010
,
0000
0001
0000
1000
0000
0010
1000
0000
,
0100
0000
0001
1000
0000
0010
0000
0001
,
0000
1000
0000
0001
0000
0100
1000
0000
,
0001
0100
0000
0010
0000
1000
0000
0001
,
0000
0000
0100
0000
0000
0010
0000
0000
,
0000
0000
0000
0100
0000
0000
0000
2002
,
0000
0000
0000
0000
,
0000
0000
0000
3003
0000
0000
0000
2000
,
0000
0000
0000
0100
0000
0000
0000
0200
,
0000
0000
0000
3300
0000
0000
0000
0002
,
0000
0000
0000
0010
0000
0000
0000
0020
,
0000
0000
0000
0000
0000
0033
0000
0000
,
0000
0001
0000
1000
0000
0010
0000
0000
,
0000
0100
0000
0001
0000
1000
0000
0110
,
0000
0000
1001
0000
0000
1000
0001
0000
,
0000
0000
0000
0000
0001
0000
0100
0000
0000
0001
0000
0000
0100
0000
0010
0000
,
0000
1000
0100
0000
0010
0000
0002
0000
,
0000
1000
0000
0100
0000
1000
0000
0023
,
0000
0000
0030
0000
0100
1000
0200
0000
,
0000
0000
0000
0300
0000
1000
0000
0001
,
0000
0100
0010
0100
0000
0010
1000
0010
,
0000
1000
0100
1000
0100
0010
0000
0001
,
0000
1000
0100
1000
0000
0001
0010
0001
,
0000
0000
0000
0100
0000
0010
0000
2002
,
0000
0000
0000
0000
,
0000
0000
0000
0000
,
0000
0000
0000
0000
0000
0000
0000
0000
0000
3003
0000
0000
0220
0000
0000
0000
,
0000
0000
0000
0330
;

//--------------- dance-single - XLev450X-ESP ----------------
#NOTES:
     dance-single:
     XLev450X:
     Hard:
     12:
     0,0,0,0,0:
0000
0000
0000
0000
,
0000
0000
0000
0000
,
0000
0000
0000
0000
,
0000
0000
0000
0000
,
0000
0000
0000
0000
,
0000
0000
0000
0000
0000
0000
0000
0011
,
0000
1001
0000
0010
0000
1000
0010
0000
,
0100
1000
0000
0001
0000
0010
0000
1000
,
0000
0001
0100
0000
0010
1000
0020
0000
,
0000
0000
0000
0200
0000
0000
0330
0001
,
0000
1000
0000
0010
0000
1000
0000
0001
,
0010
0100
1000
0001
0000
0000
0000
1000
,
0000
0100
0000
0010
1000
0000
0001
0000
,
0010
0100
0000
1000
0000
0001
0000
0001
,
1000
0010
1000
0001
0100
1000
0001
0000
,
0010
1000
0000
0001
0000
0100
0000
0001
,
0000
1000
0010
0100
0000
1000
0001
0000
,
0000
1000
0000
0001
0000
0100
0000
1000
,
0000
0001
0100
0000
0010
2000
0000
0000
,
0000
0000
3000
0202
0000
0000
0303
0002
,
0000
0000
0000
0000
0000
0000
0000
1000
,
0000
0000
0000
0000
0000
0000
0003
2000
,
0000
0000
0000
0000
0000
0000
0000
0010
,
0000
0000
0000
0000
0000
0000
3000
0020
,
0000
0000
0000
0000
0000
0000
0000
0100
,
0000
0000
0000
0000
0000
0000
0030
0200
,
0000
0000
0000
0000
0000
0000
0000
0001
,
0000
0000
0000
0020
0000
0000
0330
0000
,
0000
0001
0000
1000
0000
0010
0000
1000
,
0000
0000
0000
0100
0000
0001
0000
0010
,
0000
0100
0000
1000
0000
0010
1000
0010
,
0000
0100
0000
0001
0000
0000
0000
0001
,
0000
0010
0000
1000
0000
0001
1000
0001
,
0000
0010
0000
1000
0000
0100
0000
0010
,
0000
1000
0001
0010
0000
1000
0000
0001
,
0000
0000
0000
0100
0000
0000
0000
1000
,
0000
0000
0001
0000
0000
0100
0000
0000
,
0000
0000
0000
0000
0000
0000
0000
1000
,
0000
0000
0010
0000
0000
0100
0000
0000
,
0000
0000
0000
1001
0000
0000
0000
0001
,
0000
1000
0000
0010
0000
1000
0010
1000
,
0000
0001
0000
0100
0000
1000
0000
0001
,
0000
0000
0000
0000
0000
0000
0100
0000
0000
0000
0000
0000
0000
0000
0000
0010
0000
0000
0000
0000
0001
0000
0000
0000
,
0000
0100
0001
0000
0000
0000
0100
0000
0000
0000
0000
0000
0000
0000
0001
0000
,
0000
1000
0000
0010
0000
1000
0000
0010
,
0000
0000
1000
0000
0000
0000
0100
0000
0000
0000
1000
0000
0010
0001
0010
0000
,
0001
0010
0100
1000
0100
1000
0001
0010
,
1000
0001
1000
0001
1000
0000
0100
0010
0100
0000
0010
0100
0010
0000
0001
0000
,
0001
0000
0010
0000
0100
0000
1000
0000
0001
0000
0010
0000
0100
0000
2000
3000
,
0000
2002
0000
0000
3003
0010
0000
1000
,
0000
0010
1000
0001
0100
0000
0010
0000
,
1000
0001
0100
0002
,
0003
1000
0010
0000
1000
0000
0002
0000
,
0000
1000
0000
0000
0013
0000
0000
1000
,
0000
0001
0000
0100
0000
1000
0001
0000
,
0010
1000
0000
0001
0000
0100
0000
1000
,
0001
0000
0100
1000
0000
0001
1000
0000
,
0000
0000
0000
0000
0010
0100
1000
0000
0001
0000
0000
0100
0000
0000
0010
0000
,
0000
0001
0000
1000
0000
0010
0100
1000
,
0000
0001
0000
0010
0000
1000
0000
0100
,
0000
0001
1000
0000
0010
0000
1000
0000
,
0100
1000
0000
0001
0000
0010
0001
1000
,
0000
0001
0000
0100
0000
1000
0000
0001
,
1000
0001
1000
0010
0000
0000
0000
1000
,
0000
0100
0000
1000
0010
0000
0100
0000
,
1001
0000
0000
0100
0000
1000
0000
0001
,
0000
1000
0000
0100
0001
0000
1000
0000
,
0010
0100
0000
1000
0000
0001
0000
0100
,
1000
0000
0001
0100
0000
0010
1000
0000
,
0001
1000
0000
0010
0000
0100
0000
1000
,
0000
0000
0010
0000
0000
2002
0000
0000
,
0000
0000
0000
3003
0000
0000
0000
0220
,
0000
0000
0000
0000
,
0000
0000
0000
0330
0000
0000
0000
2000
,
0000
0000
0000
0001
0000
0000
0000
0001
,
0000
0001
0000
3001
0000
0000
0000
0020
,
0000
0000
0000
0100
0000
0000
0000
0100
,
0000
0100
0000
0130
0000
0000
0000
2100
,
0000
0001
0000
0000
0000
3010
0000
0102
,
0000
1000
0000
0000
0000
0013
0000
1001
,
0000
0000
0110
0000
0000
0001
1000
0000
,
1000
0000
0001
0000
1000
0000
0100
0000
1000
0100
1000
0000
0001
0000
0010
0000
,
0000
0100
0010
0001
0010
0100
0010
0000
,
0010
0001
0000
1000
1000
0001
0000
1001
,
0000
0001
0100
0000
1000
0100
0001
0000
,
0010
1000
0000
0010
0010
0100
0100
0110
,
0000
1001
0000
0101
0000
0011
0000
1100
,
0000
0001
0001
0000
0010
0110
0000
1001
,
0000
1001
0000
1100
0000
0101
0000
1010
,
0000
0101
0000
1001
0000
0001
0000
2010
,
0000
0001
0000
0100
0000
0001
0001
0000
,
0010
0000
0001
0000
0100
0000
3002
0100
,
0000
1000
0000
0010
0000
1000
2000
0000
,
0000
0000
0000
3003
;

//--------------- dance-single - XLev450X†-CSP ----------------
#NOTES:
     dance-single:
     XLev450X†:
     Challenge:
     15:
     0,0,0,0,0:
0000
0000
0000
0000
,
0000
0000
0000
0000
,
0000
0000
0000
0000
,
0000
0000
0000
0000
,
0000
0000
0000
0000
,
0000
0000
0000
0000
0000
0000
0000
0001
,
0000
1000
0000
0110
0000
0001
0010
0000
,
0100
1000
0000
0001
0000
0010
0000
0100
,
0000
1000
0000
0000
0001
0000
0100
0000
0010
0000
1000
0000
0020
0000
0000
0000
,
0000
0000
0000
0230
0000
0000
0300
0001
,
0000
1000
0000
0010
0000
1000
0000
0010
,
0001
0000
0010
0000
0100
0000
0100
0000
0000
0000
0001
1000
0001
1000
0001
0000
,
0000
0010
0000
1000
0100
0000
0001
0000
,
0010
0001
0000
1000
0000
0010
0000
0001
,
0100
0001
0010
1000
0100
0001
0010
0000
,
1000
0001
0010
1000
0000
0001
0000
0100
,
0000
0001
0000
0000
1000
0000
0010
0000
0000
0000
0001
0000
1000
0000
0000
0000
,
0010
0100
0000
0011
0000
1100
0000
0010
,
0000
0000
0000
1000
0000
0000
0000
0000
0000
0000
0000
0000
0001
0000
0000
0000
0000
0000
0100
0000
0000
0000
0000
0000
0000
0000
0000
0000
0000
0000
1000
0000
0000
0000
0000
0000
0000
0000
0000
0000
0000
0000
1000
0000
0001
0000
0000
0000
,
1000
0000
0001
0000
1000
0000
0001
0000
0000
1000
0000
0000
0010
0000
0000
0001
0000
0000
0000
0000
0000
0020
0000
0000
,
0000
0000
0000
0000
,
0000
0000
0000
0000
0000
0000
0030
2000
,
0000
0000
0000
3002
0000
0000
0000
0203
,
0000
0000
0000
0000
0000
0000
0300
0020
,
0000
0000
0000
0000
0000
0000
0030
2000
,
0000
0000
0000
0000
0000
3000
0000
0002
,
0000
0000
0000
0203
0000
0000
0000
2300
,
0000
0000
0000
3020
0000
0000
0030
0001
,
0000
0010
1000
0000
0000
0010
1000
0000
,
0001
0010
0000
0100
0000
1000
0000
0001
,
0000
1000
0000
0000
0001
0000
0000
0100
0000
0000
0010
0000
0001
0000
1000
0000
,
0000
0000
0010
1000
0000
0010
0000
0001
,
0000
0100
0001
1000
0000
0010
0000
0100
,
0000
1000
0010
1000
0000
0011
0000
1100
,
0000
0000
0000
0001
0000
1000
0000
0010
,
0000
0000
0000
1000
0000
0000
0000
1001
,
0000
0000
0000
0000
1010
0000
0000
0000
0000
0000
0100
1000
0010
0100
0001
1000
,
0100
1000
0100
1000
0001
0100
0020
0000
0000
0000
0000
0030
0000
0000
1100
0000
,
0000
0000
0000
0000
0011
0000
0000
0000
0000
0000
0010
1000
0001
0010
0100
0010
,
0100
0000
0000
0000
0000
0010
0000
0000
0000
0000
0000
0001
0000
0000
0000
0000
1000
0000
0000
0000
0000
0010
0000
0000
0200
0000
0000
0000
0000
0000
0000
0000
0000
0000
0000
0000
0000
0000
0000
0000
0000
0000
0000
0000
0000
0000
0000
0000
0300
0000
0000
0000
0000
0000
0000
0000
0002
0000
0000
0000
0000
0000
0000
0000
,
0000
0000
0000
0000
0000
0000
0000
2000
,
0000
0000
3003
0020
0000
0000
0030
0200
,
0300
0000
0000
0000
0000
0000
0000
0000
0000
0000
0000
0000
0000
0000
0000
0000
0000
0000
0000
0000
0000
0000
0000
0000
0000
0000
0000
0000
0000
0000
0000
0000
0000
0000
0000
0000
0000
0000
0000
0000
0000
0000
0000
0000
0000
0000
0000
0000
0202
0000
0000
0000
0000
0000
0000
0000
0000
0000
0000
0000
0000
0000
0000
0000
0000
0000
0000
0000
0000
0000
0000
0000
0303
0000
0000
0000
0000
0000
0000
0000
0000
0000
0000
0000
0000
0000
0000
0000
0000
0000
0000
0000
0000
0000
0000
0000
0000
0000
0000
0000
0000
0000
0000
0000
0000
0000
0000
0000
0000
0000
0000
0000
0000
0000
0000
0000
0000
0000
0000
0000
1000
0000
0000
0000
0000
0000
0000
0000
0000
0000
0000
0000
0000
0000
0000
0100
0000
0000
0000
0000
0000
0000
0000
0000
0000
0000
0000
0000
0000
0000
0000
0000
0010
0000
0000
0000
0000
0000
0000
0000
0000
0000
0000
0000
0000
0000
0000
0000
0000
0000
0000
0000
0000
0000
0000
0000
0001
0000
0000
0000
0000
0000
0000
0000
0000
0000
0000
0000
0000
0000
0000
0000
,
1000
0000
0000
0000
0000
0000
0000
0000
0000
0000
0000
0000
0000
0000
0000
0000
0000
0000
0000
0000
0000
0100
0000
0000
0000
0000
0000
0000
0000
0000
0000
0000
0000
0000
0000
0000
0000
0000
0000
0000
0010
0000
0000
0000
0000
0000
0000
0000
0000
0000
0000
0000
0000
0000
0000
0000
0000
0000
0000
0000
0000
0000
0000
0000
0001
0000
0000
0000
0000
0000
0000
0000
0000
0000
0000
0000
0000
0000
0000
0000
0010
0000
0000
0000
0000
0000
0000
0000
0000
0000
0000
0000
0000
0000
0000
0000
0000
0000
0000
0000
0000
0000
0000
0000
0000
0000
0000
0000
0000
0000
0000
0000
0000
0000
0000
0000
0000
0000
0000
0000
0001
0000
0000
0000
0000
0000
0000
0000
0000
0000
0000
0000
0000
0000
0000
0000
0000
0000
0000
0000
0000
0000
0000
0000
0100
0000
0000
0000
0000
0000
0000
0000
0000
0000
0000
0000
0000
0000
0000
0000
0000
0000
0000
0000
0000
0000
0000
0000
1000
0000
0000
0000
0000
0000
0000
0000
0000
0000
0000
0000
0000
0000
0000
0000
0000
0000
0000
0000
0000
0000
0000
0000
,
0000
0001
0000
1000
0000
0010
0000
0100
,
0010
0001
0000
1000
0000
0010
0000
0001
,
1000
0000
0010
0000
0100
0000
0001
0000
1000
0000
0010
0000
0100
0000
0001
0010
,
0100
1000
0100
0010
0001
0010
0100
1000
0100
0010
0001
0000
0000
0000
0001
1000
,
0001
1000
0001
0000
1000
0010
1000
0010
1000
0000
0001
0010
0001
0010
0002
0000
,
0000
1000
0000
0000
0000
1003
0000
1001
,
0001
0010
0100
1000
0010
0100
0101
0000
,
0011
0000
1100
0000
1010
0000
0100
0002
,
0000
0013
0100
0000
1100
0000
1001
0000
,
0000
0000
0001
1000
0010
0002
0003
1000
,
0001
1000
0010
0001
1000
0010
0100
0000
,
1000
0001
0000
0010
0000
1000
0000
0001
,
0000
0100
0000
0000
1000
0000
0001
0000
1000
0000
0001
0000
0200
0000
0000
0000
,
0310
0000
0000
0000
0000
0000
0000
0000
0001
0000
0000
0000
0000
0000
0000
0000
1000
0000
0000
0000
0001
0000
0000
0000
1000
0000
0000
0000
0000
0000
0000
0000
0100
0000
0000
0000
0000
0000
0000
0000
0000
0000
0000
0010
0000
0000
0000
0000
0000
0000
0000
0000
0001
0000
0000
0000
0010
0000
0000
0000
0000
0000
0000
0000
,
0000
0110
0100
1000
0010
0110
0100
0000
,
0001
0011
0000
0100
1000
1001
0000
1010
,
0000
0100
0001
0000
0011
0000
1100
0000
,
1000
0010
0000
0100
0001
1001
0000
0001
,
0000
0000
1000
0000
0010
0000
0000
0000
0100
0000
1000
0100
0001
1000
0001
0010
,
0100
0000
0000
0000
0001
0000
0000
0000
1000
0000
0000
0000
0001
0000
0000
0010
0000
0000
0200
0000
0000
0000
0000
0000
0000
0000
0000
0000
0000
0000
0000
0000
0000
0000
0000
0000
0300
0000
0000
0000
0000
0000
0001
0000
0000
0000
0000
0000
,
0000
1000
0000
0010
1000
0000
0001
0000
,
0010
0001
1000
0010
1000
0001
0100
1000
,
0000
0001
0000
0010
1000
0000
0010
0000
,
0100
1000
0001
1000
0000
0001
0000
1000
,
0000
1000
0000
0010
1000
0010
0100
0000
,
1000
0001
1000
0001
0000
1000
0000
0010
,
1000
0000
0001
0100
0100
0020
0000
0000
,
0000
0000
0000
0130
0000
0000
0000
2002
,
0000
0000
0000
0000
,
0000
0000
0000
3003
0000
0000
0000
2001
,
0000
0000
0000
0000
,
0000
0000
0000
0000
3000
0000
0000
0020
,
0000
0000
0000
0000
0000
0000
0000
0230
,
0000
0000
0000
0000
0301
0000
1000
0000
0001
0000
0000
0000
0000
0000
1000
0100
,
1000
0000
0001
0010
0001
0000
1000
0010
1000
0000
0001
0100
0001
0000
1000
0001
,
1000
0001
1000
0001
1000
0000
0010
0100
0010
0100
0010
0100
0010
0000
1000
0000
,
1000
0000
1000
0000
0001
0000
0001
0000
0001
1000
0001
0000
0000
0000
0000
0000
,
1000
0000
0010
0000
0000
0000
0100
0000
0001
0010
0000
0000
0100
1000
0010
0000
,
0000
0110
0100
0001
0010
0110
0100
0000
,
1000
1010
0000
0100
0001
1001
0000
0011
,
0000
0100
1000
0000
1010
0100
0001
0000
,
0010
0100
0000
1000
0010
0110
0000
0101
,
0000
1001
0000
1100
0010
0001
0010
0110
,
0000
0000
1100
0000
1001
0000
0000
0000
0001
0000
0010
0001
0010
0000
0110
0000
,
0000
1100
0000
1010
0000
0101
0000
1001
,
1000
0001
1000
0001
1000
0001
1000
0001
1000
0001
1000
0000
0000
0000
0001
0000
,
1000
0010
0100
0010
1000
0001
0010
1000
,
0001
0100
1000
0010
1000
0001
0100
1000
,
0010
1000
0001
1000
0010
1000
0220
0000
,
0000
0000
0000
0330
;
