#TITLE:Fool in Love;
#ARTIST:Tom Orlando feat. Mary Dee;
#MUSIC:Fool in Love.ogg;
#BANNER:Fool in Love.png;
#BACKGROUND:Fool in Love-bg.png;
#SAMPLESTART:58.181;
#SAMPLELENGTH:15;
#SELECTABLE:YES;
#OFFSET:-0.078;
#BPMS:0.000=165.1;
#DISPLAYBPM:165;
#BGSTAGE:4;

//--------------- dance-single - XLev450X-bSP ----------------
#NOTES:
     dance-single:
     XLev450X:
     Beginner:
     2:
     0.119979,0.19935,0.073833,0,0,91,83,8,0,0,0,0.119979,0.19935,0.073833,0,0,91,83,8,0,0,0:
0000
0000
0000
0000
,
0000
0000
0000
0000
,
0000
0000
0000
0000
,
0000
0000
0000
0000
,
0000
0000
0000
0000
,
0000
0000
0000
0000
,
0000
0000
0000
0000
,
0000
0000
0000
0000
,
1000
0000
0000
0000
,
0000
0000
0000
0000
,
0010
0000
0000
0000
,
0000
0000
0000
0000
,
0100
0000
0000
0000
,
0000
0000
0000
0000
,
0001
0000
0000
0000
,
0000
0000
0000
0000
,
0100
0000
0100
0000
,
0100
0000
0000
0000
,
0010
0000
0010
0000
,
0010
0000
0000
0000
,
1000
0000
1000
0000
,
1000
0000
0000
0000
,
0001
0000
0001
0000
,
0001
0000
0000
0000
,
0100
0000
0010
0000
,
1000
0000
0001
0000
,
0100
0000
0010
0000
,
1000
0000
0000
0000
,
0100
0000
0000
0000
,
0010
0000
0001
0000
,
0100
0000
0000
0000
,
1000
0000
0010
0000
,
0100
0000
0000
0000
,
0001
0000
0100
0000
,
0010
0000
1000
0000
,
0100
0000
0010
0000
,
0001
0000
0000
0000
,
1000
0000
1000
0000
,
1000
0000
0000
0000
,
0100
0000
0100
0000
,
0100
0000
0000
0000
,
0010
0000
0100
0000
,
0001
0000
1000
0000
,
0001
0000
0100
0000
,
0010
0000
0000
0000
,
0001
0000
1000
0000
,
0001
0000
0000
0000
,
0100
0000
0010
0000
,
1000
0000
0100
0000
,
0010
0000
1001
0000
,
0100
0000
0000
0000
,
0010
0000
0110
0000
,
0001
0000
0000
0000
,
0100
0000
0011
0000
,
0100
0000
1000
0000
,
0010
0000
0100
0000
,
0001
0000
0000
0000
,
1000
0000
0000
0000
,
0100
0000
0000
0000
,
0010
0000
0000
0000
,
0001
0000
1000
0000
,
0100
0000
0000
0000
,
0010
0000
0000
0000
,
0100
0000
0000
0000
,
2002
0000
0000
0000
,
0000
0000
0000
3003
,
2200
0000
0000
0000
,
0000
0000
0000
3300
,
0022
0000
0000
0000
,
0000
0000
0000
0033
,
0220
0000
0000
0000
,
0000
0000
0000
0000
,
0330
0000
0000
0000
;

//--------------- dance-single - XLev450X-BSP ----------------
#NOTES:
     dance-single:
     XLev450X:
     Easy:
     6:
     0.217545,0.325329,0.009229,0,0.041531,165,164,1,0,0,0,0.217545,0.325329,0.009229,0,0.041531,165,164,1,0,0,0:
0000
0000
0000
0000
,
0000
0000
0000
0000
,
0000
0000
0000
0000
,
0000
0000
0000
0000
,
0000
0000
0000
0000
,
0000
0000
0000
0000
,
0000
0000
0000
0000
,
0000
0000
0000
0000
,
1000
0010
0100
0001
,
1000
0000
0010
0000
0100
0010
0100
0000
,
0001
1000
0010
0001
,
0100
0000
0001
0000
1000
0010
1000
0000
,
0010
0100
0001
1000
,
0100
0000
0001
0000
,
0001
1000
0001
0100
,
0001
0000
0010
1000
,
0100
0000
1000
0001
,
1000
0100
0010
0000
,
0001
0000
0100
1000
,
0010
0100
0001
0000
,
0100
0000
0010
0000
,
1000
0010
0001
0000
,
0100
0010
1000
0010
,
0000
0100
0010
0100
,
0001
2000
3000
0010
,
0100
0010
0001
0001
,
0001
0000
1000
0010
,
0100
0010
1000
0000
,
0001
0010
0001
0010
,
0100
0001
1000
0000
,
0100
0000
0100
0000
,
0010
0000
0100
0000
0010
1000
0010
0000
,
0001
1000
0001
1000
,
0001
0010
0001
0000
,
1000
0001
1000
0001
,
0100
0000
0010
0000
0100
0001
0100
0000
,
0001
1000
0100
0100
,
0000
0010
1000
0010
,
0000
0001
0100
0001
,
1000
0001
0100
0000
,
0010
0000
0010
0000
,
0100
0000
0000
0000
0001
1000
0001
0000
,
0100
0010
0100
0000
,
0001
0100
0001
0000
,
0010
0000
0001
0000
,
0100
0010
0100
0000
,
0001
0001
0001
1000
,
1000
1000
0220
0330
,
0010
1000
0010
0010
,
0200
0300
2002
3003
,
0100
0010
0100
1000
,
0010
1000
2002
3003
,
0001
0100
0010
1000
,
0020
0030
2002
3003
,
0010
0001
0100
0000
,
1000
0100
0001
0000
,
1000
0000
0100
0000
,
0010
0000
0001
0000
,
0100
0001
1000
0010
,
0000
1000
0001
0000
,
0001
0000
0100
0000
,
0010
0000
0001
0100
0001
0000
0000
0000
,
1000
0001
0100
0000
,
0100
0010
1000
0000
,
0001
0000
0000
0010
0000
0000
2000
0000
,
0000
0000
0000
3000
,
0100
0000
0000
0001
0000
0000
0200
0000
,
0000
0000
0000
0300
,
1000
0000
0000
0010
0000
0000
2000
0000
,
0000
0000
0000
3000
,
0101
0000
0000
1010
0000
0000
2002
0000
,
0000
0000
0000
0000
,
3003
0000
0000
0000
;

//--------------- dance-single - XLev450X-DSP ----------------
#NOTES:
     dance-single:
     XLev450X:
     Medium:
     10:
     0.436408,0.631276,0.230729,0.138438,0.046146,331,306,25,15,0,0,0.436408,0.631276,0.230729,0.138438,0.046146,331,306,25,15,0,0:
0000
0000
0000
0000
,
0000
0000
0000
0000
,
0000
0000
0000
0000
,
0000
0000
0000
0000
,
0000
0000
0000
0000
,
0000
0000
0000
0000
,
0000
0000
0000
0000
,
0000
0000
0000
0000
,
1000
0100
0000
0100
0010
0000
0110
0000
,
0100
1000
0000
0100
0001
0000
1001
0000
,
0100
0010
1000
0000
0010
0100
0001
0100
,
1000
0100
0010
1001
,
0001
0000
1000
0010
0100
0000
1000
0000
,
0001
0000
0000
0100
0000
0000
0010
0000
0200
0000
0300
0000
0010
0000
0000
0000
,
0100
0000
0010
0000
1000
0010
1000
0000
,
0001
0000
0100
0000
0010
0100
0000
0000
,
1000
0100
0000
0010
0001
0000
0001
0010
,
0100
1000
0200
0300
0010
0000
1000
0000
,
0010
0001
0100
0010
0100
1000
0010
0100
,
0001
1000
0100
0010
,
1000
0000
0000
1000
0000
0000
1000
0000
0001
0000
0000
0001
0000
0000
0001
0000
,
0100
0000
0000
0100
0000
0000
0100
0000
0020
0000
0030
0000
0100
0000
0000
0000
,
1000
0100
0000
0010
0001
0100
0000
0100
,
0010
0000
1000
0010
0100
0000
0001
0000
,
1000
0100
0010
0000
,
0100
0001
1000
0010
,
0100
1000
0001
0000
1000
0000
0010
0000
,
0100
0010
0001
0000
1000
0100
0000
0000
,
0100
1000
0010
0001
0010
0100
1000
0010
,
0100
0000
0000
0100
0000
0000
0100
0000
0020
0000
0030
0000
0100
0000
0000
0000
,
0010
0000
1000
1000
0001
0000
0100
0000
,
0010
1000
1001
0110
,
1000
0001
1000
0010
,
0100
0000
0001
0010
0100
1000
0100
0000
,
0010
1000
0001
0100
,
0010
1000
1100
0011
,
0010
0001
1000
0000
0100
1000
0010
0010
,
0000
0000
1001
0110
1001
0110
1001
0000
,
0000
0000
0001
0000
1000
0100
0001
0010
,
0100
0010
1000
0001
,
0010
0100
0001
1000
0100
0001
0010
0100
,
1000
0010
0000
0100
1000
0010
0100
1000
,
0001
0000
0000
0000
0010
0000
0000
1000
0000
0000
0100
0000
0001
0000
0000
0000
,
0010
0000
0000
1000
0000
0000
0001
0000
0100
0000
0000
0000
1000
0000
0000
0000
,
0010
0100
0000
1000
0100
0010
0001
0000
,
0010
0000
0000
0010
0000
0000
0010
0000
1000
0000
0000
0000
0010
0000
0000
0000
,
0100
1000
0001
0000
1000
0001
0010
0000
,
0100
1000
0001
0000
1000
0001
0010
0000
,
1000
0010
0100
0000
0010
0100
0001
0000
,
0100
0001
0100
0000
2002
0000
3003
0000
,
0100
0010
0001
0000
0010
0100
0010
0000
,
0100
0001
1000
0000
0202
0000
0303
0000
,
0010
0100
0010
0000
0001
1000
0001
0000
,
0010
1000
0010
0000
0200
0000
0300
0000
,
0001
0000
0000
0100
1000
0000
0100
0000
0010
0000
0000
0000
0001
0000
0000
0000
,
0100
0000
0010
0000
2000
0000
0000
3000
,
0001
0010
1000
0100
0000
1000
0001
0100
,
0000
0100
0010
1000
0001
0000
0010
0000
,
1000
0100
0001
0000
0100
0001
0010
0000
,
1000
0100
0001
0000
0100
0000
0010
0000
,
1000
0100
0001
0010
0100
0010
0000
0100
,
0010
0000
0000
0010
0000
0000
0010
0000
0200
0000
0000
0000
0000
0000
0300
0000
,
1000
0100
0000
0010
0001
0010
0000
0100
,
0000
0001
0000
1000
0000
0010
0100
0010
,
1001
0000
0000
0110
0000
0000
2002
0000
,
0000
0000
0000
3003
,
0110
0000
0000
1100
0000
0000
0022
0000
,
0000
0000
0000
0033
,
0110
0000
0000
1001
0000
0000
2200
0000
,
0000
0000
0000
3300
,
0110
0000
0000
0011
0000
0000
2002
0000
,
0000
0000
0000
0000
,
3003
0000
0000
0000
;

//--------------- dance-single - XLev450X-ESP ----------------
#NOTES:
     dance-single:
     XLev450X:
     Hard:
     13:
     0.47728,0.564826,0.073833,0.166125,0.119979,362,354,8,18,0,0,0.47728,0.564826,0.073833,0.166125,0.119979,362,354,8,18,0,0:
0000
0000
0000
0000
,
0000
0000
0000
0000
,
0000
0000
0000
0000
,
0000
0000
0000
0000
,
0000
0000
0000
0000
,
0000
0000
0000
0000
,
0000
0000
0000
0000
,
0000
0000
0000
0000
,
0000
0000
0001
1000
0100
1000
0100
0010
,
0001
0010
0001
0010
0100
1000
0010
0000
,
0000
0000
0001
0010
0001
0100
0001
0100
,
0010
0100
0001
0010
0100
0010
0100
0000
,
0000
0000
0100
0010
0100
1000
0001
0010
,
0100
0000
0000
1000
0000
0000
0100
0000
0010
0000
0000
0000
0100
0000
0010
0000
,
0001
0010
0100
0010
0001
1000
0100
0010
,
0100
0010
0001
0010
0100
1000
0010
0000
,
0000
0000
0100
0010
0100
0010
0001
0010
,
0100
1000
0020
0000
0030
0000
0001
0100
,
0001
0100
0010
0100
0001
0010
0001
0100
,
0001
0010
0100
0010
0100
0010
0001
0100
,
0010
0000
0010
0100
0001
0010
0100
0010
,
0001
1000
0100
1000
0001
1000
0100
0010
,
0100
1000
0100
0010
0001
1000
0010
1000
,
0100
0010
0001
0010
0001
0100
0002
0000
,
0003
1000
0010
0100
0000
0100
0001
0100
,
0010
1000
0100
0010
0100
0010
0001
0100
,
0010
1000
0100
0010
0001
0010
0100
1000
,
0001
0100
0001
1000
0010
1000
0100
0000
,
0000
0000
0001
0010
0100
1000
0100
0010
,
0100
0010
0001
1000
0001
0010
0001
1000
,
0010
0000
0001
0100
0010
1000
0010
0100
,
0010
0000
1000
0000
0100
0000
1000
0000
0001
1000
0010
1000
0001
0100
0001
1000
,
0000
0100
0001
0010
0100
1000
0001
0100
,
0001
0100
0010
1000
0100
0010
0100
1000
,
0001
1000
0001
0010
0100
1000
0010
1000
,
0010
1000
0100
0010
0100
1000
0001
0000
,
0000
1000
0010
1000
0001
1000
0010
0000
,
0000
0000
0100
1000
0001
0010
0001
0000
,
0000
0100
0001
1000
0010
0100
0010
1000
,
0000
1000
0100
1000
0100
0010
0001
0000
,
1100
0000
0000
0000
0001
0010
0100
1000
,
0000
0100
0000
0100
0010
1000
0100
0000
,
0101
0000
0011
1100
,
0000
0000
0001
1000
,
0010
0000
0000
0000
0000
0000
0000
0000
0200
0300
0000
0010
0001
0000
1000
0000
,
0001
0000
0000
0000
0000
0000
0000
0000
0000
0000
0000
0000
0000
0000
0000
0000
0000
0000
0000
0000
0000
0000
0000
0000
0000
0000
0000
0000
0000
0000
0000
0000
0000
0000
0000
0000
0000
0000
0000
0000
0000
0000
0000
0000
0000
0000
0000
0000
0000
0000
0000
0000
0000
0000
0000
0000
0000
0000
0000
0000
0000
0000
0000
0000
0000
0000
0000
0000
0000
0000
0000
0000
0010
0000
0000
0000
0000
0000
0000
0000
0000
0000
0000
0000
0000
0000
0000
0000
0000
0000
0000
0000
0000
0000
0000
0000
0002
0000
0000
0000
0000
0000
0000
0000
0000
0000
0000
0000
0000
0000
0000
0000
0000
0000
0000
0000
0000
0000
0000
0000
0000
0000
0000
0000
0000
0000
0000
0000
0000
0000
0000
0000
0000
0000
0000
0000
0000
0000
0000
0000
0000
0000
0000
0000
0000
0000
0000
0000
0000
0000
0000
0000
0000
0000
0000
0000
0000
0000
0000
0000
0000
0000
0000
0000
0000
0000
0000
0000
0000
0003
0000
0000
0000
0000
0000
0000
0000
0000
0000
0000
0000
0000
0000
0000
0000
0000
0000
0000
0000
0000
0000
0000
,
0200
0000
0000
0000
0000
0000
0000
0000
0000
0000
0000
0000
0000
0000
0000
0000
0000
0000
0000
0000
0000
0000
0000
0000
0000
0000
0000
0000
0000
0000
0000
0000
0000
0000
0000
0000
0000
0000
0000
0000
0000
0300
0000
0000
0000
0000
0000
0000
0002
0000
0000
0000
0000
0000
0000
0000
0000
0000
0000
0000
0000
0000
0000
0000
0000
0000
0000
0000
0000
0000
0000
0000
0000
0000
0000
0000
0000
0000
0000
0000
0000
0000
0000
0000
0000
0000
0000
0000
0000
0000
0000
0000
0000
0000
0000
0000
0000
0000
0000
0000
0000
0000
0000
0000
0000
0000
0000
0000
0000
0000
0000
0000
0000
0000
0000
0000
0000
0000
0000
0000
0000
0000
0000
0000
0000
0000
0000
0000
0000
0000
0000
0000
0000
0000
0000
0003
0000
0000
0000
0000
0000
0000
0000
0000
0020
0000
0000
0000
0000
0000
0000
0000
0000
0000
0000
0000
0000
0000
0000
0000
0000
0000
0000
0000
0000
0000
0000
0000
0000
0000
0000
0000
0000
0000
0000
0000
0000
0000
0000
0000
0000
0000
0000
0000
0000
0000
0000
0000
0000
0000
0000
0000
,
0000
0030
0000
0000
,
0100
1000
0001
1000
0010
0100
0001
1000
,
0020
0000
0000
0030
0100
0000
0000
0000
,
0001
1000
0001
0100
0010
0100
0010
0100
,
0001
0000
0100
1000
0010
0000
0000
0000
,
0001
1000
0010
1000
0010
1000
0100
0010
,
0002
0000
0000
0000
0000
0000
0000
0000
0000
0000
0000
0000
0000
0000
0000
0000
0000
0000
0000
0000
0000
0000
0000
0000
0000
0003
0000
0000
0000
0000
0000
0000
0010
0000
0000
0000
0000
0000
0000
0000
0000
0000
0000
0000
0000
0000
0000
0000
0000
0000
0000
0000
0000
0000
0000
0000
0000
0000
0000
0000
0000
0000
0000
0000
,
0100
1000
0001
0100
0001
0010
0001
0010
,
0100
0000
0001
0100
0020
0000
0030
0000
,
0100
0000
0000
0000
0000
0000
0000
0000
0000
0000
0000
0000
0000
0000
0000
0000
0100
0000
0000
0000
0000
0000
0000
0000
0000
0000
0000
0000
0000
0000
0000
0000
0100
0000
0000
0000
0000
0000
0000
0000
0000
0000
0000
0000
0000
0000
0000
0000
0010
0000
0000
0000
0000
0000
0000
0000
0000
1000
0000
0000
0100
0000
0000
0000
,
0001
0000
0000
0000
0000
0000
0000
0000
0000
0100
0000
0000
0000
0000
0000
0000
0010
0000
0000
0000
0000
0000
0000
0000
0000
1000
0000
0000
0000
0000
0000
0000
0010
0000
0000
0000
0000
0000
0000
0000
0000
0001
0000
0000
0100
0000
0000
0000
1000
0000
0000
0000
0000
0000
0000
0000
0000
0100
0000
0000
0000
0000
0000
0000
,
0001
0000
0000
0000
0000
0000
0000
0000
0000
0000
0000
0000
0000
0000
0000
0000
0001
0000
0000
0000
0000
0000
0000
0000
0000
0000
0000
0000
0000
0000
0000
0000
0001
0000
0000
0000
0000
0000
0000
0000
0000
0000
0000
0000
0000
0000
0000
0000
0100
0000
0000
0000
0000
0000
0000
0000
0000
1000
0000
0000
0100
0000
0000
0000
,
0001
0000
0000
0000
0000
0000
0000
0000
0000
0100
0000
0000
0000
0000
0000
0000
0010
0000
0000
0000
0000
0000
0000
0000
0000
1000
0000
0000
0001
0000
0000
0000
0010
0000
0000
0000
0000
0000
0000
0000
0000
0100
0000
0000
0000
0000
0000
0000
1000
0000
0000
0000
0000
0000
0000
0000
0000
0100
0000
0000
1000
0000
0000
0000
,
0001
0000
0000
0000
0010
0000
0000
0000
0100
0000
0000
0000
1000
0001
1000
0001
,
0010
0000
0000
0100
0000
0000
0001
0000
1000
0000
0001
0000
0100
0000
0000
0000
,
1000
0000
0000
0000
0000
0000
0000
0000
0000
0000
0000
0000
0000
0000
0000
0000
0001
0000
0000
0000
0000
0000
0000
0000
0000
0000
0000
0000
0000
0000
0000
0000
0100
0000
0000
0000
0000
0000
0000
0000
0000
0000
0000
0000
0000
0000
0000
0000
0010
0000
0000
0000
0000
0000
0000
0000
0000
1000
0000
0000
0000
0000
0000
0000
,
0001
0000
0000
0000
0000
0000
0000
0000
0000
0100
0000
0000
1000
0000
0000
0000
0010
0000
0000
0000
0000
0000
0000
0000
0000
1000
0000
0000
0000
0000
0000
0000
0010
0000
0000
0000
0000
0000
0000
0000
0000
0001
0000
0000
0010
0000
0000
0000
1000
0000
0000
0000
0000
0000
0000
0000
0000
0100
0000
0000
0000
0000
0000
0000
,
0001
0000
0000
1000
0000
0000
2020
0000
,
0000
0000
3030
0000
,
0001
0000
0000
0100
0000
0000
0220
0000
,
0000
0000
0330
0000
,
0010
0000
0000
0100
0000
0000
0022
0000
,
0000
0000
0033
0000
,
0001
0000
0000
1000
0000
0000
2002
0000
,
0000
0000
0000
0000
,
3003
0000
0000
0000
;

//--------------- dance-single - XLev450X-CSP ----------------
#NOTES:
     dance-single:
     XLev450X:
     Challenge:
     15:
     0,0,0,0,0:
0000
0000
0000
0000
,
0000
0000
0000
0000
,
0000
0000
0000
0000
,
0000
0000
0000
0000
,
0000
0000
0000
0000
,
0000
0000
0000
0000
,
0000
0000
0000
0000
,
0000
0000
0000
0000
,
0001
0000
1000
0000
0010
0000
0100
0001
0100
0000
0010
0000
1000
0000
0001
0100
,
0010
1000
0001
0010
0001
1000
0010
1000
,
0100
0001
0100
0000
0001
0010
0001
0000
1000
0000
0001
0000
0100
0010
0100
0000
,
0010
1000
0010
0100
0001
1000
0010
0100
,
0001
0100
0001
0000
1000
0010
1000
0000
0001
0000
0100
0000
0010
0000
0001
0000
,
1000
0000
0000
0100
0000
0000
0010
0000
0001
0000
1000
0001
1000
0000
0001
1000
,
0001
1000
0010
0001
1000
0010
0100
0001
,
0010
0000
1000
0100
0001
0000
0100
0000
0010
0000
1000
0010
1000
0000
0001
1000
,
0002
0000
0003
0000
0010
0100
0010
0000
0001
0000
1000
0000
0010
0000
0100
0000
,
0001
0000
1000
0010
1000
0000
0001
0000
0100
0000
0000
0000
0010
0000
0001
0000
,
0010
0000
0000
0000
1000
0000
0010
0000
0100
0000
0001
0000
1000
0000
0001
0100
,
0001
1000
0010
0100
0001
1000
0010
0100
,
0001
0000
0010
0001
0010
0001
0100
0000
1000
0000
0010
0000
0001
0000
0010
1000
,
0010
0000
0000
0100
0000
0000
0010
0000
0200
0000
0000
0000
0300
0000
0000
0000
,
0001
1000
0010
0000
0001
0010
0001
1000
,
0000
0000
0010
0000
0100
0000
0001
0000
0010
0001
0010
0000
1000
0000
0000
0000
,
0001
0000
0010
0100
0010
0000
1000
0000
0100
0010
0100
0000
0010
0000
0001
0000
,
1000
0010
0100
0001
1000
0000
0010
0001
,
0010
0000
0001
0010
0001
0000
1000
0010
1000
0000
0001
0000
0100
0000
0010
0000
,
0001
0000
0100
0001
1000
0000
0010
0000
,
0001
0010
0001
0000
1000
0010
0100
0001
,
1000
0000
0000
0001
0000
0000
0100
0000
0010
0000
0000
0000
0001
0000
0000
0000
,
1000
0010
0100
0000
0001
1000
0010
0100
,
0001
0100
0001
0000
1000
0010
1000
0000
0001
0000
1000
0001
1000
0000
0001
0100
,
0001
0100
0010
1000
0001
0000
0100
0010
,
0001
0000
1000
0001
1000
0000
0010
0000
0001
0100
0001
0000
1000
0000
0100
0000
,
0001
0000
1000
0000
0010
0100
0010
0000
0001
0000
1000
0000
0010
0000
0100
0001
,
0100
0010
1000
0001
0100
0010
1000
0000
,
0001
0010
0001
0000
1000
0010
0100
0001
,
1000
0000
0000
0001
0000
0000
0100
0000
0010
0000
0000
0000
0001
0000
0010
0000
,
0000
1000
0001
0100
0010
1000
0001
0100
,
0000
0000
0010
0000
0001
0000
1000
0000
0001
0000
0100
0001
0100
0000
0010
1000
,
0010
0100
0001
1000
0010
0000
0100
0001
,
0000
0010
0001
1000
0010
0000
0100
0001
,
0010
1000
0001
0100
0010
1000
0001
0100
,
0010
0000
0001
0100
0001
0000
1000
0010
1000
0000
0000
0001
0000
0000
0100
0000
,
0010
0000
0001
0000
1000
0000
0000
0000
0001
0000
0010
0000
0001
0010
0001
0000
,
1000
0010
0100
0001
1000
0000
0010
0000
,
1000
0000
0001
0000
0100
0000
0010
0000
0001
0000
0010
0000
0001
0000
1000
0010
,
1000
0001
0100
0000
0001
0000
0010
0000
,
0100
0001
0100
0000
0010
0000
1000
0100
1000
0000
0100
0000
0010
0000
0000
0000
,
0010
0001
0010
0000
1000
0100
1000
0000
0001
0000
1000
0000
0010
0000
0000
0000
,
0001
0100
0001
0000
0010
0000
1000
0100
1000
0000
0001
0000
0010
0000
0000
0000
,
0001
1000
0010
0000
0100
0001
1000
0000
,
0001
0000
0100
0010
0000
1000
0001
0000
,
0100
0010
0000
0001
0010
0001
1000
0000
,
0010
0100
0001
0000
0010
0000
1000
0000
,
0010
0100
0001
1000
0010
0000
0001
0000
,
0010
1000
0010
0100
,
0001
0010
0001
0000
1000
0010
0100
0000
,
0001
0000
0010
0000
1000
0000
0100
1000
0100
0000
0010
0000
0001
0000
1000
0000
,
0010
0001
0010
0000
1000
0010
1000
0000
0100
0000
0001
0000
1000
0000
0000
0000
,
0001
0000
1000
0000
0010
0000
0100
0000
0001
0000
1000
0000
0001
0100
0001
0100
,
0001
0000
0000
0100
0000
0000
0010
0000
0100
0000
0000
0000
0001
0000
0000
0000
,
1000
0000
0001
0100
0001
0000
1000
0010
1000
0000
0001
0000
0100
0000
0010
0000
,
0001
0010
0001
0000
1000
0010
1000
0000
0010
0100
0010
0000
0001
0100
0001
0000
,
1000
0000
0001
0100
0000
0010
2000
0000
,
0000
0000
0000
3000
0001
1000
0010
0100
,
0001
0000
0001
0100
0000
0010
2000
0000
,
0000
0000
0000
3000
0001
0000
0100
0000
,
0010
0000
0001
0010
0000
1000
0020
0000
,
0000
0000
0000
0030
0001
0100
0010
1000
,
0001
0000
0100
0010
0000
1000
0002
0000
,
0000
0000
0000
0000
,
0003
0000
0000
0000
;
