#TITLE:Flea;
#ARTIST:CLAZZIQUAI;
#GENRE:New Wave;
#MUSIC:Flea.ogg;
#BANNER:Flea.png;
#BACKGROUND:Flea-bg.png;
#SAMPLESTART:67.913;
#SAMPLELENGTH:15;
#OFFSET:-0.056;
#BPMS:0=126;
#BGCHANGES:0.000=Flea.mp4=1.000=0=0=0=StretchNoLoop====,
99999.000=-nosongbg-=1.000=0=0=0=StretchNoLoop====;

//--------------- dance-single - XLev450X -クラブ--bSP ----------------
#NOTES:
     dance-single:
     XLev450X -クラブ-:
     Beginner:
     3:
     0,0,0,0,0:
0000
0000
0000
0000
,
0000
0000
0000
0000
,
0000
0000
0000
0000
,
0000
0000
0000
0000
,
0000
0000
0000
0000
,
0000
0000
0000
0000
,
0000
0000
0000
0000
,
1001
0000
0000
0000
,
0000
1000
0000
0001
,
0000
0010
0000
0100
,
0000
1000
0000
0001
,
0000
0100
0000
0010
,
1000
1000
1000
0000
,
0001
0001
0001
0000
,
1000
0010
1000
0000
,
0110
0000
0000
0000
,
0001
0000
0000
1000
,
0000
0000
0000
0010
,
0000
0000
0000
0100
,
0000
0000
0000
0010
,
1000
0001
0100
0000
,
0010
1000
0001
0000
,
0010
0100
1000
0000
,
0001
0100
0010
0000
,
1000
0001
0010
0000
,
0100
0001
1000
0000
,
1000
0010
0100
0000
,
0001
1000
0010
0000
,
0001
0001
0001
0000
,
1000
0001
1000
0000
,
0010
0100
0010
0000
,
0010
0001
0010
0000
,
1000
0100
1000
0000
,
0010
0100
0010
0000
,
0001
1000
0010
0000
,
0000
0000
0000
0000
,
1000
0000
0010
0000
,
0100
0001
0100
0000
,
0010
0000
1000
0000
,
0001
1000
0010
0000
,
0100
0000
0010
0000
,
0001
1000
0010
0000
,
1000
0000
0001
0000
,
0100
0010
1000
0000
,
1000
1000
1000
0000
,
0001
0001
0001
0000
,
0100
0010
1000
0000
,
0001
0100
0010
0000
,
1000
0001
0100
0010
,
1000
0100
1000
0010
,
0100
0001
1000
0010
,
0100
0001
0010
0100
,
1001
0000
0000
0000
;

//--------------- dance-single - XLev450X -クラブ--BSP ----------------
#NOTES:
     dance-single:
     XLev450X -クラブ-:
     Easy:
     6:
     0,0,0,0,0:
0000
0000
0000
0000
,
0000
0000
0000
0000
,
0000
0000
0000
0000
,
0000
0000
0000
0000
,
0010
0100
1000
0001
,
0100
0010
1000
0001
,
0100
0010
0100
0010
,
2002
0000
0000
0000
0000
0000
0000
3003
,
0010
0000
0100
0000
0001
0100
0001
0000
,
1000
0000
0010
0000
1000
0010
1000
0000
,
0010
0100
0010
0100
,
1000
0000
0001
0001
0000
0001
0001
0000
,
1000
0010
0100
0000
1000
0001
0100
0000
,
0010
0100
0001
0000
0010
0001
0010
0000
,
1000
0010
1000
0000
0100
0010
0100
0000
,
0220
0000
0000
0000
0000
0000
0000
0330
,
0001
1000
0000
0010
,
0100
0001
0000
1000
,
0010
0100
0000
0001
,
0100
0010
0000
1000
,
0001
0100
0010
0000
,
0001
1000
0010
0000
,
0100
1000
0001
0000
,
0100
0010
1000
0000
,
0001
0001
1000
0000
1000
1000
0001
0000
,
0100
0010
0100
0000
0010
0001
0010
0000
,
1000
0010
1000
0000
0100
0010
0100
0000
,
0001
0100
0001
0010
,
0001
0001
1000
0010
0100
0001
1000
0000
,
1000
0000
0001
0000
0100
0010
1000
0000
,
0010
0001
0010
0000
1000
0010
0100
0000
,
0100
0001
0100
0000
0010
1000
0010
0000
,
0100
0001
0100
0010
,
1000
0010
1000
0000
0100
0001
0100
0000
,
0010
0000
0100
0000
0001
1000
0010
0000
,
2002
0000
0000
3003
,
0002
1000
1000
1000
,
1000
0000
1003
0000
0010
0100
0010
0000
,
0001
0010
0001
0100
,
0010
1000
0010
0000
0100
0001
0010
0000
,
2000
0001
0001
0001
,
0001
0000
3001
0000
0100
0010
0100
0000
,
0001
0010
0001
1000
,
0001
0000
0100
0000
0001
0010
0001
0000
,
0020
0100
0100
0100
,
0100
0000
0130
0000
1000
0001
1000
0000
,
0010
0000
0001
0000
1000
0010
0100
0000
,
0001
0000
0010
0000
0100
0001
0100
0000
,
0200
0010
0010
0010
,
0010
0000
0310
0000
0001
1000
0001
0000
,
0010
0100
0010
0000
0010
0001
0010
0000
,
1000
0010
0100
0001
1000
0010
0100
0010
,
2002
0000
0000
0000
,
3003
0000
0000
0000
;

//--------------- dance-single - XLev450X -クラブ--DSP ----------------
#NOTES:
     dance-single:
     XLev450X -クラブ-:
     Medium:
     10:
     0,0,0,0,0:
0000
0000
0000
0000
,
0000
0000
0000
0000
,
0000
0000
0000
0000
,
0000
0000
0000
0000
,
1000
0001
0100
0000
0010
0001
0010
0000
,
1000
0010
1000
0000
0100
0001
0100
0000
,
0010
1000
0001
0100
0010
0100
0001
0010
,
2002
0000
0000
0000
0000
3003
0010
0000
,
1000
0001
0100
0010
,
1000
0000
0001
0100
0010
0000
1000
0000
,
0001
0001
0100
0010
1000
0000
1000
0001
,
0100
0010
2000
0000
0000
3000
0001
0000
,
1000
0010
0100
0000
0001
0000
0100
0010
,
0100
0001
1000
0010
,
0100
0001
0100
1000
0010
0000
0100
0010
,
1000
0001
0200
0000
0000
0000
0300
0000
,
0001
0000
1000
0000
0000
0010
0100
0000
,
0001
1000
0010
0000
0000
0100
0001
0000
,
1000
0000
0010
0000
0000
0100
0010
0000
,
1000
0001
0100
0000
0000
0010
1000
0000
,
0001
0000
0000
1000
0000
0000
0010
0000
0000
0000
0100
0000
0001
0000
1000
0000
,
0010
0000
0000
0100
0000
0000
0001
0000
0000
0000
1000
0000
0001
0000
0100
0000
,
0010
0000
0000
0001
0000
0000
0100
0000
0000
1000
0000
0000
0010
0000
0100
0000
,
0001
0000
0000
0100
0000
0000
0010
0000
0000
1000
0000
0000
0001
0000
0100
0000
,
0010
0000
1000
0000
0001
0100
0010
0000
,
0100
0000
0000
0001
0000
0000
1000
0000
0000
0000
0010
0000
0100
0000
0001
0000
,
0000
1000
0000
0010
0001
0000
1000
0000
,
0010
0100
0001
0000
1000
0010
0100
0000
,
0001
0000
0000
1000
0000
0000
0010
0000
0000
0000
0100
0000
0000
0000
0001
0000
,
0100
0000
0000
0010
0000
0000
1000
0000
0000
0000
0001
0000
0100
0000
0010
0000
,
0000
1001
0000
0001
0100
0000
0010
0000
,
0001
0010
0001
0000
1000
0010
1000
0000
,
0001
0000
0000
0100
0000
0000
0010
0000
0000
1000
0000
0000
0001
0000
0100
0000
,
0010
0000
0000
0100
0000
0000
0001
0000
0000
1000
0000
0000
0010
0000
0100
0000
,
0001
0000
1000
0000
0010
0100
0001
0000
,
0010
0010
0010
0010
0000
1000
0001
0000
,
0020
0000
0200
0000
,
0000
0000
0000
0000
0330
0010
0001
0010
,
1000
0000
0001
0000
0100
0010
0001
1000
,
0010
0000
0100
0000
0010
1000
0001
0100
,
0020
0000
2000
0000
,
0000
0000
0000
0000
3030
0001
0100
0010
,
0001
0000
1000
0000
0001
0010
0001
0000
,
1000
0000
0001
0000
0100
0010
1000
0001
,
0200
0001
0020
0000
,
0000
0000
0000
0000
0330
0010
0001
0010
,
1000
0010
0100
0000
0001
0010
0001
0000
,
1000
0010
0100
0000
1000
0001
0100
0010
,
2000
0100
0002
0000
,
0000
0000
0000
0000
3003
1000
0001
0100
,
0010
0001
1000
0010
,
0001
1000
0010
0100
0001
0010
0100
0010
,
2002
0000
0000
0000
,
3003
0000
0000
0000
;

//--------------- dance-single - XLev450X -クラブ--ESP ----------------
#NOTES:
     dance-single:
     XLev450X -クラブ-:
     Hard:
     15:
     0,0,0,0,0:
0000
0000
0000
0000
,
0000
0000
0000
0000
,
0000
0000
0000
0000
,
0000
0000
0000
0000
,
0110
0000
1000
0010
1000
0000
0001
0100
0001
0000
1000
0001
1000
0000
0010
1000
,
0010
0000
1000
0100
1000
0000
0010
1000
0010
0000
0010
0100
0010
0000
0001
0100
,
0010
0000
1000
0001
0100
0000
0010
0100
0001
0000
1000
0010
0100
0000
0001
1000
,
0020
0000
0000
0000
0000
0000
1030
0100
,
0001
0000
0100
0000
0010
0000
1000
0100
,
0001
0000
1000
0001
0010
0100
0001
0000
,
0010
1000
0001
0100
0010
0000
0001
1000
,
0010
0100
0001
0001
0001
0001
0001
0001
,
1100
0000
0010
0100
0001
0000
1000
0010
1000
0000
0001
0100
0010
0000
0001
1000
,
0001
0000
0100
0010
0100
0000
1000
0100
1000
0000
0001
1000
0010
0000
0100
0001
,
1000
0000
0100
0010
0001
0000
1000
0010
1000
0000
0001
1000
0010
0000
0100
0010
,
0200
0000
0000
0000
0000
0000
0000
0300
,
1000
0000
0001
0000
0000
0100
0010
0000
,
1000
0001
0100
0000
0000
0010
0001
0000
,
1000
0000
0010
0000
0000
0100
1000
0000
,
0010
0100
0001
0000
0000
1000
0010
0000
,
0100
0000
0000
0001
0000
0000
1000
0000
0000
0000
0010
0000
0100
0001
1000
0010
,
0001
0000
0000
0100
0000
0000
1000
0000
0000
0000
0001
0000
0100
0000
0010
0000
,
1000
0000
0000
0001
0000
0000
0100
0000
0000
0010
0000
0000
1000
0001
0100
0010
,
0100
0000
0000
1000
0000
0000
0010
0000
0000
1000
0000
0000
0001
0000
0100
1000
,
0010
0000
1000
0000
0001
0000
0100
0000
0000
0000
0010
0000
0000
1000
0000
0000
,
0001
0100
0010
1000
0000
0001
0100
0010
,
0000
1000
0000
0001
0100
0000
0010
0000
,
1000
0000
0001
0000
0100
0000
0000
0000
0010
0000
1000
0001
0100
0000
0001
0000
,
0010
0000
0000
1000
0000
0000
0001
0000
0000
0000
0100
0000
0000
0000
0100
1000
,
0100
0000
0000
0001
0000
0000
0100
0000
0000
0000
1000
0000
0010
0000
0100
0000
,
0000
0001
0000
1000
0000
0010
0100
0001
,
1000
0000
0000
0000
0010
0000
0000
0000
1000
0001
0000
0100
0000
0000
0010
0000
,
1000
0001
0100
0020
0000
0000
1030
0000
,
0001
0000
0000
0100
0000
0000
0010
0000
0000
0000
1000
0000
0001
0000
0100
0000
,
0000
0000
0010
0000
0000
0000
1000
0000
0001
0000
0100
1000
0100
0000
0010
0001
,
0100
0100
0100
0100
0100
0100
1000
0000
,
0010
0000
1000
0000
0001
0100
0010
0000
,
1000
0000
0010
0000
0100
0000
0010
0000
1000
0001
1000
0000
0001
1000
0001
0000
,
0100
0000
0010
0000
1000
0000
0001
0000
0100
0000
0010
0000
1000
0100
0000
0001
,
1000
0000
0010
0000
0100
0000
0001
0000
1000
0000
0010
0000
0100
0010
0000
0100
,
0010
0010
1000
0001
0100
0010
0001
0000
,
1000
0000
0001
0000
0100
0000
0010
0000
0001
0000
1000
0000
0010
0000
0100
1000
,
0001
0100
0010
0000
0100
0001
0100
0000
,
1000
0010
1000
0000
0100
0001
0100
0010
,
1000
0000
0000
0000
0001
0000
0000
0000
1000
0000
0001
0000
1000
0010
0001
1000
,
0100
0000
0010
0000
0100
0000
0000
0000
0010
0000
0001
0000
1000
0001
1000
0001
,
0010
0000
1000
0000
0001
0000
0000
0000
0100
0000
0010
0000
0001
0010
0100
0010
,
1000
0010
0100
1000
0001
0100
0010
0000
,
1000
0000
0000
0000
0010
0000
0000
0000
0100
0000
0001
0000
1000
0000
0001
1000
,
0010
0000
0100
0000
1000
0000
0000
0000
0001
0000
0100
0000
0010
0000
0001
0010
,
1000
0001
0100
0010
1000
0001
0100
0001
,
0010
1000
0001
0100
0010
1000
0001
0100
0010
1000
0100
0010
0001
1000
0100
1000
,
0020
0000
0000
0000
,
0030
0000
0000
0000
;

//--------------- dance-single - XLev450X -クラブ--CSP ----------------
#NOTES:
     dance-single:
     XLev450X -クラブ-:
     Challenge:
     16:
     0,0,0,0,0:
0000
0000
0000
0000
,
0000
0000
0000
0000
,
0000
0000
0000
0000
,
0000
0000
0000
0000
,
1000
0000
0001
0000
0100
0000
0010
0000
0001
0010
0001
0000
1010
0000
0100
0000
,
0001
0000
1000
0000
0010
0000
0100
0000
0001
1000
0010
1000
0001
0000
0100
0000
,
0010
0000
1000
0000
0001
0000
0100
0000
0010
1000
0001
0000
0100
0000
0010
0000
,
0001
1000
0010
0100
0001
1000
0010
0100
0001
1000
0010
0100
0001
1000
0010
0001
,
0010
0000
1000
0000
0010
0000
0100
0000
0001
1000
0010
0000
0100
0000
0001
0000
,
0010
0001
0010
0000
1000
0000
0010
0000
1000
0100
1000
0000
0010
0000
0100
0000
,
0001
1000
0010
0000
0100
0000
0001
0000
1000
0010
0100
0000
0001
0000
1000
0000
,
0010
0101
1100
0101
0110
0101
1001
0101
,
0010
1000
0001
0100
0010
1000
0001
0100
0010
0000
1000
0000
0001
0000
0100
0000
,
0001
1000
0010
0100
0001
1000
0010
0100
0001
0000
1000
0000
0010
0000
0001
0000
,
1000
0100
1000
0010
0100
0001
1000
0010
0100
0000
0001
0000
1000
0000
0010
0000
,
0100
1000
0001
0010
0100
0001
0100
1000
0010
0001
1000
0010
0100
0010
0001
1000
,
0010
0000
0001
0000
1000
0000
0010
0000
0000
0001
0010
0001
0010
1000
0100
0010
,
0001
0000
1000
0000
0010
0000
0100
0000
0000
1000
0010
0100
0001
1000
0010
0100
,
0001
0000
1000
0000
0010
0000
0100
0000
0000
1000
0010
1000
0010
0100
0001
1000
,
0010
0000
0100
0000
1000
0000
0010
0000
0000
0010
0001
0010
0100
1000
0100
0001
,
1000
0000
0010
0000
1000
0000
0001
0000
0100
0000
0010
0000
1000
0001
0010
0001
,
1000
0000
0001
0000
0010
0000
0001
0000
0010
0001
0010
0000
1000
0100
1000
0000
,
0010
0000
0100
0000
1000
0000
0010
0000
0100
0000
0001
0000
0010
0001
0010
1000
,
0010
0100
0001
1000
0010
0100
0001
1000
,
0001
0000
0100
0000
0010
0000
1000
0010
1000
0000
0100
0001
0100
0000
0010
1000
,
0010
0000
0000
0000
0100
0000
0000
0000
0001
0000
0000
0000
0100
0000
0000
0000
0010
0000
1000
0000
0010
0000
0100
0000
0010
0000
0001
0000
1000
0000
0010
0001
,
0100
0001
1000
0000
0010
0000
0100
0000
1000
0000
0100
0000
0001
0000
1000
0000
,
0010
0000
0000
0010
0001
0000
1000
0000
0010
0000
0100
0000
0001
0000
0010
0000
,
1000
0000
0010
0100
0010
0000
0001
0010
0001
0000
1000
0100
1000
0000
0010
0100
,
0010
0000
1000
0100
0001
0000
0100
0000
0010
0000
0000
0000
1000
0000
0010
0000
1000
0000
0000
0000
0001
0000
0100
0000
0001
0000
1000
0000
0010
0000
0100
0000
,
0010
0000
1000
0001
0100
0000
0010
0001
0010
0000
1000
0100
1000
0000
0010
0100
,
0001
0000
1000
0010
0100
0000
0001
1000
0010
0000
0100
0001
1000
0000
0010
0000
,
0001
0010
0001
1000
0010
0100
0001
0100
1000
0010
0100
0001
1000
0000
0001
0000
,
0100
0000
0010
0000
1000
0100
0001
0000
0100
0000
0010
0000
1000
0000
0001
0000
0010
0000
0000
0000
0001
0000
0000
0000
1000
0000
0000
0000
0010
0000
0000
0000
,
1000
0100
0001
0010
1000
0001
0010
1000
0001
0100
0010
1000
0010
0001
1000
0010
,
0101
0101
0101
0101
1010
1010
0110
0110
,
0001
1000
0010
0100
0001
1000
0010
0100
0001
0010
1000
0100
1000
0100
0001
0010
,
0001
0000
0100
0000
0010
0000
1000
0000
0010
0000
0001
0000
1000
0000
0010
0000
0100
0000
0001
0000
1000
0000
0010
0000
0100
0000
0001
0000
1000
0001
0010
0000
,
0100
0001
1000
0010
0100
1000
0001
0100
,
0010
0000
1000
0000
0001
0010
0001
0010
0000
0000
1000
0100
1000
0100
0010
0000
,
1000
0001
0100
0010
1000
0001
1000
0100
0010
0100
0001
1000
0010
1000
0010
0100
,
0001
0000
1000
0000
0010
0000
0100
0000
0001
0000
1000
0000
0010
0000
0100
0000
0010
0000
0001
0000
1000
0000
0010
0000
0001
0000
0100
0001
1000
0000
0010
0000
,
1000
0001
0100
0010
1000
0010
0100
1000
,
0010
0000
0100
0000
1000
0000
0010
0000
0001
0000
0010
0001
0010
0000
0100
1000
,
0010
1000
0100
0010
0100
1000
0001
1000
0001
1000
0010
0100
0001
1000
0010
0100
,
0010
0000
0100
0000
0001
0000
0100
0000
0010
0000
1000
0000
0100
0000
0010
0000
0100
0000
1000
0000
0001
0000
0100
0000
0010
0000
0100
0000
0001
0100
1000
0000
,
0010
0000
1000
0000
0001
0000
0100
0000
0010
0000
0001
0010
0001
0000
1000
0100
,
1000
0000
0010
0000
0100
0000
0001
0000
1000
0000
0001
0100
0010
1000
0100
0000
,
0001
0010
0001
0100
0010
0100
0001
1000
0100
0010
0100
1000
0010
0100
0010
1000
,
0010
0000
0100
0000
0001
0000
0100
0000
0001
0000
1000
0000
0010
0000
0100
0000
0001
0000
0100
0000
0001
0000
1000
0000
0010
0000
0100
0000
0001
1000
0010
0000
,
1000
0010
1000
0001
0100
0010
1000
0001
,
0010
0000
0100
0000
0001
0000
0010
0000
0001
0000
1000
0000
0100
0000
0010
0000
0001
0000
0010
0000
0001
0000
1000
0000
0100
0000
0010
0000
0001
1000
0100
0000
,
0020
0000
0000
0000
,
0030
0000
0000
0000
;
