#TITLE:Flatter Me;
#ARTIST:Dexter Manning;
#GENRE:CHILL BEATS;
#MUSIC:Flatter Me.ogg;
#BANNER:Flatter Me.png;
#BACKGROUND:Flatter Me-bg.png;
#SAMPLESTART:55.579;
#SAMPLELENGTH:15;
#OFFSET:-0.079;
#BPMS:0=160;
#BGSTAGE:5;

//--------------- dance-single - XLev450X-bSP ----------------
#NOTES:
     dance-single:
     XLev450X:
     Beginner:
     3:
     0,0,0,0,0:
0000
0000
0000
0000
,
0000
0000
0000
0000
,
0000
0000
0000
0000
,
0000
0000
0000
0000
,
0000
0000
0000
0000
,
0000
0000
0000
0000
,
0000
0000
0000
0000
,
0000
0000
0000
0000
,
0000
0000
0000
0000
,
0001
0000
0000
0000
,
1000
0000
0000
0000
,
0100
0000
0000
0000
,
0010
0000
0000
0000
,
1001
0000
0000
0000
,
0000
0000
0000
0000
,
0001
0000
0000
0000
,
1000
0000
0000
0000
,
0010
0000
0000
0000
,
0100
0000
0000
0000
,
0001
0000
0000
0000
,
0010
0000
0000
0000
,
0001
1000
0001
0000
,
0000
0000
0000
0000
,
1000
0001
1000
0000
,
0000
0000
0000
0000
,
0010
0000
0100
0000
,
1000
0000
0000
0000
,
0010
0000
1000
0000
,
0100
0000
0000
0000
,
1000
0000
0001
0000
,
1000
0000
0000
0000
,
1000
0000
0001
0000
,
0001
0000
1000
0000
,
1000
0000
0001
0000
,
1000
0000
0001
0000
,
1000
0000
0000
0000
,
0010
0000
0100
0000
,
0010
1000
0001
0000
,
0100
1000
0001
0100
,
0010
0000
1000
0000
,
0001
0000
0000
0000
,
1000
0000
0001
0000
,
0100
0000
1000
0000
,
0010
0000
1000
0000
,
0001
0000
0000
0000
,
1000
0000
0000
0001
,
1000
0000
0000
0100
,
1000
0000
0000
0010
,
0100
0000
0000
0000
,
0001
0000
1000
0001
,
1000
0000
0010
0000
,
0100
0000
1000
0000
,
0010
0000
0000
0000
,
0100
0000
0001
0000
,
1000
0000
0001
0000
,
0100
0000
0000
0000
,
0000
0000
0000
0000
,
0010
1000
0001
0000
,
0010
1000
0010
0000
,
0100
0010
1000
0001
,
0100
0000
0010
0000
,
1000
0000
0001
0000
,
1000
0000
0000
0000
,
0100
0000
1000
0000
,
0001
0000
0000
0000
,
0100
0000
0010
0000
,
0100
0000
0000
0000
,
1000
0000
0100
0000
,
1000
0000
0000
0000
,
0010
0000
0001
0000
,
0010
0000
1000
0000
,
0100
0000
0001
0000
,
1000
0000
0000
0000
,
1000
0000
0001
0000
,
0100
0000
0010
0000
,
1000
0000
0001
0000
,
0100
0000
0000
0000
,
0010
0100
0001
0000
,
0100
1000
0100
0000
,
0001
1000
0010
0000
,
0100
0010
0100
0000
;

//--------------- dance-single - XLev450X-BSP ----------------
#NOTES:
     dance-single:
     XLev450X:
     Easy:
     8:
     0,0,0,0,0:
0000
0000
0000
0000
,
0000
0000
0000
0000
,
0000
0000
0000
0000
,
0000
0000
0000
0000
,
0000
0000
0000
0000
,
0000
0000
0000
0000
,
0000
0000
0000
0000
,
0000
0000
0000
0000
,
0000
0000
0000
0000
,
1000
0000
0001
1000
,
0001
0000
0100
1000
,
0010
0000
1000
0001
,
0100
0000
0010
1000
,
2002
0000
0000
0000
,
0000
0000
0000
0000
0000
0000
0000
3003
,
0010
1000
0000
0010
,
0100
0000
0001
0000
0010
1000
0000
0000
,
0001
1000
0000
0010
,
1000
0100
1000
0000
,
0001
0100
0010
1000
,
0010
0001
0010
0000
1000
0000
0100
0000
,
1000
0001
0100
0000
,
1000
0100
1000
0001
,
0100
0010
1000
0001
,
0010
0001
0010
0000
1000
0010
0100
0000
,
0001
0000
1000
0001
,
1000
0010
1000
0000
,
0100
1000
0001
0100
,
0010
0000
1000
0000
0001
0010
0001
0000
,
1000
0100
0010
0000
,
1000
0100
1000
0000
,
0001
1000
0001
1000
,
0010
1000
0001
0000
,
0100
1000
0010
0000
,
1000
0100
0001
0000
,
0010
0100
0001
1000
,
0010
0001
1000
0010
0100
0000
0000
0000
,
0001
1000
0010
1000
,
0100
0000
1000
0000
0001
0100
0000
1000
,
0001
1000
0010
0100
,
1000
0000
0001
0000
1000
1000
0000
0001
,
0100
0010
1000
0001
,
1000
0010
0100
0000
,
1000
0001
1000
0100
,
0001
1000
0000
0010
1000
0000
0010
0000
,
0100
0000
0000
0001
1000
0000
0010
0000
,
0100
0000
0000
1000
0001
0000
0100
0000
,
1000
0010
0100
0000
,
0001
0010
1000
0000
,
0001
0000
1000
0000
,
0010
1000
0100
0000
,
1000
0000
0001
0000
,
1000
0010
1000
0001
,
0100
0000
1000
0000
,
0010
1000
0001
0100
,
1000
0000
0010
0000
,
1000
0000
0001
0000
0020
0000
0000
0030
,
1000
0000
0001
0000
0010
0001
1000
0000
,
0010
0000
0100
0000
1000
0010
1000
0000
,
0101
1010
0010
0100
,
0011
0000
1100
0000
0010
0100
1000
0000
,
0011
1001
0110
1001
,
1100
1001
0110
1001
,
0010
1000
0001
0000
0100
1000
0100
0000
,
0010
0001
0010
1000
0010
0000
0100
0000
,
0010
1000
0001
1000
,
0010
0100
1000
0000
,
0010
1000
0100
1000
,
0101
1010
0110
0000
,
0001
1000
0100
1000
,
0001
0000
0100
0000
0010
1000
0010
0000
,
1000
0001
0100
0010
,
1000
0001
0100
0000
,
1000
0001
1000
0010
,
0001
0010
0001
0000
0100
1000
0100
0000
,
0001
1000
0010
0000
,
1000
0001
0100
0000
,
0010
1000
0100
1000
,
0001
0100
0010
0000
,
1000
0100
1000
0100
,
0010
0001
0010
0000
1000
0010
0000
0100
;

//--------------- dance-single - XLev450X-DSP ----------------
#NOTES:
     dance-single:
     XLev450X:
     Medium:
     9:
     0,0,0,0,0:
0000
0000
0000
0000
,
0000
0000
0000
0000
,
0000
0000
0000
0000
,
0000
0000
0000
0000
,
0000
0000
0000
0000
,
0000
0000
0000
0000
,
0000
0000
0000
0000
,
0000
0000
0000
0000
,
0000
0000
0000
0000
,
0010
1000
0000
0010
,
0100
0001
0000
1000
,
0100
1000
0000
0010
,
0100
0000
0001
0000
0010
0001
0010
0000
,
2002
0000
0000
0000
,
0000
0000
0000
0000
0000
0000
0000
3003
,
0001
0000
1000
0010
0000
1000
0000
0000
,
0100
0000
0010
0100
0000
0001
0000
0000
,
0010
0000
0001
0010
0000
0000
0000
0000
,
1000
0000
0100
1000
0000
0010
0000
0000
,
1000
0000
0010
0100
0000
1000
0000
0000
,
0010
1000
0001
0000
,
0100
0000
1000
0000
,
0010
0100
1000
0001
,
0010
0001
0010
0000
0100
1000
0100
0000
,
0010
0000
0100
0000
0010
0100
0000
0000
,
1000
0001
0000
1000
,
0100
1000
0000
0010
,
0100
0001
0000
0100
,
0010
0000
1000
0000
0010
0001
0010
0000
,
1000
0100
0000
1000
,
0010
0100
0000
1000
,
0001
0100
0010
0000
,
0100
0000
1000
0000
0010
1000
0010
0000
,
0100
0000
1000
0000
0001
0000
0000
0100
,
0000
0010
1000
0000
,
0001
0000
1000
0000
0010
0000
0000
0100
,
0000
0000
0001
0000
1000
0010
1000
0000
,
0001
0010
0100
1000
,
0010
0000
0100
0000
1000
0001
1000
0010
,
0100
1000
0001
0100
,
1000
0000
0001
0000
0010
0001
0010
0000
,
1000
0100
1000
0010
,
0100
1000
0010
0000
,
1000
0001
1000
0010
,
1000
0100
1000
0000
0010
0001
0010
0000
,
1000
0001
0000
0100
,
1000
0000
0010
0000
0000
1000
0010
0000
,
1000
0000
0001
0100
0000
0000
0000
0000
,
0010
0000
1000
0010
1000
0001
0100
0000
,
1000
0000
0001
1000
,
0010
0000
0000
0100
0000
1000
0001
0000
,
0100
0000
0000
0010
0000
1000
0000
0001
,
0100
0000
1000
0010
0000
1000
0000
0000
,
0001
1000
0001
0000
,
1000
0000
0010
0000
1000
0010
1000
0000
,
0100
0000
0001
1000
0000
0001
0000
0100
,
0000
1000
0000
0010
2000
0000
0000
3000
,
0010
0000
1000
0001
0000
0100
0000
1000
,
0000
0100
0000
1000
0000
0010
0100
0001
,
0010
1000
0001
0000
,
0100
1000
0010
0100
,
1000
0001
1000
0000
,
0100
0000
1000
0000
0010
0001
0010
0000
,
1000
0001
0100
0000
,
1000
0000
0010
0000
1000
0010
1000
0000
,
0100
1000
0001
0000
,
0100
0001
0100
0000
,
1000
0000
0001
0000
0010
0001
0010
0000
,
1000
0000
0100
0000
0010
1000
0010
0000
,
1000
0001
0100
0010
,
1000
0100
0101
1010
,
0010
0100
1000
0000
0010
0000
0100
0000
,
0001
0000
1000
0000
0010
0001
0010
0000
,
1000
0100
1000
0001
,
0100
0001
0100
0000
1000
0010
1000
0000
,
0010
1000
0001
0000
,
1000
0010
1000
0000
,
0100
1000
0100
0000
0010
0001
0010
0000
,
0100
1000
0001
0100
,
0010
0001
0010
0000
0100
1000
0100
0000
,
0001
1000
0010
0000
0100
0001
0000
1000
;

//--------------- dance-single - XLev450X-ESP ----------------
#NOTES:
     dance-single:
     XLev450X:
     Hard:
     13:
     0,0,0,0,0:
0000
0000
0000
0000
,
0000
0000
0000
0000
,
0000
0000
0000
0000
,
0000
0000
0000
0000
,
0000
0000
0000
0000
,
0000
0000
0000
0000
,
0000
0000
0000
0000
,
0000
0000
0000
0000
,
0000
0000
0000
0000
,
0001
0010
0001
0000
0010
0001
0010
0000
,
1000
0001
0100
0001
1000
0000
0010
0000
,
1000
0001
0010
0000
1000
0010
0100
0000
,
0001
0010
1000
0001
0100
0010
1000
0000
,
0002
0000
0000
1000
0000
0000
0000
0000
,
0000
0000
0000
0000
0000
1000
0003
0000
,
1000
0000
0010
1000
0000
0010
0000
0100
,
0001
0000
1000
0001
0000
0100
0010
1000
,
0001
0000
1000
0010
0000
0100
0000
0010
,
0000
1000
0000
0010
0001
1000
0001
0100
,
0001
0000
1000
0001
0000
1000
0000
0010
,
1000
0001
0100
0010
1000
0000
0001
0000
,
0010
0001
0010
0000
1000
0000
0100
0000
,
1000
0001
0100
0000
0001
0000
1000
0000
,
0010
1000
0001
0100
0010
0000
1000
0000
,
0001
0000
0100
0000
0010
0000
1000
0000
0001
0000
1000
0100
0001
0010
0100
1000
,
0100
0000
0001
1000
0000
0010
0000
1000
,
0000
0000
0010
0000
0001
0000
0010
0000
1000
0000
0000
0000
0001
1000
0100
0001
,
0010
0000
1000
0001
0000
0010
0000
1000
,
0000
0000
0001
0000
0000
0000
1000
0000
0010
0000
0100
0000
1000
0100
0001
0000
,
0100
0000
0001
1000
0000
0010
0000
0100
,
0000
0010
0001
1000
0001
0100
0010
0000
,
1000
0000
0001
1000
0000
0010
1000
0010
,
0100
0000
0001
0010
0000
1000
0000
0000
,
0001
0000
0100
0000
0010
0000
1000
0010
,
0000
1000
0000
0001
0000
0100
0010
0000
,
0001
1000
0001
0000
0100
0010
1000
0000
,
0001
0100
0010
1000
0001
0000
0100
0000
,
0010
0000
1000
0000
0010
1000
0010
0000
,
0100
1000
0001
0100
,
0001
1000
0001
1000
0000
0010
1000
0010
,
0000
1000
0001
0100
0010
0000
1000
0000
,
0010
0000
1000
0001
0000
1000
0000
0100
,
0000
0010
0000
1000
0000
0001
1000
0010
,
0100
0000
1000
0010
0000
1000
0000
0001
,
0100
0000
0010
0000
1000
0010
1000
0000
,
0010
0000
1000
0001
0000
0100
0000
1000
,
0000
0001
0100
0001
0000
0010
0001
1000
,
0001
0000
1000
0010
0000
1000
0000
0100
,
0010
0000
0000
0000
1000
0000
0001
0000
0100
0000
0000
0000
0010
0001
0100
0010
,
1000
0100
0000
0010
0000
1000
0000
0001
,
0000
0100
0010
1000
0001
0000
1000
0000
,
0010
0100
0001
1000
0000
0010
0000
1000
,
0000
0100
1000
0000
0010
0001
0000
1000
,
0010
0100
1000
0000
0001
0100
0000
0010
,
0000
1000
0000
0100
0000
1000
0000
0010
,
1000
0010
1000
0001
0100
0000
0010
0001
,
0000
0000
1000
0000
0100
0000
1000
0000
0020
0000
0000
0000
0000
0000
0000
0030
,
1000
0000
0001
1000
0000
0010
0100
1000
,
0000
0001
0100
0010
0001
1000
0010
0000
,
1000
0000
0010
1000
0000
0100
0000
0001
,
1000
0001
0100
0000
1000
0000
0010
0000
,
1000
0100
1000
0001
0000
0010
1000
0000
,
0010
0000
0100
0001
0000
1000
0001
0000
,
0100
0000
1000
0001
0000
1000
0010
1000
,
0001
0000
0100
0010
0000
1000
0000
0000
,
0010
0000
0001
1000
0000
0100
0000
1000
,
0000
0010
1000
0010
0100
0000
0001
0000
,
1000
0000
0010
0001
0000
1000
0000
0001
,
0100
1000
0100
0001
1000
0000
0010
0000
,
1000
0010
1000
0001
0100
0010
1000
0000
,
0001
0010
0001
1000
0001
0100
1000
0000
,
0010
1000
0001
0000
0100
0010
1000
0000
,
0010
1000
0001
0010
0001
0100
1000
0000
,
1000
0001
0100
0000
1000
0001
0100
0000
,
1000
0000
0100
0000
1000
0010
1000
0000
,
0001
0000
0100
0000
0010
1000
0010
0000
,
0100
0000
0001
1000
0000
0010
0100
1000
,
0001
0000
0100
0010
0000
1000
0000
0010
,
1000
0001
0100
0000
1000
0000
0001
1000
,
0000
0001
1000
0010
0000
1000
0010
0100
,
0001
1000
0010
0100
0001
1000
0010
0100
;
