#TITLE:First Pick;
#ARTIST:Tom Orlando;
#GENRE:HIP-HOP;
#MUSIC:First Pick.ogg;
#BANNER:First Pick.png;
#BACKGROUND:First Pick-bg.png;
#SAMPLESTART:20.973;
#SAMPLELENGTH:15;
#OFFSET:-0.034;
#BPMS:0=96;
#BGSTAGE:4;

//--------------- dance-single - XLev450X-bSP ----------------
#NOTES:
     dance-single:
     XLev450X:
     Beginner:
     2:
     0,0,0,0,0:
0000
0000
0000
0000
,
0000
0000
0000
0000
,
0000
0000
0000
0000
,
0000
0000
0000
0000
,
0000
0000
0000
0000
,
0000
0000
0000
0000
,
0000
0000
0000
0000
,
0000
0000
0000
0000
,
0001
0000
1000
0000
,
0001
0000
0000
0000
,
0010
0000
0100
0000
,
0010
0000
0000
0000
,
0001
0000
0001
0000
,
1000
0000
1000
0000
,
0010
0000
1000
0000
,
0001
0000
0100
0000
,
0010
0010
0010
0000
,
1000
0001
1000
0000
,
1001
0000
0110
0000
,
0011
0000
1100
0000
,
0001
0000
0000
0000
,
1000
0000
0100
0010
,
0100
0000
0001
0000
,
1000
0000
0010
0000
,
0100
0000
0000
0000
,
0001
0000
0000
0000
,
1000
0000
0000
0000
,
0100
0000
0000
0000
,
0010
0000
1000
0000
,
0010
0000
0000
0000
,
0001
0000
0100
0000
,
0001
0000
0000
0000
,
1000
0000
0010
0000
,
0100
0000
0000
0000
,
0001
0000
1000
0000
,
0100
0000
0000
0000
,
0001
0000
0000
0000
,
1000
0000
0000
0000
,
0010
0000
0000
0000
,
0100
0000
0000
0000
,
0001
0000
0000
0000
,
0010
0000
0000
0000
,
0100
0000
0000
0000
,
1000
0000
0000
0000
,
0001
0000
1000
0000
,
0001
0000
0000
0000
,
0110
0000
0000
0000
;

//--------------- dance-single - XLev450X-BSP ----------------
#NOTES:
     dance-single:
     XLev450X:
     Easy:
     5:
     0,0,0,0,0:
0000
0000
0000
0000
,
0000
0000
0000
0000
,
0000
0000
0000
0000
,
0000
0000
0000
0000
,
0000
0000
0000
0000
,
0000
0000
0000
0000
,
0000
0000
0000
0000
,
0000
0000
0000
0000
,
0001
1000
0010
0000
,
0100
0001
1000
0000
,
0010
1000
0001
0000
,
0100
1000
0010
0100
,
0001
0010
0001
0000
1000
0000
0100
0000
,
0010
1000
0010
0000
,
1000
0001
0100
0000
,
0010
1000
0001
0000
,
1000
0001
1000
0000
,
0100
1000
0010
0000
,
0010
1000
0001
0000
,
0100
0001
1000
0000
,
0100
1000
0001
0000
,
0100
0010
1000
0000
,
1000
0001
0100
0000
,
0010
1000
0010
0000
,
0001
1000
0010
0000
,
1000
0100
1000
0000
,
0010
1000
0001
0000
,
0100
0000
0010
0000
1000
0001
0100
0000
,
1000
0010
1000
0000
,
1000
0001
0100
0000
,
1000
0100
0010
0001
,
0010
0001
0010
0000
0100
1000
0100
0000
,
0010
1000
0001
0100
,
1000
0010
1000
0001
0100
0010
1000
0001
,
0100
1000
0010
1000
,
0010
1000
0001
0000
0100
1000
0010
0100
,
0002
0100
0100
0103
,
1000
0001
1000
0010
,
2000
0010
0010
3010
,
0100
0001
1000
0000
,
0200
0010
0010
0310
,
1000
0001
1000
0001
,
0020
0100
0100
0130
,
0010
0000
1000
0000
0001
0000
0000
0000
2002
0000
0000
0000
0000
3003
0000
0000
,
1000
0000
0000
0001
0000
0000
0000
0000
,
0000
1000
0010
0000
0000
1100
0000
0000
,
0010
0000
1000
0001
0000
0000
0000
0000
,
0000
0000
0100
0000
0010
0000
0000
0000
0000
0000
0000
0000
1000
0001
0000
0000
;

//--------------- dance-single - XLev450X-DSP ----------------
#NOTES:
     dance-single:
     XLev450X:
     Medium:
     10:
     0,0,0,0,0:
0000
0000
0000
0000
,
0000
0000
0000
0000
,
0000
0000
0000
0000
,
0000
0000
0000
0000
,
0000
0000
0000
0000
,
0000
0000
0000
0000
,
0000
0000
0000
0000
,
0000
0000
0000
0000
,
0010
1000
0001
1000
,
0010
0001
0010
0000
0100
1000
0100
0000
,
0001
0000
0000
0000
1000
0000
0000
0000
0010
0000
0000
0100
0000
0000
0001
0000
,
1000
0000
0001
0000
1000
0001
0100
0000
,
1000
0000
0100
1000
0100
0000
0010
0001
,
0100
0001
1000
0010
1000
0001
0100
0000
,
0000
0000
0010
0000
1000
0001
0000
0000
0100
0000
0001
0000
0000
0000
1000
0000
,
0010
0000
1000
0000
0001
0000
0010
0000
0100
0000
0001
0010
0000
0000
1000
0000
,
0010
1000
0010
0000
0100
0010
0001
1000
,
0010
0000
1000
0000
0001
1000
0001
0000
0010
0000
1000
0000
0010
0001
0010
1000
,
0010
0000
0001
0000
1000
0000
0010
0000
0100
0010
1000
0000
0001
0000
0010
0000
,
0000
0000
1000
0000
0001
0000
0100
0000
0010
0000
1000
0020
0000
0000
0000
0000
,
0030
0000
1000
0000
0001
0000
0100
0000
0001
0000
1000
0000
0010
0000
1000
0010
,
1000
0000
0100
0001
0100
0000
0010
0000
1000
0000
0001
0000
0100
0000
0010
0000
,
0000
0000
0010
0000
1000
0000
0001
0000
0000
0000
0100
0010
1000
0000
0001
0000
,
0010
0000
0001
0000
1000
0000
0001
0000
0100
0001
1000
0000
0000
0000
0010
0000
,
1000
0000
0010
0000
0200
0000
0000
0300
0001
0000
1000
0000
0000
0000
0010
0000
,
2000
0000
0000
0000
3001
0000
0000
0000
1000
0000
0000
0000
0010
0000
1000
0001
,
0010
0000
0100
0000
0001
0000
1000
0000
0001
0000
0200
0000
0300
0000
0010
2000
,
0000
3000
0001
0010
0100
0000
0010
0000
1000
0000
0001
0000
0100
0001
0100
1000
,
0200
0000
0000
0000
0300
0000
0010
0000
1000
0010
1000
0000
0000
0000
0000
0000
,
0001
0000
0010
0000
0200
0000
0000
0000
0300
0001
1000
0000
0000
0000
0000
0000
,
0010
1000
0001
0200
0000
0000
0000
0300
,
1000
0000
0001
0000
1000
0000
0001
0010
0100
0000
1000
0000
0000
0000
0220
0000
,
0330
0000
2002
0000
3003
0000
0010
0000
0001
0010
0001
0000
0000
0000
0000
0000
,
1000
0000
0010
0000
0200
0000
0000
0000
0300
0001
1000
0000
0000
0000
0000
0000
,
0100
0000
1000
0000
0001
0000
0100
0020
0000
0000
0000
0000
0000
0000
0000
0030
,
1000
0000
0010
0000
1000
0000
0001
0100
0010
0000
1001
0000
0000
0000
1010
0000
,
0000
0000
0000
0000
1000
0000
0000
0000
0000
0001
0100
0000
0000
0000
0010
0200
,
0000
0000
0300
0000
1000
0000
0001
0000
0100
0001
1000
0000
0000
0000
0010
0001
,
0010
0000
1000
0000
0001
0000
0100
0000
0010
0000
1000
0000
0000
0000
0010
1000
,
0001
0100
0010
0000
0000
0000
0000
0000
1000
0001
0100
0000
0000
0000
1010
0000
,
0000
0000
0000
0000
0022
0000
0033
0000
0000
0000
0101
0000
0000
0000
0001
0010
,
0000
0000
0000
0100
1000
0000
0001
0000
0100
0010
1000
0000
0000
0000
0010
0001
,
0010
0000
1000
0100
1000
0000
0010
0000
0100
0000
0001
0000
0000
0000
1000
0001
,
0100
0010
1000
0100
0000
0000
0000
0010
1000
0001
0100
0000
0000
0000
0000
0000
,
0010
0000
0000
1000
0000
0000
0000
0000
,
0000
0001
0100
0000
0000
1000
0000
0000
,
0101
0000
0000
1010
0000
0000
0000
0000
,
0000
0000
0010
0000
0100
0000
0000
0000
0000
0000
0000
0000
0001
1000
0000
0000
;

//--------------- dance-single - XLev450X-ESP ----------------
#NOTES:
     dance-single:
     XLev450X:
     Hard:
     14:
     0,0,0,0,0:
0000
0000
0000
0000
,
0000
0000
0000
0000
,
0000
0000
0000
0000
,
0000
0000
0000
0000
,
0000
0000
0000
0000
,
0000
0000
0000
0000
,
0000
0000
0000
0000
,
0000
0000
0000
0000
,
0000
0000
0000
0000
0000
0000
1000
0000
0001
0100
2000
0000
0000
0000
3000
0000
,
0010
0100
1000
0100
0001
0010
0100
1000
0001
0010
0200
0000
0000
0000
0300
0000
,
0001
0000
1000
0001
0100
0001
0010
1000
0200
0000
0310
0000
0000
0000
0000
0000
,
0001
0010
0001
1000
0010
0100
0001
1000
0010
0000
0200
0000
0300
0000
1001
0000
,
0000
0000
0000
0000
0001
1000
0010
0100
0001
1000
0010
0001
0100
1000
0100
1000
,
0001
0000
0100
0000
0001
0000
0010
0000
0100
0000
1000
0000
0100
0000
1000
0001
0100
0000
0010
0000
0001
0000
0100
0000
0010
0000
0000
0000
1001
0000
0000
0000
,
0000
0000
1000
0100
0010
0001
0000
0010
0100
0001
1000
0100
0010
0000
0001
0010
,
1000
0001
0010
1000
0100
0001
0010
0000
1000
0001
0100
0010
0200
0310
0001
1000
,
0010
0100
0001
1000
0010
0000
0100
0000
0001
0000
0010
0001
1000
0000
0010
0000
,
0100
0000
1000
0001
0100
0000
0010
1000
0001
0000
0100
0000
0001
1000
0010
0000
,
0100
0000
0000
0000
0010
0000
0000
0000
1000
0100
0001
0000
1000
0000
0001
0000
0010
0000
0000
0000
2000
0000
0000
0000
3000
0000
0000
0000
0010
0000
1000
0000
,
0001
0000
0100
0010
1000
0000
0010
0000
0100
0000
0001
0010
0001
0000
2020
0000
,
3030
0000
0001
0010
0001
1000
0001
0010
0100
1000
0010
1000
0001
0000
0001
0100
,
0001
0000
0010
1000
0001
0100
0010
1000
0001
0010
0001
0010
0100
1000
0020
0000
,
0030
0000
0000
0000
0100
0000
0010
0000
0001
0000
0010
0000
0001
0000
0010
0000
0002
0000
0003
0000
0100
0000
0010
0000
0001
0000
1000
0000
0010
0001
0100
0000
,
0010
0100
0010
1000
0100
0010
0001
1000
0010
0100
0020
0000
0030
0000
0010
1000
,
0100
0000
1000
0000
0010
0000
0100
0000
0010
0000
1000
0100
0001
0000
0010
0000
0100
0000
1000
0000
0020
0000
0000
0000
0030
0000
0000
0000
0010
0000
1000
0000
,
0001
0000
0100
0000
0001
0100
1000
0000
0010
0000
1000
0000
0010
0000
0100
0000
0001
0000
0100
0000
0020
0000
0000
0000
0030
0000
0000
0000
1000
0000
0100
0000
,
0001
0010
0100
0010
0001
0100
0010
0100
0010
0100
0002
0000
0003
0000
0100
1000
,
0001
1000
0001
1000
0100
0010
0100
1000
0010
0100
0001
0000
0001
1000
0001
0100
,
0020
0000
0000
0030
0000
0000
1000
0000
0001
0100
2000
0000
0000
0000
3000
0000
,
0010
0100
1000
0100
0001
0010
0100
1000
0001
0010
0200
0000
0000
0000
0300
0000
,
0001
0000
1000
0001
0100
0001
0010
1000
0200
0000
0310
0000
0000
0000
0000
0000
,
0001
0010
0001
1000
0010
0100
0001
1000
0010
0000
0200
0000
0300
0000
1001
0000
,
0000
0000
0110
0000
0000
0000
1000
0100
0001
0100
2000
0000
0000
0000
3000
0000
,
0010
0100
1000
0100
0001
0010
0100
1000
0001
0010
0200
0000
0000
0000
0300
0000
,
0001
0000
1000
0001
0100
0001
0010
1000
0200
0000
0310
0000
0000
0000
0000
0000
,
0001
0010
0001
1000
0010
0100
0001
1000
0010
0000
0200
0000
0300
0000
1001
0000
,
0000
0000
0000
0000
0000
0000
0000
0000
2002
0000
0000
3003
0000
0000
0000
0000
0100
0000
0001
0000
2000
0000
0000
0000
3000
0000
0000
0000
0010
0000
1000
0000
,
0001
0100
1000
0100
0001
0000
1000
0000
0010
0000
0100
0000
0000
0000
0001
0010
,
0001
1000
0010
0100
0001
1000
0010
0100
0001
1000
0020
0000
0030
0000
1000
0001
,
0100
0010
1000
0001
0100
0010
1000
0001
0100
0010
0002
0000
0003
0000
0110
0000
,
0000
0000
0000
0000
2002
3003
0000
0000
0010
1000
0002
0000
0003
0000
0100
0001
,
1000
0010
0001
0010
1000
0000
0001
0000
0100
0000
0010
0000
0000
0000
1000
0100
,
1000
0001
0100
0010
1000
0001
0100
0010
1000
0001
0200
0000
0300
0000
0001
1000
,
0010
0100
0001
1000
0010
0100
0001
1000
0010
0100
2000
0000
3000
0000
0000
0000
,
0001
0000
0000
0000
1000
0000
0001
0000
0000
0000
0010
0000
0100
0000
0010
0001
,
0010
1000
0010
0000
0100
0001
0000
1000
,
0001
0000
0000
0000
0100
0000
0010
0000
0000
0000
1000
0000
0010
0000
1000
0001
,
0010
0000
1000
0000
0001
0000
0100
0000
0000
0000
0010
0000
1000
0001
0000
0000
;
