#TITLE:Finally (RGR-Special);
#ARTIST:CLUB 90's;
#GENRE:DDR EDTION;
#MUSIC:Finally (RGR-Special).ogg;
#BANNER:Finally (RGR-Special).png;
#BACKGROUND:Finally (RGR-Special)-bg.png;
#CDTITLE:./CDTITLES/DDR HOTTEST PARTY.png;
#SAMPLESTART:18.462;
#SAMPLELENGTH:15;
#BPMS:0=130;

//--------------- dance-single - XLev450X ----------------
#NOTES:
     dance-single:
     XLev450X:
     Challenge:
     13:
     0,0,0,0,0:
0000
0000
0000
0000
,
0000
0000
0000
0000
,
0000
0000
0000
0000
,
0000
0000
0000
0000
,
0000
0000
0000
0000
,
0000
0000
0000
0000
,
1000
0001
1000
0000
0010
0001
0010
0000
,
1000
0000
0100
0000
1000
0000
0001
0000
0010
0000
0100
1000
0001
0100
1000
0001
,
0010
0000
0100
0000
1000
0000
0000
0000
0010
0000
0001
0000
0010
0000
0000
0100
,
1000
0000
0001
0000
0100
0000
0010
0000
0100
1000
0001
0010
0100
1000
0100
0010
,
0001
1000
0001
0100
0000
0010
0001
0010
,
0000
0000
1000
0000
0001
0000
0100
0000
0000
0000
0010
0000
0001
0000
1000
0001
,
1000
0010
0100
1000
0000
0001
0100
0010
,
0000
0000
1000
0000
0001
0000
0000
0100
0000
0000
0001
1000
0010
2000
0000
3000
,
0000
1000
0001
0200
0300
0010
0001
0010
,
0000
0000
1000
0000
0001
0000
0100
0000
0000
0000
0010
0000
0001
1000
0010
1000
,
0001
1000
0001
0100
0000
0010
0001
0010
,
0000
0000
1000
0000
0001
0000
0000
0100
0000
0000
0010
1000
0001
0100
0000
0000
,
0010
1000
0000
0001
0000
1000
0000
0020
0000
0000
0000
0000
0030
0000
0001
0000
,
1000
0001
0100
0000
1000
0001
0000
0200
0000
0000
0000
0000
0300
0000
0010
0000
,
0001
1000
0000
0010
0000
0001
0000
2000
0000
0000
0002
0000
3000
0000
0003
0000
,
0000
0000
1000
0000
0001
0000
0100
0000
0010
0000
0001
1000
0001
1000
0001
0000
,
1000
0001
0000
0010
0000
0100
0000
0020
0000
0000
0000
0000
0030
0000
1000
0000
,
0010
0000
0000
0100
0000
0001
0000
2000
0000
0000
0000
0000
3000
0000
0000
0001
,
0000
0100
0000
1000
0000
0001
0000
0100
0000
0010
0000
1000
0000
0001
0000
0100
,
0000
0010
0000
1000
0000
0001
0000
0200
0000
0000
0000
0000
0000
0000
0000
0000
,
0300
1000
0001
0100
0020
0000
0030
1001
,
0000
0001
0100
0020
0000
0000
0030
1000
,
0001
0000
0000
0010
0001
0000
0000
1000
0010
0000
0000
0100
0001
0000
0000
1000
,
0001
0100
0010
0200
0000
0000
0000
0300
,
0001
1000
0000
0010
0000
0100
0000
0002
0000
0000
0000
0000
0003
0000
1000
0000
,
0001
1000
0100
0001
0020
0030
2001
0000
,
0000
0000
3000
0001
0100
0010
1000
0001
,
0100
0010
0001
1000
0010
0100
0001
1000
0010
0000
1000
0000
0001
0000
0100
0000
,
0010
0000
0001
1000
0010
0100
0001
1000
,
0000
0001
0100
0010
0000
1000
0001
0100
,
0000
0000
0010
0000
0001
0000
1000
0000
0000
0000
0001
0000
0100
0001
0100
0000
,
0000
0000
1000
0000
0010
0000
0200
0000
0300
0000
0001
1000
0010
0200
0000
0000
,
0300
0001
1000
0010
0000
0100
1000
0100
,
0000
0001
0010
0001
0000
1000
0010
0100
,
0000
0001
1000
0010
0000
0100
0001
1000
,
0000
0000
0001
0000
0100
0000
0000
0010
0000
0000
1000
0100
0002
0000
0000
0000
,
0003
1000
0001
0100
0000
0010
0001
1000
,
0010
0000
0001
0000
1000
0000
0010
0000
0100
0000
0010
0001
0010
0000
1000
0100
,
1000
0000
0001
0000
1000
0000
0010
0000
0000
0000
0100
0000
0001
0100
1000
0000
,
0000
0010
0100
0001
0000
2000
0000
0000
,
3000
0001
1000
0010
0000
0100
0001
1000
,
0100
0000
0010
0000
0100
0000
0001
0000
0010
0000
1000
0001
1000
0000
0001
1000
,
0001
1000
0001
0100
0000
0010
0001
1000
,
0000
0000
0001
0000
0100
0000
0010
0000
0000
0000
0202
0000
0000
0000
0000
0303
,
0000
0000
1000
0000
0001
0000
0100
0000
0000
0000
0010
0001
0010
0001
0000
0000
,
1000
0100
1000
0100
0000
0000
0010
0100
0010
0100
0000
0000
2002
0000
0000
0000
,
3003
0000
0000
0000
;
