#TITLE:Faded;
#SUBTITLE:;
#ARTIST:Tom Orlando;
#TITLETRANSLIT:;
#SUBTITLETRANSLIT:;
#ARTISTTRANSLIT:;
#GENRE:;
#CREDIT:;
#MUSIC:Faded.ogg;
#BANNER:Faded.png;
#BACKGROUND:Faded-bg.png;
#CDTITLE:;
#SAMPLESTART:36.915;
#SAMPLELENGTH:15.000;
#SELECTABLE:YES;
#OFFSET:-0.003;
#BPMS:0.000=104.031;
#STOPS:;
#BGSTAGE:2;
#DISPLAYBPM:104;
#BGCHANGES:;
#FGCHANGES:;

//--------------- dance-single - XLev450X-bSP ----------------
#NOTES:
     dance-single:
     XLev450X:
     Beginner:
     2:
     0,0,0,0,0:
0000
0000
0000
0000
,
0000
0000
0000
0000
,
0000
0000
0000
0000
,
0000
0000
0000
0000
,
1000
0000
0000
0000
,
0001
0000
0000
0000
,
0010
0000
0000
0000
,
0100
0000
0000
0000
,
0010
0000
0100
0000
,
0010
0000
0000
0000
,
1000
0000
0001
0000
,
1000
0000
0000
0000
,
1001
0000
0000
0000
,
0000
0000
0000
0000
,
0110
0000
0000
0000
,
0000
0000
0000
0000
,
0001
0000
0001
0000
,
0001
0000
0000
0000
,
1000
0000
1000
0000
,
1000
0000
0000
0000
,
0010
0100
0010
0000
,
0001
1000
0001
0000
,
1000
0100
1000
0000
,
0010
0001
0010
0000
,
0110
0000
0000
0000
,
1001
0000
0000
0000
,
1010
0000
0000
0000
,
0101
0000
0000
0000
,
0010
0000
0000
0000
,
0100
0000
0000
0000
,
0001
0000
0000
0000
,
1000
0000
0000
0000
,
0100
0000
0100
0000
,
0100
0000
0000
0000
,
0010
0000
0010
0000
,
0010
0000
0000
0000
,
0001
0001
0001
0000
,
1000
1000
1000
0000
,
0100
0100
0100
0000
,
0010
0010
0010
0000
,
0010
0100
0010
0000
,
1000
0001
1000
0000
,
0100
1000
0100
0000
,
0010
0001
0010
0000
,
1001
0000
0000
0000
;

//--------------- dance-single - XLev450X-BSP ----------------
#NOTES:
     dance-single:
     XLev450X:
     Easy:
     4:
     0,0,0,0,0:
0000
0000
0000
0000
,
0000
0000
0000
0000
,
0000
0000
0000
0000
,
0000
0000
0000
0000
,
1000
1000
1000
0000
,
0001
0001
0001
0000
,
0010
0010
0010
0000
,
0100
0100
0100
0000
,
0010
0100
0010
0000
,
1000
0001
1000
0000
,
0100
0001
0100
0000
,
0010
1000
0010
0000
,
1001
0000
0100
0000
,
0010
0000
1000
0000
,
0001
0000
0100
0000
,
0010
0000
1000
0001
,
0010
0000
0100
0000
,
0010
0000
1000
0100
,
0001
0000
0010
0000
,
0100
0000
1000
0010
,
0100
0000
0001
0000
,
1000
0000
0010
0100
,
0001
0000
0010
0000
,
0100
0000
0001
0100
,
1001
0000
1010
0000
,
0101
0000
0110
0000
,
1001
0000
0101
0000
,
1010
0000
0110
0000
,
1001
0001
0001
0000
,
1000
1000
1000
0000
,
0010
0010
0010
0000
,
0100
0100
0100
0000
,
0010
0001
0010
0000
,
1000
0010
1000
0000
,
0100
0001
0100
0000
,
0010
1000
0100
0001
,
0010
0000
0100
0000
,
0001
0000
1000
0000
,
0010
0100
0001
0000
,
1000
0010
0100
0000
,
0001
0000
0100
0000
,
0010
0000
1000
0000
,
0001
1000
0010
0000
,
0100
0001
1000
0010
,
1001
0000
0000
0000
;

//--------------- dance-single - XLev450X-DSP ----------------
#NOTES:
     dance-single:
     XLev450X:
     Medium:
     6:
     0,0,0,0,0:
0000
0000
0000
0000
,
0000
0000
0000
0000
,
0000
0000
0000
0000
,
0000
0000
0000
0000
,
0100
1000
0001
0000
,
0001
0100
0001
0000
,
0100
1000
0100
0010
,
0001
0000
1000
0000
0010
0000
0001
0100
,
0001
0010
0001
0100
,
0010
0000
0000
0000
1000
0000
0000
0000
0010
0000
0000
0001
0000
0000
0100
0000
,
0001
1000
0010
0100
,
0001
1000
0001
0010
,
1001
0000
0010
0000
,
0100
0000
0100
0010
,
0100
0000
0001
0000
,
0100
0010
0100
1000
,
0001
1000
0001
1000
0100
0000
0010
0000
,
0001
0010
0001
1000
0001
0000
0100
0000
,
0001
0100
0010
0100
,
0001
0000
0010
0000
0001
0000
0010
1000
,
0010
0100
0010
0000
,
0001
0000
0100
1000
,
0001
0010
0001
0000
,
0001
0000
0100
0000
0010
0000
0010
1000
,
0100
0010
0001
1000
,
0100
0010
0001
0000
,
0100
0010
0100
0010
,
0100
0010
0100
0010
0100
1000
0001
0010
,
0001
0100
0010
0000
,
0100
0010
0100
0000
,
0100
1000
0010
0000
,
0001
0000
0010
0000
0100
0000
0010
1000
,
0001
0100
0001
0000
,
0100
0000
0000
0000
0010
0000
0000
0000
0001
0000
0000
1000
0000
0000
0010
0000
,
0001
1000
0100
0010
,
0100
1000
0010
0100
,
2020
3030
0001
1000
,
0002
0003
0100
1000
,
0001
0010
0100
0010
,
0100
0000
1001
0000
,
0001
0010
0200
0300
,
0100
1000
0001
0100
,
0020
0030
0200
0300
,
0010
1000
0100
0010
,
1001
0000
0000
0000
;

//--------------- dance-single - XLev450X-ESP ----------------
#NOTES:
     dance-single:
     XLev450X:
     Hard:
     11:
     0,0,0,0,0:
0000
0000
0000
0000
,
0000
0000
0000
0000
,
0000
0000
0000
0000
,
0000
0000
0000
0000
,
0000
0000
0001
0100
0010
0100
0001
1010
,
0000
0000
0001
0010
0001
0100
0001
1010
,
0000
1000
0010
1000
0010
0100
0001
1010
,
0000
0010
0100
0010
0100
1000
0010
0101
,
0000
0100
0010
0100
0001
1001
0000
1000
,
0100
0000
1000
0000
0001
0000
0100
0000
0001
0000
2200
0000
0000
3300
0000
0000
,
0000
0000
0010
0000
0100
0000
0010
0000
0001
0000
0220
0000
0000
0330
0000
0000
,
0000
0010
1000
0000
0001
0000
0100
0000
0001
0000
0100
0000
0010
0000
0202
0000
,
0000
0303
0000
0010
1000
0000
0010
0000
0100
0000
0010
0000
2000
0000
3000
0001
,
0010
0000
0001
0000
0100
0000
0001
0000
0010
0000
0002
0000
0003
0010
0100
0000
,
1000
0010
1000
0001
0100
0001
1000
0010
,
1000
0001
0100
0010
1000
0010
1000
0200
,
0300
0000
0010
0001
1000
0100
0010
0200
,
0000
0300
0000
0000
1000
0000
0001
0000
0100
0000
0001
0000
0100
0000
0002
0000
,
0003
0010
1000
0001
1000
0100
0010
0001
,
0100
0001
0010
0100
1000
0001
0010
0002
,
0003
0000
0000
0000
1000
0000
0001
0000
1000
0000
0010
0000
0200
0000
0300
1000
,
0010
0100
1000
0100
0010
0001
0100
0002
,
0003
0000
0010
0001
1000
0100
1000
0001
,
0000
0100
0010
0001
1000
0100
1000
0020
,
0030
0000
0010
0100
1000
0020
0030
0100
,
1000
0001
0010
0001
1000
0020
0030
0100
,
0010
0001
0020
0030
1000
0100
2000
3000
,
0100
0010
0100
0001
0010
0100
0010
0002
,
0003
0000
1000
0010
0100
0001
0100
1001
,
0000
0000
0100
0010
1000
0010
0100
1010
,
0000
0001
0100
0001
1000
0100
1000
0011
,
0000
0010
0100
0010
1000
0100
0010
0101
,
0000
0001
1000
0100
1000
0110
0000
0001
,
0010
0001
1000
0001
0010
0101
0000
0000
,
0000
0010
1000
0010
0100
0202
0303
0000
,
0000
0000
0000
0010
0000
0000
0100
0000
0000
0000
0000
0000
1000
0000
0000
0000
0000
0000
0001
0000
0000
0000
0000
0000
1000
0000
0000
0000
0000
0000
0100
0000
0000
0000
0000
0000
0010
0000
0000
0000
0000
0000
0200
0000
0300
0000
0000
0000
,
1000
0000
0000
0000
0000
0000
0000
0000
0000
0000
0000
0000
0001
0000
0000
0000
0000
0000
0000
0000
0000
0000
0000
0000
0000
0000
0000
0000
0000
0000
0100
0000
0000
0000
0000
0000
0000
0000
0000
0000
0000
0000
0000
0000
0000
0000
0000
0000
1000
0000
0000
0000
0000
0000
0000
0000
0000
0000
0000
0000
0001
0000
0000
0000
0000
0000
0010
0000
0000
0000
0000
0000
1000
0000
0000
0000
0000
0000
0000
0000
0000
0000
0000
0000
0002
0000
0000
0000
0000
0000
0000
0003
0000
0000
0000
0000
,
0100
0000
0010
0000
0000
1000
0000
0000
0010
0000
0100
1000
0001
0000
0010
0000
,
0100
0000
0000
0010
1000
0000
0100
0000
0010
0000
0202
0000
0303
0000
0000
0000
,
0000
0000
0000
0001
1000
0000
0100
0000
0010
0000
0001
0000
1000
0000
0010
0000
,
1000
0000
0001
0000
0000
0100
0000
0000
0100
0000
0010
0100
0010
0000
0001
0000
,
0010
0000
0100
0000
0000
1000
0000
0000
0100
0000
0010
1000
0001
0000
0020
0030
,
1000
0000
0001
0000
0000
0010
0000
0000
1000
0000
0010
1000
0001
0000
0010
0000
,
0100
0000
0001
0000
0000
0100
0000
0010
0001
0100
0001
0010
0100
1000
0100
1000
,
0011
0000
0000
0000
;
