#TITLE:Fade Away;
#ARTIST:Tom Orlando;
#MUSIC:Fade Away.ogg;
#BANNER:Fade Away.png;
#BACKGROUND:Fade Away-bg.png;
#SAMPLESTART:15.887;
#SAMPLELENGTH:15;
#SELECTABLE:YES;
#OFFSET:-0.149;
#BPMS:0=122;
#BGSTAGE:4;

//--------------- dance-single - XLev450X-bSP ----------------
#NOTES:
     dance-single:
     XLev450X:
     Beginner:
     1:
     0,0,0,0,0:
0000
0000
0000
0000
,
0000
0000
0000
0000
,
0000
0000
0000
0000
,
0000
0000
0000
0000
,
0000
0000
0000
0000
,
0000
0000
0000
0000
,
0000
0000
0000
0000
,
0000
0000
0000
0000
,
1000
0000
0000
0000
,
0001
0000
0000
0000
,
0010
0000
0000
0000
,
0100
0000
0000
0000
,
0001
0000
0000
0000
,
0100
0000
0000
0000
,
0010
0000
0000
0000
,
1000
0000
0000
0000
,
0100
0000
0100
0000
,
0100
0000
0000
0000
,
0001
0000
0001
0000
,
0001
0000
0000
0000
,
1000
0000
0010
0000
,
0100
0000
0000
0000
,
0010
0000
0001
0000
,
0100
0000
0000
0000
,
1000
0000
0000
0000
,
0000
0000
0000
0000
,
0010
0000
0000
0000
,
0000
0000
0000
0000
,
0100
0000
0000
0000
,
0000
0000
0000
0000
,
0001
0000
0000
0000
,
0000
0000
0000
0000
,
0010
0000
0010
0000
,
0010
0000
0000
0000
,
0100
0000
0100
0000
,
0100
0000
0000
0000
,
1000
0000
1000
0000
,
1000
0000
0000
0000
,
0001
0000
0001
0000
,
0001
0000
0000
0000
,
1001
0000
0000
0000
;

//--------------- dance-single - XLev450X-BSP ----------------
#NOTES:
     dance-single:
     XLev450X:
     Easy:
     2:
     0,0,0,0,0:
0000
0000
0000
0000
,
0000
0000
0000
0000
,
0000
0000
0000
0000
,
0000
0000
0000
0000
,
0000
0000
0000
0000
,
0000
0000
0000
0000
,
0000
0000
0000
0000
,
0000
0000
0000
0000
,
0010
0000
0100
0000
,
0001
0000
0000
0000
,
1000
0000
0010
0000
,
0100
0000
0000
0000
,
0001
0000
1000
0000
,
0001
0000
0000
0000
,
0010
0000
0100
0000
,
0010
0000
0000
0000
,
0010
0010
0010
0000
,
1000
0100
0010
0000
,
0100
0100
0100
0000
,
0001
0100
0010
0000
,
0001
0000
1000
0000
,
0010
0000
0100
0000
,
0001
1000
0010
0100
,
2002
0000
0000
0000
0000
0000
0000
3003
,
0010
0000
0100
0000
,
0001
0000
0000
0000
,
1000
0000
0010
0000
,
1000
0000
0000
0000
,
2200
0000
0000
3300
0022
0000
0000
0033
,
0220
0000
0000
0000
0000
0000
0000
0330
,
0202
0000
0000
0303
2020
0000
0000
3030
,
2002
0000
0000
0000
0000
0000
0000
3003
,
0010
0000
0010
0100
,
0000
0100
0001
0000
,
0001
0000
0010
1000
,
0010
0000
0010
0100
,
2002
0000
0000
3003
0220
0000
0000
0330
,
2002
0000
0000
0000
0000
0000
0000
3003
,
2002
0000
0000
3003
0202
0000
0000
0303
,
2020
0000
0000
0000
0000
0000
0000
3030
,
0110
0000
0000
0000
;

//--------------- dance-single - XLev450X-DSP ----------------
#NOTES:
     dance-single:
     XLev450X:
     Medium:
     6:
     0,0,0,0,0:
0000
0000
0000
0000
,
0000
0000
0000
0000
,
0000
0000
0000
0000
,
0000
0000
0000
0000
,
0000
0000
0000
0000
,
0000
0000
0000
0000
,
0000
0000
0000
0000
,
0000
0000
0000
0000
,
0001
0000
1000
0000
0001
0100
0010
0000
,
0100
0000
0010
0000
0001
0010
0100
0000
,
1010
0000
0000
0100
0001
0100
1000
0000
,
0001
0000
1000
0000
0100
0000
0010
1000
,
0001
0000
0010
0000
0001
0000
0010
0001
,
0100
0000
1000
0000
0010
0000
0100
0001
,
0010
0100
0001
0100
,
0001
0000
1000
0000
0100
1000
0010
0000
,
0101
0000
0000
1000
0001
0010
0100
0000
,
0001
0000
1000
0000
0001
0010
1000
0000
,
0100
1000
0010
0100
,
0001
0000
1000
0000
0001
0000
1000
0010
,
0100
0000
0000
0010
,
0100
1000
0001
0010
,
0001
0100
1000
0010
0001
0100
1000
0001
,
0120
0000
0000
0000
0000
0000
0000
0030
,
0001
0000
0000
1000
0000
0001
0100
0000
,
0010
0100
0001
1000
,
0100
0000
0000
0010
0000
0001
0010
0000
,
0100
0000
1000
0000
0100
0010
0100
0000
,
0001
0100
0010
1000
,
0100
0000
1000
0000
0010
1000
0010
0000
,
0001
0010
0001
0010
,
0100
0000
1000
0000
0100
1000
0001
0100
,
1000
0010
0001
1000
,
0100
0000
1000
0000
0001
1000
0100
0000
,
0001
1000
0100
1000
,
0010
0000
0100
0000
0001
0100
0010
0100
,
0001
1000
0010
1000
,
0010
0000
0100
0000
0001
0010
1000
0000
,
0001
1000
0100
1000
,
0201
0000
0000
0000
0000
0000
0000
0000
0000
0000
0000
0000
0000
0300
0000
0000
,
1001
0000
0000
0000
;

//--------------- dance-single - XLev450X-ESP ----------------
#NOTES:
     dance-single:
     XLev450X:
     Hard:
     10:
     0,0,0,0,0:
0000
0000
0000
0000
,
0000
0000
0000
0000
,
0000
0000
0000
0000
,
0000
0000
0000
0000
,
0000
0000
0000
0000
,
0000
0000
0000
0000
,
0000
0000
0000
0000
,
0000
0000
0000
0000
,
0000
0000
0100
0000
0010
0000
1000
0000
0100
0000
0010
0000
0001
0010
0100
1000
,
0010
0000
0001
1000
0100
0000
0010
0000
0100
0000
0001
0100
0010
1000
0100
0000
,
0001
1000
0010
1000
0001
0010
1000
0000
0010
0000
1000
0000
0010
0000
0100
0000
,
0001
1000
0100
1000
0100
1000
0001
0010
,
0000
1000
0010
0100
0010
0100
0001
0100
,
0000
1000
0010
0100
0000
0100
0001
0010
,
0000
0010
0100
0010
0100
1000
0100
0010
,
0000
0010
0001
1000
0100
1000
0010
0100
,
0000
0001
0010
1000
0001
1000
0000
0100
,
0010
1000
0001
1000
0010
0100
0000
0100
,
0010
1000
0001
0010
0100
0010
0000
1000
,
0001
0010
0100
1000
0100
0010
0100
1000
,
0000
0000
1001
0000
0000
0000
0001
0010
,
0100
0010
0001
0010
0001
1000
0010
1000
,
0100
0010
0001
0010
0001
0010
0100
1000
,
0020
0000
0000
0000
0000
0000
0000
0000
0000
0000
0000
0000
0000
0030
0000
0000
,
0001
1000
0010
0100
0001
0000
0220
0000
,
0000
0000
0000
0330
0001
0000
0100
0000
0001
0000
0010
0000
0100
0000
0000
0000
,
0010
0000
0010
1000
0001
0010
0002
0000
,
0000
0003
0010
1000
0100
0010
0001
0000
,
0200
0000
0000
0000
0000
0300
0002
0000
0000
0000
0000
0003
0200
0000
0000
0000
,
0000
0000
0000
0000
0000
0000
0000
0000
0000
0000
0000
0000
0000
0000
0000
0000
0000
0000
0000
0000
0000
0000
0000
0000
0000
0000
0000
0000
0000
0000
0000
0000
0000
0000
0000
0000
0000
0000
0000
0000
0000
0000
0000
0000
0000
0000
0000
0000
0000
0000
0000
0000
0000
0000
0000
0300
0000
0000
0000
0000
0000
0000
0000
0000
,
0002
0000
0000
0000
0000
0003
2000
0000
0000
0000
0000
3000
0002
0000
0000
0000
,
0000
0000
0000
0000
0000
0003
0000
0000
1000
0000
0100
0000
0001
0000
0100
0000
,
0001
1000
0010
1000
0001
0000
2002
0000
,
0000
3003
0100
0010
0100
1000
0010
0000
,
0101
0000
0010
0100
0001
0010
0001
0000
,
0000
0000
0010
0100
0001
0100
0001
0000
,
0020
0000
0030
0200
0000
0300
0002
0000
,
0000
0000
0000
0003
,
0200
0000
0000
0000
0300
0000
2000
0000
0000
0000
3000
0000
0002
0000
0000
0003
,
0100
1000
0001
0100
0001
1000
0001
0010
0100
1000
0001
0100
,
0011
0000
0000
0000
;

//--------------- dance-single - XLev450X-CSP ----------------
#NOTES:
     dance-single:
     XLev450X:
     Challenge:
     15:
     0,0,0,0,0:
0000
0000
0000
0000
,
0000
0000
0000
0000
,
0000
0000
0000
0000
,
0000
0000
0000
0000
,
0000
0000
0000
0000
,
0000
0000
0000
0000
,
0000
0000
0000
0000
,
0000
0000
0000
0000
,
0101
0000
0000
0000
1000
0000
0010
0100
0010
0000
1000
0001
0010
0000
0100
1000
,
0001
0000
0010
0001
0100
0000
0000
0000
1000
0000
0100
0000
0011
0000
0000
0000
,
1010
0000
0000
0000
0100
0000
0010
0100
0001
0000
0010
0100
1000
0000
0010
0100
,
0001
0000
0010
0001
1000
0000
0000
0000
0010
0000
0100
0000
1001
0000
0000
0000
,
1000
0010
0000
0010
0100
0000
0100
0010
0000
0010
0100
0000
0110
0000
0001
0010
,
0001
0010
0100
1000
0010
1000
0001
0100
0010
0100
0001
0010
0100
0000
1001
0000
,
0001
0010
0000
0010
0100
0000
0100
0010
0000
0010
0100
0000
1100
0000
0001
0100
,
0001
0010
0100
1000
0100
0010
0001
0010
0001
1000
0010
0100
0010
0000
0000
0000
,
0110
0000
0000
0001
0100
0000
1000
0100
0000
0010
1000
0000
0001
0010
0100
0000
,
1100
0000
0000
1000
0100
0000
0001
0100
0000
0010
0001
0000
1000
0100
0010
0000
,
0011
0000
0000
0001
0100
0000
0010
1000
0000
0100
0010
0000
0100
1000
0010
0000
,
0110
0000
0000
1000
0100
0000
0010
0001
0000
0100
0010
0000
0100
0001
0010
0000
,
0020
0000
0000
2030
0000
0000
3200
0000
0320
0000
0000
0032
0000
0000
0203
0000
,
0302
0000
0000
0023
0000
0000
2030
0000
3002
0000
0000
0203
0000
0000
2300
0000
,
3020
0000
0000
0032
0000
0000
2003
0000
3200
0000
0000
0302
0000
0000
1003
0000
,
0001
1000
0001
1000
0001
1000
0001
1000
0001
0100
0001
0100
0001
0100
0001
0100
,
1001
0000
0001
0100
0010
0000
0110
0000
1000
0100
0010
0000
0011
0000
0001
1000
,
0010
0000
0110
0000
1000
0100
1000
0000
0011
0000
0010
0100
1000
0000
1010
0000
,
0001
0100
0010
0000
0110
0000
1000
0100
0001
0000
0110
0000
0001
0100
1000
0000
,
0000
0000
0010
1000
0010
1000
0001
0100
0001
0000
0100
0010
1000
0100
0010
0001
,
1100
0000
0000
0011
0000
0000
1100
0000
0000
0101
0000
0000
1000
0000
1010
0000
,
0000
0011
0000
0000
1010
0000
0000
1001
0000
0000
0100
0000
1100
0000
0000
0000
,
0011
0000
0000
1001
0000
0000
0011
0000
0000
0101
0000
0000
0010
0000
1010
0000
,
0000
1100
0000
0000
1010
0000
0000
1001
0000
0000
1000
0000
0011
0000
0000
0000
,
1001
0000
1001
0000
0100
0000
0010
0001
0100
0000
0010
0000
1100
0000
1100
0000
,
0010
0001
0100
0000
0100
0000
0010
1000
0100
0000
0100
0000
0010
0000
0000
0000
,
1001
0000
1001
0000
0010
0000
0100
0001
0010
0000
0100
1000
0100
0000
1001
0000
,
0010
0000
0001
1000
0100
0000
0001
0000
0100
0010
0001
1000
0001
0000
0000
0000
,
0001
0000
0100
0010
0100
0000
1000
0000
0100
0010
0100
0000
0001
0000
0100
0010
,
0100
1000
0100
0010
1000
0100
0010
0001
,
1000
0000
0100
0010
0100
0000
0001
0000
0100
0010
0100
0000
1000
0000
0100
0010
,
0100
0001
0100
0010
0001
0100
0220
0330
,
1001
0000
0000
0000
;
