#VERSION:0.83;
#TITLE:FUTURE is Dead;
#ARTIST:C-Show;
#GENRE:HOLIC;
#MUSIC:FUTURE is Dead.ogg;
#BANNER:FUTURE is Dead.png;
#BACKGROUND:FUTURE is Dead-bg.png;
#CDTITLE:./CDTitles/bm IIDX 25 CANNON BALLERS.png;
#SAMPLESTART:27.175;
#SAMPLELENGTH:15;
#OFFSET:1.188;
#BPMS:0=110;
#TIMESIGNATURES:0=4=4;
#BGCHANGES:2=FUTURE is Dead.mp4=1.000=0=0=0=StretchNoLoop====,
99999.000=-nosongbg-=1.000=0=0=0=StretchNoLoop====;
#BGSTAGE:27;

//--------------- dance-single - XLev450X-bSP ----------------
#NOTEDATA:;
#STEPSTYPE:dance-single;
#DESCRIPTION:XLev450X;
#DIFFICULTY:Beginner;
#METER:3;
#RADARVALUES:0,0,0,0,0;
#NOTES:
0000
0000
0000
0000
,
0000
0000
0000
0000
,
0000
0000
0000
0000
,
0000
0000
0000
0000
,
0000
0000
0000
0000
,
0001
1000
0001
0000
,
0010
1000
0010
0000
,
0100
0001
0100
0000
,
1000
0001
1000
0000
,
1001
0000
0000
0000
,
0000
0000
0000
0000
,
0010
0010
0010
0000
,
0100
0100
0100
0000
,
0001
0000
0001
0000
,
0001
0000
0000
0000
,
1000
0000
1000
0000
,
1000
0000
0000
0000
,
1001
0000
0000
0000
,
0000
0000
0000
0000
,
0010
0000
0100
0000
,
0010
0000
0000
0000
,
1001
0000
0000
0000
,
0000
0000
0000
0000
,
0001
0000
0000
0000
,
1000
0000
0000
0000
,
0100
0000
0000
0000
,
0010
0000
0000
0000
,
0001
0000
0000
0000
,
1000
0000
0000
0000
,
0010
0000
0000
0000
,
0100
0000
0000
0000
,
0001
0001
0001
0000
,
1000
1000
1000
0000
,
0010
0000
0100
0000
,
0010
0000
0000
0000
,
0001
0001
0000
0000
,
1000
1000
0000
0000
,
0100
0100
0000
0000
,
0010
0010
0000
0000
,
1001
0000
0000
0000
,
0001
1000
0001
0000
,
0010
1000
0010
0000
,
0100
0001
0100
0000
,
1001
0000
0000
0000
,
0000
0000
0000
0000
,
1001
0000
0000
0000
,
0000
0000
0000
0000
,
1001
0000
0000
0000
,
0001
0000
1000
0000
,
0001
0000
0000
0000
,
0110
0000
0000
0000
,
1001
0000
0000
0000
,
0000
0000
0000
0000
,
1001
0000
0000
0000
;

//--------------- dance-single - XLev450X-BSP ----------------
#NOTEDATA:;
#STEPSTYPE:dance-single;
#DESCRIPTION:XLev450X;
#DIFFICULTY:Easy;
#METER:6;
#RADARVALUES:0,0,0,0,0;
#NOTES:
0000
0000
0000
0000
,
0000
0000
0000
0000
,
0000
0000
0000
0000
,
0000
0000
0000
0000
,
0000
0000
0000
0000
,
1000
0100
0001
0010
,
0100
1000
0001
1000
,
0010
0100
0001
0010
,
0100
0000
1000
0000
0001
1000
0001
0000
,
2002
0000
0000
0000
,
0000
0000
0000
3003
,
1000
0010
0100
0000
,
0001
0000
1000
0000
0010
0100
0010
0000
,
0001
1000
0010
0100
,
1000
0010
1000
0000
0001
0100
0001
0000
,
1000
0010
0100
0000
,
0001
0000
0010
0000
1000
0010
1000
0000
,
0202
0000
0000
0303
,
2020
0000
0000
3030
,
0001
0000
1000
0000
0010
0100
0010
0000
,
0001
0010
0001
0000
1000
0100
1000
0000
,
2002
0000
0000
0000
,
0000
0000
0000
3003
,
0001
1000
0010
0100
,
0001
0010
1000
0000
,
1000
0100
0010
0001
,
2000
0000
0000
0000
0002
0000
0000
3003
,
0001
1000
0010
0100
,
0001
0010
1000
0000
,
1000
0010
0100
0001
,
0200
0000
0000
0000
0020
0000
0000
0330
,
0001
0010
1000
0100
,
0010
0001
1000
0010
,
0100
0010
1000
0001
,
1000
0001
1000
0000
0010
0100
0010
0000
,
0001
0001
1000
0010
,
1000
0010
0100
0000
0010
0001
0010
0000
,
1000
0001
1000
0000
,
0010
1000
0100
0000
,
0022
0000
0000
0033
,
1000
0000
0010
0000
0100
0001
0100
0000
,
0010
0000
1000
0000
1000
0001
1000
0000
,
0010
1000
0010
0000
0100
0001
0100
0000
,
2020
0000
0000
3030
,
0220
0000
0000
0330
,
0022
0000
0000
0033
,
2002
0000
0000
3003
,
0001
1000
0010
0000
,
0001
1000
0100
0000
,
0010
0000
0001
0000
1000
0001
1000
0000
,
0010
0000
0000
0000
0100
0000
0000
0010
0000
0000
0000
0000
0100
0000
0000
0000
,
2002
0000
0000
0000
,
0000
0000
0000
3003
,
1001
0000
0000
0000
;

//--------------- dance-single - XLev450X-DSP ----------------
#NOTEDATA:;
#STEPSTYPE:dance-single;
#DESCRIPTION:XLev450X;
#DIFFICULTY:Medium;
#METER:10;
#RADARVALUES:0,0,0,0,0;
#NOTES:
0000
0000
0000
0000
,
0000
0000
0000
0000
,
0000
0000
0000
0000
,
0000
0000
0000
0000
,
0000
0000
0000
0000
,
0001
0000
1000
0000
0010
0100
0001
0010
,
1000
0000
0010
0000
0100
0001
1000
0010
,
1000
0000
0001
0000
0100
0001
1000
0000
,
0010
1000
0010
0100
0001
0010
0100
0000
,
0002
1000
1000
1000
,
1000
1000
1000
1003
,
0001
1000
0010
0000
0100
0001
0010
0000
,
0001
0000
0000
0000
0000
0000
0000
0000
1000
0000
0000
0000
0000
0000
0000
0000
0010
0000
0000
0000
0000
0000
0000
0000
0100
0000
0000
0000
0000
0000
0000
0000
0001
0000
0000
0000
0100
0000
0000
0000
0001
0000
0000
0000
0000
0000
0000
0000
2002
0000
0000
0000
0000
0000
0000
0000
0000
0000
0000
3003
0000
0000
0000
0000
,
0001
0000
1000
0000
0010
0100
0001
1000
,
0010
1000
0010
0000
0001
0100
1000
0001
,
0100
0000
0000
0010
0000
0000
1000
0000
0000
0000
0000
0000
0001
0000
0000
0100
0000
0000
1000
0000
0001
0000
1000
0000
,
0010
0100
1000
0000
0001
0010
0100
0010
,
2002
0000
0000
3003
,
0220
0000
0000
0330
,
0001
1000
0010
0000
0100
0001
1000
0000
,
0010
0000
0100
0000
0001
1000
0010
0100
,
0002
0000
0000
0000
,
0000
0000
0000
0000
0000
0000
0000
0003
,
0001
1000
0010
0100
,
0001
0010
1000
0000
,
1000
0100
0010
0001
,
1000
0000
0000
0000
,
0010
0000
0100
0000
0001
0010
0001
0000
,
1000
0010
1000
0000
0100
0010
0100
0000
,
0001
1000
0001
0000
,
0020
0000
0000
0000
0200
0000
0000
0330
,
0001
1000
0001
0000
0010
1000
0010
0000
,
0100
0010
0100
0000
0001
0010
0001
0000
,
0001
1000
0010
0100
0001
0010
1000
0010
,
0010
1000
0010
0000
0001
0010
0001
0000
0001
1000
0001
1000
0010
0000
0000
0000
,
0001
1000
0010
0100
0001
0010
1000
0000
,
0001
0010
1000
0000
0010
0100
0001
0010
,
1000
0001
0100
0000
0010
1000
0001
0100
,
1000
0010
1000
0000
0010
0100
0001
0010
,
0001
1000
1000
0100
,
0001
0000
1000
0000
0001
0000
0010
0000
1000
0000
0010
0000
0001
0000
0010
0001
,
0010
0000
1000
0000
0010
0000
0100
0000
1000
0000
0010
1000
0010
0000
0010
0100
,
0010
0000
0001
0000
1000
0000
0010
0000
0001
1000
0001
0000
0010
1000
0010
0000
,
0001
0010
0010
0010
,
1000
0100
0100
0100
,
0001
1000
1000
1000
,
0010
1000
1000
1000
,
0001
1000
0010
0000
1000
0001
0100
1000
,
0001
0000
0010
0000
1000
0010
1000
0100
,
0001
0000
0000
0000
0010
0000
0000
0000
1000
0000
0010
0000
0100
0010
0100
0000
,
0001
0000
0010
0000
1000
0100
0000
0010
0002
0000
0000
0000
2000
0000
3003
0000
,
0202
0000
0000
0000
,
0000
0000
0000
0303
,
1001
0000
0000
0000
;

//--------------- dance-single - XLev450X-ESP ----------------
#NOTEDATA:;
#STEPSTYPE:dance-single;
#DESCRIPTION:XLev450X;
#DIFFICULTY:Hard;
#METER:14;
#BPMS:0=110,140=220,204=110;
#RADARVALUES:0,0,0,0,0;
#NOTES:
0000
0000
0000
0000
,
0000
0000
0000
0000
,
0000
0000
0000
0000
,
0000
0000
0000
0000
,
0000
0000
0000
0000
,
0001
0000
0000
1000
0000
0000
0010
0000
0000
0100
0000
0000
0001
0000
1000
0000
,
0010
0000
0000
0100
0000
0000
0001
0000
0000
1000
0000
0000
0001
0000
1000
0000
,
0010
0000
0000
0100
0000
0000
0001
0000
0000
0010
0000
0000
1000
0000
0001
0000
,
1000
0000
0000
0010
0000
0000
0100
0000
0000
0001
0000
0000
0010
0000
0100
0000
,
1000
0000
0100
0000
0001
1000
0100
0001
0010
0100
1000
0100
0001
0010
0100
0001
,
1000
0100
0001
1000
0010
0001
0100
0010
1000
0100
0001
1000
0010
0000
1000
0001
,
1000
0010
0100
0001
0010
0100
1000
0001
,
1000
0000
0000
0010
0000
0000
0100
0000
0000
0001
0000
0000
1000
0000
0000
0010
0000
0000
0100
0000
0000
0001
0000
0000
1000
0000
0000
0010
0000
0000
0100
0000
0000
0001
0000
0000
2000
0000
0000
0000
0000
0000
0000
0000
3000
0000
0000
0000
,
0001
0000
0000
0000
0000
0000
0100
0000
0000
0000
1000
0000
0010
0000
0000
0000
0000
0000
0100
0000
0000
0000
0000
0000
0001
0000
0000
0000
0100
0000
0000
0000
0000
0000
1000
0000
0000
0000
0000
0000
0100
0000
0001
0000
0000
1000
0000
0000
,
0010
0000
0000
1000
0000
0100
0010
0000
0000
1000
0000
0000
0001
0000
0000
0010
0000
0100
0001
0000
0100
1000
0000
0001
,
0010
0000
0000
0000
0000
0000
0100
0000
0000
0000
0000
0000
0001
0000
0000
0000
0000
0000
1000
0000
0000
0000
0010
0000
0100
0000
0000
0000
0000
0000
0001
0000
0000
0000
0000
0000
1000
0000
0000
0100
0000
0000
0001
0000
0000
0010
0000
0000
,
1000
0000
0000
0100
0000
0001
0100
0000
0000
1000
0000
0000
0010
0000
0000
0100
0000
1000
0001
0000
0010
0000
0100
0000
,
0020
0200
0000
0000
0000
0000
0330
0000
,
0020
2000
0000
0000
0000
0000
3030
0000
,
0001
0000
0000
1000
0000
0000
0010
0000
0000
0001
0000
0000
0100
0000
0001
0000
0000
1000
0010
0000
0000
0100
0000
0000
,
0010
0000
0000
0001
0000
0000
1000
0000
0001
0000
0000
1000
0010
0000
0000
1000
0000
0000
0001
0000
0000
0100
0000
0000
,
2002
0000
0000
0000
,
0000
0000
0000
3003
,
0001
0000
1000
0010
0100
0001
0010
1000
,
0010
1000
0010
0000
0001
0000
0010
0000
0100
0000
1000
0000
0001
0000
0000
0000
,
1000
0000
0001
0000
0100
0000
0010
0000
1000
0010
1000
0000
0001
0100
0001
0000
,
2000
0000
0000
0000
0002
0000
0000
3003
,
1000
0000
0000
0000
0010
0000
0100
0000
0001
0010
0001
0000
1000
0000
0010
0000
,
1000
0010
1000
0000
0001
0100
0001
0000
0010
0100
0010
0000
1000
0000
0001
0000
,
1000
0001
1000
0000
0010
0000
0100
0000
0010
1000
0010
0000
0100
0000
0001
0000
,
0020
0000
0000
0000
0200
0000
0000
0330
,
0001
1000
0001
0000
0010
1000
0010
0000
,
0100
0001
0010
0000
1000
0001
0010
0000
,
1000
0010
0100
0001
0010
1000
0010
0100
,
0001
1000
0010
1000
0100
0001
1000
0010
1000
0001
0100
0010
2002
0000
3003
0000
,
0001
1000
0010
0100
,
0010
1000
0010
0000
0001
0010
0001
0000
,
1000
0100
1000
0001
,
1000
0010
0100
0001
1000
0010
0100
0001
,
1000
0010
0100
0001
,
1000
0010
1000
0000
0010
0100
0010
0000
,
0001
0010
1000
0001
,
1000
0010
0100
0001
1000
0010
0100
0010
,
2000
0001
0001
0001
,
0001
3001
0220
0330
,
0001
1000
0010
1000
,
0001
1000
0010
0100
1000
0001
1000
0000
,
0010
0100
1000
0001
,
0010
0100
0001
1000
0010
1000
0010
0000
,
1000
0001
0100
1000
,
0001
1000
0010
1000
0001
0100
0010
1000
,
0002
1000
1000
1000
1000
1000
1003
0000
,
0020
0000
0100
0000
0100
0000
0100
0000
0100
0000
0100
0100
0000
0100
0130
0000
,
2000
0001
0001
0001
0001
0001
3001
0000
,
0200
0000
0010
0000
0010
0000
0010
0000
0010
0000
0010
0010
0000
0010
0310
0000
,
0001
0000
1000
0000
0010
0000
0000
0100
0000
0001
1000
0000
0010
0000
0000
0000
,
1000
0000
0010
0000
0100
0000
0001
0010
0001
0000
1000
0000
0010
0000
0100
0000
,
1000
0000
0001
0000
1000
0010
1000
0000
0001
0000
0010
0000
0100
0000
0001
0000
,
1000
0000
0010
1000
0010
0100
0000
0001
0010
0000
1000
0000
0020
0000
0130
0000
,
2002
0000
0000
0000
,
0000
0000
0000
0000
0000
0000
3003
0000
0001
1000
0001
0000
0100
0010
1000
0100
,
0010
0000
0000
0000
;
