#TITLE:FLARE -炎舞- ft.Nana Takahashi;
#ARTIST:BEMANI Sound Team "dj TAKA" Vs SOUND HOLIC;
#TITLETRANSLIT:FLARE -enbu- ft.Nana Takahashi;
#ARTISTTRANSLIT:dj TAKA Vs SOUND HOLIC;
#GENRE:BPL S3 THEME;
#MUSIC:FLARE -enbu- ft.Nana Takahashi.ogg;
#BANNER:FLARE -enbu- ft.Nana Takahashi.png;
#BACKGROUND:FLARE -enbu- ft.Nana Takahashi-bg.png;
#CDTITLE:./CDTitles/bm IIDX 30 RESIDENT.png;
#SAMPLESTART:60.804;
#SAMPLELENGTH:15;
#SELECTABLE:YES;
#OFFSET:-0.268;
#BPMS:0.000=140;

//--------------- dance-single - XLev450X -魂--bSP ----------------
#NOTES:
     dance-single:
     XLev450X -魂-:
     Beginner:
     4:
     0,0,0,0,0:
0000
0000
0000
0000
,
0000
0000
0000
0000
,
0000
0000
0000
0000
,
0000
0000
0000
0000
,
0000
0000
0000
0000
0000
0000
0000
1000
,
0000
0001
0000
0100
0000
0000
0000
0010
,
0000
0001
0000
0100
0000
0000
0000
1000
,
0000
0001
0000
0010
0000
0000
0000
0100
,
0000
0001
0000
1000
0000
0010
2002
0000
,
0000
0000
0000
0000
0000
0000
0000
0000
0000
0000
0000
3003
0000
0000
1000
0000
,
0000
1000
0000
1000
0000
0000
0000
0001
,
0000
0001
0000
0001
0000
0000
0000
0010
,
0000
0100
0000
0010
0000
0000
0000
0010
,
0000
0001
0000
1000
0000
0000
0000
0001
,
0000
0100
0000
0010
0000
0000
0000
0010
,
0000
1000
0000
0001
0000
0000
0000
1000
,
0000
0000
0000
0001
0000
0000
0000
0010
,
0000
0000
0000
0000
0000
0000
0000
0001
,
0000
0001
0000
0000
0000
1000
0000
0010
,
0000
0100
0000
0000
0000
0001
0000
1000
,
0000
0100
0000
0000
0000
0001
0000
1000
,
0000
0001
0000
0000
0000
0010
0000
0100
,
0000
0001
0000
0010
0000
1000
0000
0001
,
0000
0000
0000
0010
0000
0000
0000
0100
,
0000
1000
0000
0001
0000
0100
0000
0010
,
0000
0000
0000
1000
0000
0001
0000
0010
,
0000
0000
0000
0100
0000
0000
0000
0001
,
0000
1000
0000
0010
0000
0000
0000
0001
,
0000
1000
0000
0100
0000
0000
0000
0001
,
0000
0000
0000
1000
0000
0000
0000
0010
,
0000
0100
0000
0010
0000
0000
0000
0001
,
0000
1000
0000
0001
0000
0000
0000
0100
,
0000
0000
0000
1000
0000
0000
0000
0001
,
0000
0010
0000
1000
0000
0001
0000
0010
,
0000
0000
0000
0100
0000
0000
0000
1001
,
0000
0000
0000
0000
0000
0000
0000
0001
,
0000
0001
0000
0001
0000
0000
0000
1000
,
0000
1000
0000
1000
0000
0000
0000
0010
,
0000
0100
0000
0010
0000
0000
0000
0010
,
0000
0001
0000
0010
0000
0000
0000
1000
,
0000
0000
0000
0001
0000
0000
0000
0100
,
0000
0010
0000
1000
0000
0000
0000
0001
,
0000
1000
0000
0010
0000
0100
0000
0001
,
0000
0000
0000
1000
0000
0000
0000
0010
,
0000
0010
0000
0010
0000
0000
0000
0100
,
0000
0001
0000
1000
0000
0000
0000
1000
,
0000
1000
0000
0001
0000
0100
0000
0010
,
0000
1000
0000
0010
0000
0000
0000
0100
,
0000
0000
0000
0001
0000
0000
0000
1000
,
0000
0001
0000
0010
0000
0000
0000
0010
,
0000
0100
0000
0001
0000
0000
0000
1000
,
0000
0001
0000
1000
0000
0010
0000
0100
,
0000
0000
0000
0001
0000
0000
0000
1000
,
0000
0000
0000
0010
0000
0000
0000
0100
,
0000
0000
0000
0001
0000
0000
0000
1000
,
0000
0010
0000
0100
0000
0000
0000
0001
,
0000
0000
0000
1000
0000
0000
0000
0001
,
0000
0000
0000
0000
0000
0000
0000
0010
,
0000
0000
0000
0100
0000
0000
0000
0010
,
0000
0000
0000
0000
0000
0000
0000
1000
,
0000
0001
0000
0100
0000
0000
0000
0010
,
0000
0100
0000
0001
0000
0000
0000
1000
,
0000
0001
0000
0100
0000
0000
0000
0010
,
0000
0000
0000
0100
0000
0000
0000
0000
,
0000
0001
0000
0001
0000
0000
0000
1000
,
0000
1000
0000
0010
0000
0000
0000
0100
,
0000
0001
0000
1000
0000
0010
0000
0100
,
0000
0000
0000
0001
0000
0000
0000
1000
,
0000
0001
0000
0100
0000
0010
0000
1000
,
0000
0000
0000
0001
0000
0000
0000
0010
,
0000
0100
0000
0001
0000
0010
0000
1000
,
0000
0000
0000
0001
0000
0100
0000
0010
,
0000
0000
0000
1000
0000
0000
0000
0001
,
0000
0000
0000
0000
0000
0000
0000
1000
,
0000
0000
0000
0010
0000
0000
0000
0100
,
0000
0001
0000
1000
0000
0010
0000
2002
,
0000
0000
0000
0000
0000
0000
0000
0000
0000
0000
0000
0000
0000
3003
0000
0000
;

//--------------- dance-single - XLev450X -魂--BSP ----------------
#NOTES:
     dance-single:
     XLev450X -魂-:
     Easy:
     8:
     0,0,0,0,0:
0000
0000
0000
0000
,
0000
0000
0000
0000
,
0000
0000
0000
0000
,
0000
0000
0000
0000
,
0000
0000
0000
0000
0000
0000
0000
0001
,
0000
1000
0000
0010
0000
0100
0000
0001
,
0000
0010
0000
1000
0000
0001
0000
0010
,
0000
0100
0000
0001
0000
1000
0000
0010
,
0000
0100
0000
0001
1000
0010
1001
0000
,
0000
0000
0000
0000
0000
0000
0000
0010
,
0000
1000
0000
0001
0010
0001
0000
1000
,
0000
0010
0000
0100
0000
0000
0000
1000
,
0000
0001
0000
1000
0010
0100
0000
0001
,
0000
0010
0000
0100
0000
0000
0000
0001
,
0000
1000
0000
0001
0100
0010
0000
0001
,
0000
1000
0000
0001
0100
0010
0000
1000
,
0000
0010
0000
0000
1000
0001
0000
0100
,
0000
0000
0000
0000
0020
0000
0000
0000
0000
0000
0000
0030
0000
0000
1000
0000
,
0000
0001
0000
1000
0000
0001
0000
0100
,
0000
0010
0000
0001
0000
0000
0000
1000
,
0000
0010
0000
1000
0000
0001
0000
0100
,
0000
0010
0000
0001
0000
0000
0000
0001
,
0000
1000
0000
0100
0000
0000
0000
0010
,
0000
1000
0000
0001
0000
0000
0000
0010
,
0000
0100
0000
0001
0000
1000
0000
0010
,
0000
0100
0000
0001
1000
0010
0000
0100
,
0000
0000
0000
0001
0000
1000
0000
0010
,
0000
0000
0000
0100
0000
0001
0000
1000
,
0000
0000
0000
0010
0000
0100
0000
0001
,
0000
1000
0000
0010
0000
0000
0000
1000
,
0000
0001
0000
0100
0010
0001
0000
1000
,
0000
0010
0000
1000
0010
0100
0000
0001
,
0000
0000
1000
0000
0000
0010
0000
0100
,
0000
0001
0000
1000
0000
0010
0000
0100
,
0001
1000
0000
0010
0100
0001
0000
2002
,
0000
0000
0000
0000
0000
0000
3003
0001
,
1000
0010
0000
0100
0000
0001
0000
0010
,
0001
0010
0000
1000
0000
0010
0000
0100
,
1000
0010
0000
0100
0001
0010
0000
0100
,
0000
0001
0000
1000
0001
0100
0000
0020
,
0000
0000
0030
1000
0000
0001
0000
0200
,
0000
0000
0300
0010
0000
0001
0000
1000
,
0000
0010
0000
0100
0000
0001
0000
0020
,
0000
0000
0030
2000
0000
0000
3000
0010
,
0000
0001
0000
0100
0000
0010
0000
1000
,
0000
0001
0000
0010
0001
1000
0000
0010
,
0000
0100
0000
0002
0000
0000
0003
1000
,
0000
0010
0000
0200
0000
0000
0300
0010
,
0000
1000
0000
0001
0100
0010
0000
1000
,
0000
0001
0000
2000
0000
0000
3000
0001
,
0000
0010
0000
0100
0001
1000
0000
0010
,
0000
0100
0000
0002
0000
0000
0003
1000
,
0000
0000
0000
0001
0000
0100
0000
0010
,
0000
0000
0000
1000
0000
0010
0000
0100
,
0000
0000
0000
0001
0000
1000
0000
0010
,
0000
0100
0000
0001
0000
0000
0000
1000
,
0000
0000
0000
0001
0000
0100
0000
0010
,
0000
0000
0000
1000
0000
0010
0000
0100
,
0000
0000
0000
0001
0000
1000
0000
0001
,
0100
0010
0000
1000
0000
0000
0000
1000
,
0000
0001
0000
0100
0000
0010
0000
1000
,
0000
0000
0000
0001
0000
0000
0000
1000
,
0000
0010
0000
0100
0000
0001
0000
1000
,
0010
0100
0000
0001
1000
0010
0000
0000
,
0000
1010
0000
0001
0100
0010
0000
0001
,
0000
1000
0000
1000
0001
0100
0000
0010
,
0000
1000
0000
0010
0000
0001
0000
0100
,
0000
0000
0000
0001
0000
1000
0000
0010
,
0000
0000
0000
1000
0000
1000
0000
0001
,
0000
0100
0000
0010
1000
0001
0000
0100
,
0000
0000
0000
0010
0000
0001
0000
1000
,
0000
0000
0000
0010
0000
0100
0000
0001
,
0000
0000
0000
1000
0000
0001
0000
0100
,
0000
0000
0000
0010
0000
1000
0000
0001
,
0000
0000
0000
0010
0000
0100
0000
0001
,
0100
0010
0000
1000
0010
0100
0000
2002
,
0000
0000
0000
0000
0000
0000
0000
0000
0000
0000
0000
0000
0000
3003
0000
0000
;

//--------------- dance-single - XLev450X -魂--DSP ----------------
#NOTES:
     dance-single:
     XLev450X -魂-:
     Medium:
     13:
     0,0,0,0,0:
0000
0000
0000
0000
,
0000
0000
0000
0000
,
0000
0000
0000
0000
,
0000
0000
0000
0000
,
0000
0000
0000
0000
0000
0000
0000
1000
,
0000
0001
0000
0000
0100
0000
0010
0000
1000
0000
0001
0000
0000
0000
0100
0000
,
0000
0010
0000
0000
0001
0000
1000
0000
0010
0000
0100
0000
0000
0000
0001
0000
,
0000
1000
0000
0000
0010
0000
0100
0000
0001
0000
1000
0000
0000
0000
0100
0000
,
0001
0000
0010
0000
0000
0000
1000
0000
0010
0001
0100
0000
1020
0000
0000
0000
,
0000
0000
0000
0000
0000
0000
0030
1000
,
0000
0001
0000
0000
0100
0000
0000
0000
0010
0000
0001
0000
0000
0000
1000
0000
,
0000
0001
0000
0000
0100
0000
0000
0000
0010
0000
0001
0000
1000
0000
0010
0000
,
0000
0100
0000
0000
0001
0000
0000
0000
0010
0000
0001
0000
1000
0000
0010
0000
,
0000
0100
0000
0000
0000
0000
0001
0000
0000
0000
1000
0000
0000
0000
0010
0000
,
0000
0100
0000
0000
0001
0000
0000
0000
1000
0000
0010
0000
0000
0000
0100
0000
,
0000
0001
0000
0000
1000
0000
0000
0000
0010
0000
0100
0000
0001
0000
1000
0000
,
0000
0010
0000
0000
0100
0000
0000
0000
0001
0000
1000
0000
0010
0000
0100
0001
,
0000
1000
0010
0000
0000
0000
0000
0000
0000
0000
0000
0000
0000
0000
0001
0000
,
1000
0010
0000
0100
0001
0010
0000
1000
,
0010
0100
0001
0000
0010
0001
0000
1000
,
0000
0010
0000
0100
0001
1000
0000
1000
,
0000
0010
0000
0100
0010
1000
0000
0001
,
0000
0010
0001
0000
1000
0010
0000
0100
,
0000
0001
1000
0000
0001
0100
0010
1000
,
0000
0001
0010
0000
0100
0001
1000
0010
,
0000
0100
0000
0001
0000
0010
0000
0001
,
0000
0100
0000
0000
0010
0000
0000
0000
0100
0000
0000
0000
0001
0000
1000
0000
,
0000
0010
0000
0000
0100
0000
0000
0000
1000
0000
0001
0000
0000
0000
0010
0000
,
0000
0100
0000
0000
0001
0000
0000
0000
0010
0000
1000
0000
0001
0000
0100
0000
,
0000
0010
0000
0000
0100
0000
0000
0001
0000
0000
1000
0000
0000
0000
0010
0000
,
0000
0100
0000
0000
0001
0000
1000
0000
0010
0000
0100
0000
0000
0000
0010
0000
,
0000
1000
0000
0000
0001
0000
0100
0000
0010
0000
1000
0000
0000
0000
0010
0000
,
0000
0100
0000
0001
0010
0001
0000
1000
,
0010
0100
0001
1000
0000
0010
0000
0100
,
0001
1000
0010
0100
0001
0010
1000
0101
,
0000
0000
0000
0000
0000
0000
0000
0001
,
0000
1000
0000
0000
0010
0000
0000
0000
0100
0000
0001
0000
1000
0000
0010
0000
,
0000
0100
0000
0000
0001
0000
0000
0000
1000
0000
0010
0000
0100
0000
0001
0000
,
0000
1000
0000
0000
0010
0000
0100
0000
0000
0001
0000
0000
1000
0000
0010
0000
,
0000
0100
0000
0000
0001
0000
1000
0000
0000
0010
0000
0000
0100
0000
0001
0000
,
0000
1000
0000
0010
1000
0001
0000
0100
,
0000
0010
0000
0001
1000
0010
0000
1000
,
0000
0010
0000
0001
1000
0010
0000
0010
,
0001
0010
0000
1000
0010
0100
0001
1000
,
0000
0010
0000
0000
0100
0000
0001
1000
0100
0000
0010
0000
0100
0000
0001
0000
,
0000
1000
0000
0000
0001
0000
0100
1000
0010
0000
1000
0000
0001
0000
0010
0000
,
0000
0100
0000
0000
0010
0000
1000
0000
0000
0001
0000
0000
0100
0000
0010
0000
,
0000
1000
0000
0000
0001
0000
0100
0000
0010
0000
1000
0001
0100
0000
0001
0000
,
0000
1000
0000
0010
0001
0010
0000
1000
,
0000
0010
0100
0001
0000
1000
0000
0001
,
0100
0010
0000
1000
0001
0100
0000
0010
,
0000
0001
0000
1000
0010
0100
0001
0010
,
0000
1000
0000
0000
0001
0000
0000
0010
0000
0000
0100
0000
0001
0000
1000
0000
,
0000
0010
0000
0000
0100
0000
0000
0001
0000
0000
1000
0000
0010
0000
0001
0010
,
0000
1000
0000
0000
0000
0010
0000
0000
0100
0000
0001
0000
1000
0000
0010
0100
,
0000
0001
0000
1000
0000
0100
0010
0000
0001
0000
1000
0000
0000
0000
0010
0000
,
0000
0100
0000
0010
0001
0010
0000
1000
,
0000
0010
0000
0100
1000
0010
0000
0100
,
0000
0001
0000
1000
0001
0100
0000
0010
,
0000
1000
0000
0010
0000
0001
0000
1000
,
0000
0000
0000
0010
0000
0100
0000
0001
,
0010
0001
0000
1000
0010
0100
0000
0001
,
0000
1000
0000
0010
0100
0001
0000
1000
,
0010
0100
0000
0001
1000
0010
0200
0000
,
0300
0000
0010
0000
0000
1000
0000
0100
0001
0010
0000
0100
0000
0000
0010
0000
,
1000
0000
0001
0000
0000
0000
0100
0000
0000
0010
0000
0000
1000
0000
0001
0000
,
0100
0000
0000
0010
0000
0000
0001
0000
0000
0010
0000
0000
1000
0000
0001
1000
,
0010
0000
0001
0000
1000
0000
0001
0100
0001
0000
1000
0000
0001
0000
0000
0000
,
1000
0010
1000
0001
0000
0010
0000
0001
,
0010
0001
0000
1000
0010
0100
0000
0001
,
0010
1000
0000
0001
0100
0010
0000
0001
,
1000
0010
0100
0002
0000
0000
0003
1000
,
0000
0010
0000
0000
0100
0000
0000
0001
0000
0000
1000
0000
0010
0000
0100
0000
,
0000
0001
0000
0000
1000
0000
0000
0010
0000
0000
0100
0000
0001
0000
1000
0000
,
0000
0010
0000
0000
0100
0000
0000
0001
0000
0000
1000
0000
0010
0000
0100
0000
,
0001
0000
1000
0000
0010
0000
0100
0000
0001
0000
1000
0010
0100
0000
2002
0000
,
0000
0000
0000
0000
0000
0000
0000
0000
0000
0000
0000
0000
0000
3003
0000
0000
;

//--------------- dance-single - XLev450X -魂--ESP ----------------
#NOTES:
     dance-single:
     XLev450X -魂-:
     Hard:
     16:
     0,0,0,0,0:
0000
0000
0000
0000
,
0000
0000
0000
0000
,
0000
0000
0000
0000
,
0000
0000
0000
0000
,
0000
0000
0000
0000
0000
0000
0000
1000
,
0001
0100
0010
0000
1000
0000
0001
0000
0000
0000
0010
0000
0001
0000
1000
0000
,
0010
0100
0001
0000
1000
0000
0010
0000
0001
1000
0010
0000
0100
0000
0001
0000
,
0010
0001
0010
0000
1000
0000
0010
0000
0100
0010
1000
0000
0001
0000
0010
1000
,
0001
0100
0000
0000
0010
0000
1000
0001
0100
0000
0010
0100
2002
0000
0000
0000
,
0000
0000
0000
0000
0000
0000
3003
1000
,
0000
0001
0000
0000
0010
0000
0000
0001
0000
0000
1000
0000
0010
0100
0001
0000
,
0000
1000
0000
0000
0010
0000
0000
0100
0000
0000
0010
0000
1000
0010
0100
0000
,
0000
0001
0000
0000
0010
0000
0000
0001
0000
0000
1000
0000
0010
0001
0010
0000
,
0000
1000
0000
0000
0010
0000
0000
0100
0000
0000
0001
0000
1000
0000
0010
0000
,
0000
0100
0000
0000
0001
0000
0000
0000
0010
0000
0001
0000
1000
0010
0100
0000
,
0000
0001
0000
0000
0010
0000
0000
0000
0001
0000
0000
1000
0010
0100
0001
0000
,
0000
1000
0000
0000
0010
0000
0000
0001
0000
0000
1000
0000
0010
0000
0100
0001
,
0000
1000
0020
0000
0000
0000
0000
0000
0030
0000
0002
0000
0000
0003
1000
0000
,
0010
0001
0000
0100
0001
1000
0000
0010
,
0001
0000
0100
0000
0010
0000
1000
0000
0001
0100
0010
0000
1000
0000
0001
0000
,
0010
1000
0000
0001
0100
0010
0000
0001
,
0010
0000
0001
0000
1000
0000
0010
0000
0100
0001
1000
0000
0010
0000
0100
0000
,
0001
1000
0000
0010
0001
0010
0000
1000
,
0001
0100
0001
0000
1000
0010
1000
0000
0001
0000
0100
0000
0000
0000
0010
0000
,
0001
0000
0010
0000
0000
0000
1000
0000
0001
0000
0100
0000
0010
1000
0001
0000
,
0000
0010
1000
0000
0100
0000
0010
0000
0001
1000
0010
0000
0100
0000
0001
0000
,
0000
0010
1000
0000
0010
0000
0000
0000
0100
0000
0010
1000
0001
0000
1000
0000
,
0000
0001
0000
0000
0100
0000
0000
0000
0010
0001
1000
0000
0001
0100
0001
0000
,
0000
1000
0000
0000
0010
0000
0000
0100
0000
0000
0001
0000
0010
0000
0001
0000
,
0010
1000
0001
0000
0100
0001
1000
0000
0001
0100
0001
1000
0010
0000
1000
0000
,
0010
0100
0001
0000
1000
0000
0010
0000
0100
1000
0001
0000
1000
0000
0010
0000
,
0100
0001
1000
0000
0010
0000
0000
0000
0100
0000
0001
0000
1000
0000
0010
0000
,
0001
0000
0010
0000
0001
1000
0010
0000
0100
0000
1000
0001
0010
0000
0100
0000
,
0001
1000
0010
0000
0100
0000
0001
0000
1000
0010
0100
0000
0001
0000
1000
0000
,
0010
0100
0001
0000
1000
0010
0100
0000
0001
1000
0010
0000
0100
0000
0001
1000
,
0000
0000
0000
0001
0000
0000
0000
0000
0000
0010
0000
0000
0000
0000
0000
0100
0000
0000
0010
0001
0000
0100
0000
0000
1000
0000
0000
0010
0000
0000
0000
0000
0000
0100
0000
0000
0000
0000
0000
0001
0000
0000
1000
0000
0000
0000
0000
0000
,
0010
0000
0100
0000
0001
1000
0000
0010
0000
0100
0001
0000
1000
0000
0010
0000
,
0100
0001
1000
0000
0010
0000
0001
0100
0000
0010
0001
0000
1000
0000
0001
0000
,
0100
0000
0010
1000
0000
0001
0100
0000
,
1000
0000
0001
0000
0100
0000
0010
0000
1000
0001
0000
0100
0020
0000
0000
0000
,
0000
0000
1030
0000
0001
0000
0100
1000
0010
0000
0100
0000
0002
0000
0003
0000
,
0001
1000
0010
0000
0200
0000
0300
0000
0001
0000
0010
0000
0001
0000
1000
0000
,
0010
0100
0001
0000
1000
0000
0010
0000
0001
0000
1000
0000
0010
0000
0000
0000
,
0100
0000
0001
0000
0000
0000
0010
0001
0000
1000
0000
0010
0000
0100
0001
0000
,
1000
0000
0010
0000
0100
0001
0000
1000
0000
0010
0100
0000
0001
0000
1000
0000
,
0010
0100
0001
0000
0010
0001
0000
1000
0000
0010
0100
0000
0001
0000
1000
0000
,
0010
0000
0100
0001
0000
0010
0001
0000
,
1000
0000
0010
0000
0000
0001
0100
0000
0001
0000
1000
0000
0010
0100
0001
0000
,
0100
1000
0001
0100
0010
0001
2000
3000
,
0010
0100
0002
0003
0010
0001
1000
0010
,
0100
0001
0000
1000
0010
0001
0010
0100
,
1000
0100
0001
0000
0000
0000
0100
0010
0000
1000
0000
0001
0000
0100
0010
0000
,
1000
0100
0001
0000
0100
0000
0010
1000
0001
0000
1000
0000
0010
1000
0100
0000
,
0001
0010
0001
0000
1000
0000
0010
0100
0001
0000
1000
0000
0010
0000
0100
0001
,
1000
0000
0010
0000
0100
0000
0001
1000
0010
0000
0001
0000
0010
0000
0001
1000
,
0000
0010
0000
0100
0000
0001
1000
0010
0000
0100
0000
0001
0000
1000
0010
0000
,
0200
0000
0000
0300
0001
0010
0000
1000
0000
0001
0100
0000
0010
0000
1000
0000
,
0200
0000
0000
0300
0001
1000
0000
0010
0000
0100
0001
0000
1000
0000
0010
0000
,
0002
0000
0000
0003
1000
0000
0010
0000
0000
0000
0100
0000
0001
0000
0000
0000
,
0010
0000
0001
0000
1000
0001
0010
1000
0001
0100
0001
0010
2000
0000
0000
0000
,
0000
0000
0000
3000
0001
0000
1000
0000
0010
0000
0100
0000
0002
0000
0000
0003
,
0100
1000
0010
0000
0200
0000
0000
0000
0000
0000
0000
0300
0010
1000
0001
0000
,
0100
0000
1000
0000
0010
0000
0100
0000
0001
0000
1000
0000
0020
0000
0000
0030
,
0100
0010
2000
0000
0000
3000
0010
1000
0001
0100
0001
1000
0020
0000
0000
0000
,
0000
0030
0001
0000
1000
0010
0000
0100
0000
0001
1000
0000
0010
0000
0100
0001
,
1000
0000
0010
0000
0100
0001
0000
1000
0000
0010
0100
0000
0002
0000
0003
0000
,
0100
0001
0100
1000
0020
0000
0000
0000
0030
0000
0001
0000
2000
0000
0000
3000
,
0010
0000
0100
0000
1000
0000
0001
0010
0100
1000
0001
0000
0010
0000
0000
0000
,
0001
0100
1000
0000
0010
0000
0100
0000
0001
0000
0010
0000
0001
0000
0000
0000
,
1000
0000
0010
0000
0200
0000
0000
0000
0000
0000
0300
0000
0001
0010
0002
0000
,
0000
0000
0003
0000
0010
0100
0010
0000
0001
0000
1000
0000
0010
0000
0000
0000
,
0100
0000
0001
0000
0000
0000
0010
1000
0000
0001
0000
0100
0000
0000
0010
0000
,
0001
1000
0001
0100
0010
1000
0001
0100
0001
0000
0010
0000
1000
0000
0100
0000
,
0010
0001
1000
0100
0001
0100
0010
1000
0100
0000
0001
0000
0010
0000
0100
1000
,
0010
0100
0001
0100
1000
0001
0010
0000
0100
0000
0001
0000
1000
0000
0001
1000
,
0000
0010
0100
0000
0001
1000
0000
0010
0100
0000
0001
1000
0100
0000
0010
1000
,
0010
0100
0001
1000
0010
0001
0200
0000
0000
0000
0000
0000
0000
0300
0000
0000
;
