#TITLE:Explore Every Ave.;
#ARTIST:BEMANI Sound Team "SYUNN";
#ARTISTTRANSLIT:SYUNN;
#GENRE:ELECTRO HOUSE;
#MUSIC:Explore Every Ave..ogg;
#BANNER:Explore Every Ave..png;
#BACKGROUND:Explore Every Ave.-bg.png;
#CDTITLE:./CDTitles/jb Ave.png;
#SAMPLESTART:72.888;
#SAMPLELENGTH:15;
#BPMS:0=135;
#BGSTAGE:27;

//--------------- dance-single - XLev450X-bSP ----------------
#NOTES:
     dance-single:
     XLev450X:
     Beginner:
     2:
     0,0,0,0,0:
0000
0000
0000
0000
,
0000
0000
0000
0000
,
0000
0000
0000
0000
,
0000
0000
0000
0000
,
0000
0000
0000
0000
,
0001
0000
1000
0000
,
0001
0000
0000
0000
,
0010
0000
0100
0000
,
0020
0000
0000
0030
,
0001
0001
0001
0000
,
1000
1000
1000
0000
,
0010
0000
0100
0000
,
0010
0000
0000
0000
,
0010
0000
0001
0000
,
0010
0000
0000
0000
,
1000
0000
0100
0000
,
2000
0000
3000
0000
,
0001
1000
0001
0000
,
0010
0000
0100
0000
,
1000
0010
1000
0000
,
0100
0000
0001
0000
,
0010
0100
1000
0000
,
0010
0100
0001
0000
,
0010
0100
0010
0000
,
2002
0000
0000
3003
,
0020
0000
0000
0030
,
2000
0000
0000
3000
,
0002
0000
0000
0003
,
0200
0000
0000
0300
,
0020
0000
0000
0030
,
2000
0000
0000
3000
,
0200
0000
0000
0300
,
0002
0000
0000
0003
,
1000
0000
1000
0000
,
1000
0000
0000
0000
,
0001
0000
0001
0000
,
0001
0000
0000
0000
,
0010
0000
0010
0000
,
0010
0000
0000
0000
,
0100
0000
0100
0000
,
0200
0000
0000
0300
,
0001
1000
0001
0000
,
0010
0000
0100
0000
,
1000
0010
1000
0000
,
0100
0000
0001
0000
,
0010
1000
0100
0000
,
0010
0001
0100
0000
,
0001
1000
0010
0100
,
2002
0000
0000
3003
,
0020
0000
0000
0030
,
2000
0000
0000
3000
,
0002
0000
0000
0003
,
0200
0000
0000
0300
,
0010
0010
0010
0000
,
0100
0100
0100
0000
,
0001
1000
0001
0000
,
2002
0000
0000
0000
0000
0000
0000
0000
0000
0000
0000
0000
0000
0000
0000
3003
;

//--------------- dance-single - XLev450X-BSP ----------------
#NOTES:
     dance-single:
     XLev450X:
     Easy:
     5:
     0,0,0,0,0:
0000
0000
0000
0000
,
0000
0000
0000
0000
,
0000
0000
0000
0000
,
0000
0000
0000
0000
,
0000
0000
0000
0000
,
0001
1000
0001
0000
,
0010
0100
0010
0000
,
1000
0100
1000
0010
,
1001
0000
0000
0110
,
1000
0001
0100
0000
,
0010
0100
0010
0000
,
0001
0000
1000
0000
,
1000
0010
0100
0000
,
0001
1000
0010
0000
,
0100
0001
0100
0000
,
0010
1000
0010
0000
,
1001
0000
0110
0000
,
1000
0001
0010
0000
,
1000
0000
0001
0000
,
0010
0100
0010
0000
,
1000
0000
0001
0000
,
0010
1000
0100
0000
,
0010
0001
0100
0000
,
0010
1000
0001
0100
,
0110
0000
0000
0000
,
0001
0000
0000
0000
,
1000
0000
0000
0000
,
0010
0000
0000
0000
,
0100
0000
0000
0000
,
0001
0100
0000
0100
,
1000
0010
0000
0010
,
0100
0001
0000
0001
,
0010
1000
0000
1000
,
0001
0000
0000
0000
,
1000
0000
0000
0000
,
0001
0000
0000
0000
,
1000
0000
0000
0000
,
0010
0100
0010
0000
,
0001
0100
0010
0000
,
1000
0010
1000
0100
,
1001
0000
0000
0000
,
0001
0000
0100
0000
0001
1000
0010
0000
,
0100
0000
1000
0000
0010
1000
0010
0000
,
0100
0000
0001
0000
0010
0001
0010
0000
,
0100
0000
0010
0000
1000
0010
1000
0000
,
0100
0001
0100
0000
0010
1000
0010
0000
,
0100
0001
0000
1000
,
0010
0100
0010
0000
1000
0001
1000
0000
,
0110
0000
0000
0000
,
0001
0000
1000
0000
,
0010
0000
0100
0000
0010
0001
0010
0000
,
1000
0010
0100
0000
,
1000
0000
0010
0000
1000
0010
1000
0000
,
0100
0001
0010
0000
,
0100
1000
0001
0000
,
0010
0100
0001
1000
,
2002
0000
0000
0000
0000
0000
3003
0110
;

//--------------- dance-single - XLev450X-DSP ----------------
#NOTES:
     dance-single:
     XLev450X:
     Medium:
     8:
     0,0,0,0,0:
0000
0000
0000
0000
,
0000
0000
0000
0000
,
0000
0000
0000
0000
,
0000
0000
0000
0000
,
0000
0000
0000
0000
,
1000
0000
0000
0001
0000
0000
0000
0000
0000
0000
0100
0000
0000
0010
0000
0000
,
1000
0000
0000
0001
0000
0000
0100
0000
0000
0000
0010
0000
0000
1000
0000
0000
,
0001
0000
0000
0100
0000
0000
0000
0000
0000
1000
0010
0000
0000
0000
1000
0000
,
0002
0000
0003
1001
,
0001
0000
1000
0000
0010
0100
0001
0000
,
1000
0000
0010
0000
1000
0100
1000
0000
,
0010
0001
0010
0000
0100
0010
0100
0000
,
0001
1000
0010
0100
0000
0001
1000
0000
,
0010
0000
0100
0000
0010
0001
0010
0000
,
1000
0000
0010
0000
1000
0010
0100
0000
,
0010
0000
0001
0000
1000
0010
0100
0000
,
0001
1000
0010
0100
0002
0000
0003
0000
,
0010
0000
1000
0001
,
0100
0000
0010
0000
1000
0001
0100
0000
,
0010
1000
0001
0100
,
0010
0000
1000
0000
0100
1000
0100
0000
,
0010
0000
0001
0000
0100
0010
1000
0000
,
0001
0000
0100
0000
0010
1000
0001
0000
,
0100
0000
0010
1000
,
2002
0000
0000
3003
,
1000
0001
1000
0000
0010
0000
0100
0000
,
0010
0001
0010
0000
0100
0000
1000
0000
,
1000
0100
1000
0000
0010
0001
0010
0000
,
0100
0010
1000
0001
0100
0000
0010
0000
,
1001
0010
0000
0100
,
0001
1000
0010
1000
,
0001
0000
0100
0000
,
0001
1000
0010
0100
,
0001
0000
0100
0000
0010
1000
0010
0000
,
0100
0000
0001
0000
1000
0001
0100
0000
,
0010
0000
1000
0000
0010
0001
0010
0000
,
0100
0000
1000
0000
0010
0100
0001
0000
,
1000
0000
0010
0000
0100
0001
1000
0000
,
0010
0000
0100
0000
0001
1000
0001
0000
,
0100
0000
0010
0000
1000
0001
0100
0000
,
0010
0000
0000
1001
,
0001
0000
1000
0000
0010
0100
0001
0000
,
1000
0000
0010
0000
1000
0100
1000
0000
,
0010
0001
0010
0000
0100
0010
0100
0000
,
0001
1000
0010
0100
0000
0001
1000
0000
,
0010
0000
0100
0000
0010
0001
0010
0000
,
1000
0000
0010
0000
1000
0010
0100
0000
,
0010
0000
0001
0000
1000
0010
0100
0000
,
0001
1000
0010
0100
0002
0000
0000
0003
,
0010
0000
1000
0000
0010
0100
0001
0000
,
1000
0000
0100
0000
0001
1000
0010
0000
,
0100
1000
0001
0000
0100
0000
0010
0000
,
0001
1000
0010
0100
0001
0000
1001
0000
,
0010
0000
0100
0000
0001
1000
0010
0000
,
0100
0000
0001
0000
1000
0010
0100
0000
,
2002
0000
0000
3003
,
1000
0000
0001
0000
0100
0010
0001
1000
;

//--------------- dance-single - XLev450X-ESP ----------------
#NOTES:
     dance-single:
     XLev450X:
     Hard:
     14:
     0,0,0,0,0:
0000
0000
0000
0000
,
0000
0000
0000
0000
,
0000
0000
0000
0000
,
0000
0000
0000
0000
,
0000
0000
0000
0000
,
0001
0000
0000
1000
0000
0000
0000
0000
0000
0000
0010
0000
0000
0100
0000
0000
,
0001
0000
0000
1000
0000
0000
0010
0000
0000
0000
0100
0000
0000
0001
0000
0000
,
1000
0000
0000
0010
0000
0000
0000
0000
0000
1000
0010
0000
0100
0000
0001
0000
,
2000
0000
3000
1001
,
0010
0000
0000
0000
0100
0000
0000
0001
0000
0000
1000
0000
0010
0000
0000
0000
,
0010
0000
1000
0000
0001
0000
0000
0100
0000
0000
0010
0000
1000
0000
0000
0000
,
0010
0000
0000
0000
0100
0000
0000
0001
0000
0000
1000
0000
0010
0000
0000
0000
,
0100
0000
0001
0000
1000
0000
0000
0010
0000
0000
0100
0000
0001
0000
0000
0000
,
1000
0000
0000
0000
0010
0000
0000
0100
0000
0000
1000
0000
0001
0000
0000
0000
,
0100
0000
0001
0000
0010
0000
0000
0100
0000
0000
0010
0000
1001
0000
0000
0000
,
0100
0000
1000
0000
0001
0000
0000
0010
0000
0000
0100
0000
0010
0000
0000
0000
,
0010
1000
0001
1000
0001
1000
0010
0100
0020
0000
0000
0000
0000
0000
0030
0000
,
1000
0100
0001
0000
0010
0000
0100
0000
0001
0000
0000
0100
0000
0000
0010
0000
,
1000
0001
0100
0000
0001
0000
0010
0001
1000
0000
0100
0000
0010
0000
0000
0000
,
0100
0000
0000
0010
0000
0000
0010
0000
1000
0000
0000
0100
0000
0000
0001
0000
,
1000
0000
0010
0001
0100
0000
1000
0000
0010
1000
0010
0000
0100
0000
0000
0000
,
0001
0000
0010
0100
1000
0000
0001
0000
0010
0000
0000
0100
0000
0000
0001
0000
,
1000
0000
1000
0100
0010
0000
0100
0000
0001
0010
0001
0000
1000
0000
0000
0000
,
0010
0000
0000
0000
0100
0000
0000
0001
0000
0000
1000
0000
0000
0000
0100
0000
,
0020
0000
0000
0000
0000
0000
0000
0000
0000
0000
0000
0000
0000
0030
0000
0000
,
0001
0000
0010
1000
0000
0100
0000
0001
0000
0100
0020
0000
0000
0000
0030
0000
,
0000
0000
1000
0000
0020
0000
0000
0000
0030
0000
0001
1000
0001
0010
1000
0100
,
0000
0010
0001
1000
0100
0001
1000
0000
,
0010
0000
0100
0000
0010
1000
0001
0100
,
0010
0000
0000
0000
0000
0000
0000
0000
0010
0000
0200
0000
0000
0000
0000
0000
0000
0000
0000
0000
0000
0000
0000
0000
0301
0000
1000
0000
0000
0001
0000
0000
,
1000
0000
0000
0100
0000
0000
0001
0000
0100
0010
0000
0000
0100
0000
1000
0001
,
0000
0000
0000
0000
1000
0000
0000
0000
0010
0000
0100
0000
0010
0000
0000
0000
1000
0000
0001
0000
1000
0000
0001
0000
0010
0000
0100
0000
0000
0010
0000
0000
,
0100
0000
0000
1000
0000
0000
0001
0000
1000
0000
0010
0000
1000
0000
0000
0000
0001
0000
0010
0000
0001
0000
0000
0000
0100
0000
0010
0000
1000
0000
0001
0000
,
0020
1000
0100
0032
,
0203
0000
0000
0000
2300
0000
0000
0000
3100
0000
0001
0020
0000
0000
0130
0000
,
1000
0020
0000
0000
0130
0000
0001
2000
0000
0000
3100
0000
0010
0000
0001
0100
,
0001
0000
0100
0000
0010
1000
0010
0000
1000
0001
1000
0001
0010
0000
0200
0000
,
0000
0000
0320
0000
0031
0100
0010
2000
0000
0000
3002
0000
1003
0100
0010
0001
,
0100
0010
0100
0000
0001
0000
1000
0001
2000
0000
0000
0000
3100
0010
0100
0000
,
1000
0010
1000
0000
0001
0010
0001
0000
1000
0100
1000
0000
0001
0100
0001
0000
,
0010
0000
0000
0100
0000
0000
0010
0000
0000
0100
0000
0000
1000
0000
0000
0001
0000
0000
1000
0000
0000
0001
0000
0000
0100
0000
0000
0000
0010
0000
0000
0000
1000
0000
0000
0000
1001
0000
0000
0000
0000
0000
0000
0000
0000
0000
0000
0000
,
0010
0000
0000
0000
0100
0000
0000
0001
0000
0000
1000
0000
0010
0000
0000
0000
,
0010
0000
1000
0000
0001
0000
0000
0100
0000
0000
0010
0000
1000
0000
0000
0000
,
0010
0000
0000
0000
0100
0000
0000
0001
0000
0000
1000
0000
0010
0000
0000
0000
,
0100
0000
0001
0000
1000
0000
0000
0010
0000
0000
0100
0000
0001
0000
0000
0000
,
1000
0000
0000
0000
0010
0000
0000
0100
0000
0000
1000
0000
0001
0000
0000
0000
,
0100
0000
0001
0000
0010
0000
0000
0100
0000
0000
0010
0000
1001
0000
0000
0000
,
0100
0000
1000
0000
0001
0000
0000
0010
0000
0000
0100
0000
0010
0000
0000
0000
,
0010
1000
0001
1000
0001
1000
0010
0100
0020
0000
0000
0000
0000
0000
0030
0000
,
1200
0000
0000
0000
0301
0000
1000
0000
0020
0000
0000
0100
0000
0000
0031
0000
,
1000
0000
0010
0100
0010
0000
1000
0000
0001
0000
0010
0100
0000
0100
1000
0000
,
0002
0000
0000
0100
0000
0000
0010
0000
2003
0000
0000
0100
0000
0000
0010
0000
,
3001
0000
0100
0010
0100
0000
0001
0000
1000
0000
0100
0000
0010
0000
0001
0000
,
0201
0000
0000
0000
1300
0000
0001
0000
0020
0000
0000
0100
0000
0000
1030
0000
,
0001
0000
0010
0100
0010
0000
0001
0000
1000
0000
0010
0100
0000
0100
0001
0000
,
2002
0000
0000
3003
,
1000
0000
0100
0010
0100
0000
0001
0000
1000
0000
0010
0000
0001
0000
1000
0000
;
