#TITLE:Everlasting Resort;
#ARTIST:SUPER STAR 満-MITSURU-;
#ARTISTTRANSLIT:SUPER STAR -MITSURU-;
#GENRE:ONLY ONE ANTHEM;
#MUSIC:Everlasting Resort.ogg;
#BANNER:Everlasting Resort.png;
#BACKGROUND:Everlasting Resort-bg.png;
#CDTITLE:./CDTitles/bm IIDX18 Resort Anthem.png;
#SAMPLESTART:0.390;
#SAMPLELENGTH:15;
#OFFSET:-0.390;
#BPMS:0=148;
#BGSTAGE:1;

//--------------- dance-single - XLev450X-bSP ----------------
#NOTES:
     dance-single:
     XLev450X:
     Beginner:
     2:
     0,0,0,0,0:
0000
0000
0000
0000
,
0000
0000
0000
0000
,
0000
0000
0000
0000
,
0000
0000
0000
0000
,
0000
0000
0000
0000
,
0000
0000
0000
0000
,
0000
0000
0000
0000
,
0000
0000
0000
0000
,
0001
0000
0000
0000
,
1000
0000
0000
0000
,
0010
0000
0000
0000
,
0100
0000
0000
0000
,
0010
0000
0010
0000
,
0010
0000
0000
0000
,
0100
0000
0001
0000
,
1001
0000
0000
0000
,
1000
0000
0000
0000
,
0000
0000
0000
0000
,
0100
0000
0000
0000
,
0000
0000
0000
0000
,
0001
0000
0000
0000
,
0000
0000
0000
0000
,
0010
0000
0000
0000
,
0000
0000
0000
0000
,
0010
0000
0010
0000
,
0010
0000
0000
0000
,
0100
0000
0100
0000
,
0100
0000
0000
0000
,
1000
0000
1000
0000
,
1000
0000
0000
0000
,
0001
0000
0001
0000
,
0001
0000
0000
0000
,
0100
0000
0000
0000
,
0000
0000
0000
0000
,
0001
0000
0000
0000
,
0000
0000
0000
0000
,
1000
0000
0000
0000
,
0000
0000
0000
0000
,
0010
0000
0000
0000
,
0000
0000
0000
0000
,
0100
0000
0100
0000
,
0010
0000
0000
0000
,
1000
0000
1000
0000
,
0001
0000
0000
0000
,
0010
0000
1000
0000
,
0100
0000
0000
0000
,
0001
0000
0100
0000
,
1001
0000
0000
0000
,
0010
0000
0010
0000
,
0010
0000
0000
0000
,
0100
0000
0001
0000
,
1000
0000
0000
0000
,
0100
0000
1000
0000
,
0010
0000
0000
0000
,
1000
0000
0100
0000
,
0001
0000
0000
0000
,
1000
0000
0010
0000
,
0100
0000
0000
0000
,
0001
0000
1000
0000
,
0100
0000
0000
0000
,
0010
0010
0010
0000
,
0000
0000
0000
0000
,
0100
0100
0100
0000
,
0010
0010
0010
0000
,
1001
0000
0000
0000
;

//--------------- dance-single - StormTaker21-BSP ----------------
#NOTES:
     dance-single:
     StormTaker21:
     Easy:
     6:
     0,0,0,0,0:
0000
0000
0000
0000
,
0000
0000
0000
0000
,
0000
0000
0000
0000
,
0000
0000
0000
0000
,
0000
0000
0000
0000
,
0000
0000
0000
0000
,
0000
0000
0000
0000
,
0000
0000
0000
0000
,
0001
0000
0001
0000
,
0001
0000
0001
0000
,
1000
0000
1000
0000
,
1000
0000
1000
0000
,
0010
0000
0010
0000
,
0010
0000
0010
0000
,
0100
0100
0100
0100
,
1000
0000
0000
0001
0000
0000
1000
0000
,
2002
0000
0000
3003
,
0010
0000
0000
0000
,
0100
0000
0000
0000
,
0010
0000
0000
0000
,
0001
0000
0000
0000
,
1000
0000
0000
0000
,
0001
0000
0001
0000
,
0001
0000
0000
0001
0000
0000
0001
0000
,
1000
0000
1000
0000
,
1000
1000
1000
1000
,
0001
0000
0001
0000
,
0001
0001
0001
0001
,
0010
0000
0010
0000
,
0010
0010
0010
0010
,
0100
0000
0100
0000
,
0100
0100
0100
0100
,
0100
0001
0010
0000
,
1000
0100
0010
0000
,
0001
0001
0010
0000
,
1000
1000
0100
0000
,
0010
0001
0010
0000
,
0100
1000
0100
0000
,
0010
0001
0010
0000
,
0100
0000
0100
0000
,
0100
0010
0100
0010
,
0001
1000
0001
0000
,
0010
0100
0010
0001
,
0010
0001
0100
0000
,
0010
0010
0001
0001
,
1000
0010
0100
0010
,
0001
0001
1000
1000
,
0001
0000
0000
0001
0000
0000
1000
0000
,
1001
0010
0010
0000
,
0001
0001
1000
0010
,
0001
0001
0010
0000
,
0100
0100
1000
0001
,
0010
0001
0010
0000
,
0100
1000
0100
0010
,
0001
0001
1000
1000
,
0010
0000
0001
0000
,
0010
0001
0001
1000
,
0010
0010
0001
0001
,
1000
0010
0001
0000
,
1000
0010
0010
0001
,
1000
0010
0001
0000
,
0001
0000
0010
0000
,
1000
0001
0010
0000
,
0001
0000
0001
0000
,
0020
0000
0000
0000
,
0000
0000
0000
0000
,
0000
0000
0030
0000
;

//--------------- dance-single - XLev450X-DSP ----------------
#NOTES:
     dance-single:
     XLev450X:
     Medium:
     8:
     0,0,0,0,0:
0000
0000
0000
0000
,
0000
0000
0000
0000
,
0000
0000
0000
0000
,
0000
0000
0000
0000
,
0000
0000
0000
0000
,
0000
0000
0000
0000
,
0000
0000
0000
0000
,
0000
0000
0000
0000
,
0010
1000
0000
0010
,
0100
0001
0000
0100
,
0010
0100
0000
0010
,
1000
0010
0000
0100
,
0010
0000
1000
0000
,
0001
0000
0100
0000
,
0010
1000
0001
0100
,
2002
0000
0000
0000
0000
0000
0000
3003
,
0010
0000
0100
0000
0001
1000
0010
0000
,
0100
0000
1000
0000
0100
0010
0100
0000
,
0000
0010
0000
0100
,
0001
0000
1000
0000
0010
0100
0001
0000
,
0010
1000
0000
0100
,
0010
0001
0000
0100
,
1000
0010
0100
0001
,
1001
0000
0000
0110
0000
0000
1001
0000
,
0010
0100
0001
1000
,
0010
0000
0100
0000
0010
0100
0001
0000
,
0010
0100
0001
1000
,
0010
0000
0100
0000
0001
0100
0010
0000
,
1000
0000
0100
0000
0010
1000
0100
0000
,
0001
0000
1000
0000
0010
0100
0001
0000
,
1000
0010
0100
0010
,
2002
0000
0000
3003
,
0220
0000
0000
0000
0000
0330
0000
0000
,
2000
0000
0000
0000
0000
3000
0000
0000
,
0002
0000
0000
0000
0000
0003
0000
0000
,
0020
0000
0000
0030
,
1000
0100
0000
0010
,
0001
0100
0000
0010
,
1000
0100
0000
0000
,
0010
1000
0001
0000
,
0010
0000
0001
0000
1000
0100
1000
0000
,
0010
0000
0100
0000
0010
0100
0010
0000
,
0001
1000
0010
0100
,
1001
0000
0110
0000
,
0010
0000
0001
0000
0100
1000
0100
0000
,
0010
0100
0001
1000
,
0010
0100
0001
1000
0010
0100
0001
0010
,
1001
0000
0000
0110
0000
0000
1001
0000
,
0010
0100
0001
1000
,
0010
0000
0100
0000
0001
1000
0010
0000
,
0100
1000
0010
0100
,
0001
0000
1000
0000
0010
0001
0010
0000
,
0100
1000
0100
0010
,
1000
0000
0010
0000
0100
0010
1000
0000
,
0100
0010
0100
0001
,
1001
0000
0000
0110
0000
0000
1001
0000
,
0010
0100
0010
0000
1000
0000
0010
0000
,
0100
0001
1000
0000
0010
0000
0100
0000
,
1000
0100
0010
0000
0001
0000
0100
0000
,
0010
1000
0001
0100
,
0010
0000
1000
0000
0001
0000
0100
0000
0010
0000
1000
0000
0001
0000
0000
0220
,
0000
0000
0000
0330
0000
0000
0110
0000
,
0001
1000
0010
0000
0001
0000
0100
0000
,
0010
0000
0100
0000
0001
0000
1000
0000
0100
0000
0000
0100
0000
0000
0100
0000
,
2002
0000
0000
0000
,
0000
0000
0000
0000
,
0000
0000
3003
0000
;

//--------------- dance-single - StormTaker21 & XLev450X-ESP ----------------
#NOTES:
     dance-single:
     StormTaker21 & XLev450X:
     Hard:
     13:
     0,0,0,0,0:
0000
0000
0000
0000
,
0000
0000
0000
0000
,
0000
0000
0000
0000
,
0000
0000
0000
0000
,
1000
0010
1000
0010
1000
0001
1000
0020
,
0000
0000
0030
0000
,
0010
0100
0001
0100
0010
0100
0001
0100
,
0010
0000
0000
0100
0000
0001
0000
1000
,
0010
0100
0001
0100
0010
0100
0001
0000
,
0100
0100
0001
0100
0010
1000
0001
0000
,
0010
0100
0001
0100
0001
0100
0001
0000
,
0010
1000
0010
1000
0010
0100
0001
0000
,
0010
0010
0001
0001
0010
0010
0100
0100
,
0001
0001
0001
0010
0010
0010
0100
0100
,
1000
0000
1000
0000
0010
0000
0100
0000
0001
0100
0010
1000
0100
0010
0001
0100
,
0010
0000
0000
0100
0000
0010
0100
0001
,
0100
0010
0100
0001
0100
1000
0010
0100
,
0001
0100
0010
0100
,
0001
0100
0010
0100
0001
0100
0010
0100
,
0001
0010
0010
0010
,
0001
0100
0010
0100
0010
1000
0001
0100
,
0010
0100
0100
0100
,
0001
0100
0001
0100
0010
1000
0010
0100
,
0001
0000
0100
0010
0000
0100
0001
0100
,
0010
0100
0001
0100
0010
1000
0010
0100
,
0001
0000
0001
0000
0001
0100
0001
0100
,
0010
1000
0010
1000
0010
0100
0001
0100
,
0010
0100
0100
0100
,
1000
0100
1000
0010
1000
0100
1000
0000
,
0001
1000
0010
1000
0001
1000
0010
0000
,
0010
0100
0001
0100
0010
0100
0001
0100
,
0010
0100
0000
0001
0000
0100
0010
0100
,
0001
0000
0000
1000
0000
0000
0100
0000
0001
0000
0000
0000
0000
0000
0010
0000
,
0001
0000
0000
0010
0000
0000
1000
0000
0010
0000
0000
0000
0001
0000
0000
0000
,
0100
0000
0000
0001
0000
0000
1000
0000
0100
0000
0000
0000
0010
0000
0000
0000
,
0010
0000
0000
0000
0000
0000
0010
0000
0000
0000
0010
0000
0000
0000
0000
0010
0000
0000
0010
0000
0000
0100
0000
0000
,
1000
0000
0000
0010
0000
0000
0001
0000
0100
0000
0000
0000
0000
0000
1000
0000
,
0001
0000
0000
0100
0000
0000
0010
0000
1000
0000
0000
0000
0001
0000
0000
0000
,
0010
0000
0000
0001
0000
0000
1000
0000
0010
0000
0000
0000
0000
0000
0100
0010
,
0100
0001
0000
1000
0000
0100
0000
0010
0001
1000
0100
0000
0010
0000
0100
0000
,
0001
0100
0010
0100
0001
0000
0100
0010
,
0001
0100
0010
0100
0001
0100
0010
0100
,
0001
0100
0010
0100
0001
0000
0010
0000
,
0001
1000
0010
0100
0001
0100
0010
0100
,
0001
0100
0010
0100
0001
0000
0010
0000
,
0010
0100
0001
0100
0110
0000
0101
0000
,
0010
0000
0100
0000
0001
0000
0100
0000
0001
1000
0010
0100
0001
1000
0010
0100
,
0110
0000
0000
0110
0000
1100
0010
0001
,
0100
0001
0100
0010
0001
0000
0000
0010
,
0100
0001
0010
0100
0010
0100
0001
0001
,
0010
0000
0000
0000
1000
0000
0000
0000
0000
0001
0000
0000
0000
0000
0000
0100
0000
0000
0010
0000
0000
0000
0000
0000
,
0001
1000
0010
0100
0001
0001
0000
0100
,
0010
0100
0000
0001
0100
0000
0010
0100
,
0001
0010
0000
0001
0010
0001
0010
0100
,
0010
0001
0100
0010
0100
0000
0001
1000
,
0010
0100
0001
1000
0010
0100
0001
1000
,
1001
0001
0000
1000
0010
0000
0100
0001
,
0100
0010
0000
0010
0001
0100
0010
0000
,
0001
1000
0010
0100
0001
0000
0001
0000
,
0010
0100
0001
0100
0010
1000
0010
0100
,
0010
0000
1010
0000
0000
0000
0001
0000
0001
0000
0000
0000
0010
0000
0000
0200
,
0000
0300
1000
0010
,
0100
0000
0000
0010
0001
0000
1000
0000
0001
0000
1000
0000
0001
0000
1000
0000
,
0010
0000
0000
0000
0010
0000
0000
0000
0100
0001
1000
0010
0100
0001
1000
0100
,
0020
0000
0000
0000
0000
0000
0000
0000
0000
0001
0000
0000
0000
0000
0000
0000
,
0000
0100
0000
0000
,
0000
0000
0030
0000
;

//--------------- dance-single - XLev450X†-CSP ----------------
#NOTES:
     dance-single:
     XLev450X†:
     Challenge:
     15:
     0,0,0,0,0:
0000
0000
0000
0000
,
0000
0000
0000
0000
,
0000
0000
0000
0000
,
0000
0000
0000
0000
,
1000
0000
0001
0000
1000
0000
0010
0000
0001
0000
1000
0000
0010
0100
0020
0000
,
0000
0000
0030
0000
,
0001
0000
1000
0000
0010
0000
0100
0000
0010
0000
1000
0000
0001
0010
0100
0000
,
2000
0000
3000
0002
0000
0000
0103
0000
,
0010
0000
0001
0000
0010
1000
0000
0010
1000
0000
0001
0000
0100
0010
0000
1000
,
0010
0000
1000
0000
0010
1000
0000
0001
0010
0000
0010
0000
0001
0000
0000
0000
,
0010
0000
0001
0000
1000
0001
0000
1000
0100
0000
1000
0000
0010
0001
0000
0100
,
1000
0000
0001
0000
0100
0001
0000
0100
0010
0000
1000
0000
0010
0000
0000
0000
,
0001
0010
0001
0000
1000
0100
1000
0000
0010
0100
0010
0000
1000
0100
1000
0000
,
0010
0001
1000
0000
0010
1000
0010
0000
0100
1000
0100
0000
0001
0010
0001
0000
,
0100
0001
1000
0010
1000
0100
0010
0100
1000
0001
0100
0001
0100
0001
0010
0100
,
0020
0000
0000
1000
0000
0100
0130
0000
,
0100
0000
0001
1000
0100
0001
0000
0010
0000
0001
0100
0000
1000
0000
0010
0000
,
1000
0000
0100
0000
0001
0000
0000
0000
1000
0000
0000
0100
0000
0000
0010
0000
,
0001
0000
0100
1000
0010
0001
0000
0100
0000
1000
0000
0001
0000
0100
1000
0000
,
0010
0000
0000
0000
1000
0000
0100
0000
0001
0000
0000
0100
0000
0000
0010
0000
,
1000
0000
0001
0000
0010
1000
0100
0010
0000
0100
0000
0001
1000
0000
0010
0000
,
0000
0100
1000
0100
0000
0010
0001
0100
,
0010
0000
0100
0000
1000
0001
0000
0010
0000
0100
0000
0000
0001
0100
1000
0001
,
0010
0000
0000
0100
0000
0000
0100
0000
0000
0100
0000
0000
0001
0000
0100
0000
,
1000
0000
0001
1000
0000
0100
0000
0001
0010
0100
0000
1000
0000
0001
0000
1000
,
0000
0000
0100
0000
0010
0000
0001
0000
0010
0000
1000
0010
0100
1000
0001
0100
,
1000
0000
0100
0001
0000
0100
0000
0010
0000
0100
1000
0000
0001
0000
0100
0000
,
0010
0000
1000
0010
1000
0000
0100
0001
0100
0000
0001
1000
0010
0000
0100
0000
,
1000
0000
0001
0000
0100
0001
0000
1000
0000
0001
0010
0000
0100
0000
1000
0010
,
0100
0000
1000
0100
0001
0000
0100
0000
1000
0000
0010
0000
0100
0000
0001
0010
,
0100
0000
1000
0000
0010
0100
0000
0001
0000
1000
0000
0000
0010
0100
0000
0000
,
0001
0000
0000
1000
0000
0000
0010
0000
0100
0000
1000
0000
0001
0000
0100
0000
,
1000
0000
0000
0001
0000
0000
0100
0000
0020
0000
0000
0000
0000
0000
0030
0100
,
1000
0000
0000
0001
0000
0000
0100
0000
0010
0000
0000
0000
1000
0000
0001
0000
,
0100
0000
0000
0010
0000
0000
1000
0000
0000
0000
0000
0000
0001
0000
0000
0000
,
0100
0000
1000
0000
0001
1000
0100
0010
,
1000
0000
0000
0001
0000
0000
0100
0000
2000
0000
0000
0000
0000
3000
0001
0000
,
0100
0000
0000
1000
0000
0000
0010
0000
0100
0000
0000
0000
0001
0000
0000
0000
,
1000
0000
0000
0001
0000
0000
0200
0000
0000
0000
0000
0000
0300
0000
0001
0010
,
1000
0001
0000
0010
0000
0100
0000
1000
0000
0100
0000
0010
0001
0010
1000
0100
,
0010
0000
0000
1000
0000
0000
0001
0000
0100
0000
0000
0000
0010
0000
0001
0000
,
0010
0000
1000
0000
0010
0000
0000
0000
0100
0000
1000
0000
0100
0001
1000
0000
,
0001
0000
0000
1000
0000
0000
0010
0000
0000
0100
0000
0000
0001
0000
1000
0000
,
0010
0000
0100
0000
1000
0000
0100
0001
,
1000
0000
0010
0000
0100
0010
0001
0000
,
1000
0001
0100
0000
1000
0010
0100
0000
,
0001
1000
0001
0000
0100
0010
0100
0000
1000
0100
1000
0000
0010
0001
0010
0100
,
2000
0000
0000
0010
0000
3100
1001
0000
,
1000
0010
0100
0000
0001
0010
1000
0001
,
0100
0000
0001
0000
0010
0000
0000
0000
1000
0000
0100
0000
1000
0100
0001
0000
,
0100
0000
0010
0000
1000
0000
0000
0000
0010
0000
0000
1000
0100
0000
0001
0000
,
1000
0000
0001
0000
0100
0000
0010
0000
1000
0000
0100
0000
0001
1000
0010
0000
,
0100
1000
0100
0000
0010
0100
0010
0000
,
1000
0001
0100
0010
1000
0000
1001
0000
,
0100
0010
1000
0000
0010
0000
1000
0100
,
0101
0000
0000
0110
0000
0000
1010
0000
0000
0011
0000
1000
0010
0000
1000
0000
,
0001
0000
0000
0100
0000
0000
1000
0000
0100
0000
0010
0000
1000
0000
0100
0000
,
0001
0000
0000
0010
0000
0000
1000
0000
0010
0000
0100
0000
1000
0000
0001
0000
,
0010
0000
0000
0100
0000
0000
0010
0000
1000
0000
0001
0000
0100
0000
0010
0000
,
1000
0000
0100
0000
0001
0000
1000
0000
0100
0000
0000
0001
0010
0000
0100
0000
,
1000
0000
0001
0000
0100
0000
0010
0000
1000
0000
0001
1000
0100
0001
0010
0200
,
0000
0000
0000
0000
0000
0000
0000
0000
0000
0300
0001
1000
0001
0000
0000
0000
,
0010
0000
0001
0000
1000
0000
0100
1000
0001
0000
0100
0000
0010
0000
0001
0100
,
1000
0000
0001
0000
0100
0000
0010
0000
1000
0100
0001
0010
0100
1000
0001
1000
,
0020
0000
0000
0000
0000
0000
0000
0000
0000
1000
0000
0000
0000
0000
0100
0000
,
0000
0001
0000
0000
,
0000
0000
0030
0000
;
