#TITLE:Evans -prototype-;
#ARTIST:DJ YOSHITAKA;
#GENRE:HARD RENAISSANCE;
#MUSIC:Evans -prototype-.ogg;
#BANNER:Evans -prototype-.png;
#BACKGROUND:Evans -prototype--bg.png;
#CDTITLE:./CDTitles/jubeat.png;
#SAMPLESTART:61.081;
#SAMPLELENGTH:15;
#OFFSET:-0.108;
#BPMS:0=185
,284=369
,286=185;
#BGSTAGE:27;

//--------------- dance-single - XLev450X-bSP ----------------
#NOTES:
     dance-single:
     XLev450X:
     Beginner:
     3:
     0,0,0,0,0:
0000
0000
0000
0000
,
0000
0000
0000
0000
,
0000
0000
0000
0000
,
0000
0000
0000
0000
,
0000
0000
0000
0000
,
0000
0000
0000
0000
,
0000
0000
0000
0000
,
0000
0000
0000
0000
,
0000
0000
0000
0000
,
0000
0001
1000
0001
,
0000
0010
1000
0010
,
0000
0010
0100
0010
,
0000
0001
0010
0001
,
0000
1000
0001
1000
,
0000
0010
0100
0010
,
0000
1000
0001
1000
,
0000
0001
1000
0000
,
1001
0000
0000
0000
,
0000
0000
0000
0000
,
0001
0000
0000
0000
,
1000
0000
0000
0000
,
0100
0000
0000
0000
,
0010
0000
0000
0000
,
0001
0000
0000
0000
,
1000
0000
0000
0000
,
0010
0000
0000
0000
,
0100
0000
0000
0000
,
0001
0001
0001
0000
,
0010
0000
1000
0000
,
0100
0100
0100
0000
,
1000
0000
0001
0000
,
0100
0100
0010
0000
,
1000
0000
0001
0000
,
0010
0010
0100
0000
,
0001
0000
1000
0000
,
0001
0000
0000
0000
,
1000
0000
0000
0000
,
0010
0000
0000
0000
,
1000
0000
0000
0000
,
1001
0000
0000
0000
,
1001
0000
0000
0000
,
0010
0000
0000
0000
,
0100
0000
0000
0000
,
1000
0000
0001
0000
,
1000
0000
0000
0000
,
0110
0000
0000
0000
,
0000
0000
0000
0000
,
1000
1000
1000
0000
,
0010
0000
0100
0000
,
0001
0001
0001
0000
,
1000
0000
0001
0000
,
0010
0010
0100
0000
,
1000
1000
0100
0000
,
0010
0000
0100
0000
,
0001
0000
0000
0000
,
0001
0001
1000
0000
,
0010
0000
0100
0000
,
1000
1000
0010
0000
,
0100
0000
0001
0000
,
0010
0010
0001
0000
,
0100
0100
1000
0000
,
0001
0000
1000
0000
,
0001
0000
0000
0000
,
1001
0000
0000
0000
,
0000
0000
0000
0000
,
0011
0000
0000
0000
,
0000
0000
0000
0000
,
1010
0000
0000
0000
,
0000
0000
0000
0000
,
1100
0000
0000
0000
,
0000
0000
0000
0000
,
0000
0000
0001
0001
,
0001
0000
0010
0010
,
0010
0000
1000
0100
,
1000
0000
0010
0100
,
0010
0000
0000
0001
,
1000
0001
0000
1000
,
0010
1000
0000
0010
,
0100
0010
0000
0000
,
0000
1001
0000
0000
;

//--------------- dance-single - XLev450X-BSP ----------------
#NOTES:
     dance-single:
     XLev450X:
     Easy:
     7:
     0,0,0,0,0:
0000
0000
0000
0000
,
0000
0000
0000
0000
,
0000
0000
0000
0000
,
0000
0000
0000
0000
,
0000
0000
0000
0000
,
0001
1000
0001
0000
,
0010
1000
0100
0001
,
0010
0000
1000
0000
,
0001
0000
1000
0001
,
0000
1000
0010
1000
,
0100
0001
1000
0000
,
0010
1000
0100
0010
,
0101
0000
1000
0000
,
0001
1010
0000
0000
,
1000
0100
0001
0010
,
0101
0000
1010
0000
,
0010
0000
1000
0000
0001
1000
0001
0000
,
2002
0000
0000
0000
,
0000
0000
0000
3003
,
0001
1000
0001
0100
,
0000
0001
0000
1000
0000
0010
0000
0000
,
0100
0001
1000
0010
,
0000
0100
0000
1000
0000
0010
0000
0000
,
0100
0001
1000
0001
,
0000
0100
0000
0001
0000
0100
0000
0000
,
1000
0001
0010
1000
,
0000
0010
0000
0100
0000
0010
0000
0000
,
1000
1000
0001
0000
,
0100
0100
0010
0000
,
1000
0001
0100
1000
,
0000
0001
1000
0001
,
0000
0010
0100
0010
,
0000
1000
0010
1000
,
0001
0100
1000
0001
,
0100
0001
0010
1000
,
0001
0000
1000
0000
,
0001
0001
1000
0000
,
0010
0100
0010
0000
,
1000
1000
0010
0000
,
0001
0010
0001
0000
,
0100
1000
0100
0000
,
0001
0001
1000
0000
,
0010
0010
0100
0000
,
1000
0001
1000
0010
,
2002
0000
0000
0000
0000
0000
0000
0000
0000
0000
0000
3003
,
0220
0000
0000
0000
0000
0000
0000
0000
0000
0000
0000
0000
0000
0000
0000
0330
,
0001
1000
0001
1000
,
0010
0000
1000
0000
0010
1000
0010
0000
,
0001
0000
0010
0000
0001
0010
0001
0000
,
0100
1000
0001
0000
,
1000
0001
0100
0001
,
1000
0000
0001
0000
,
0010
1000
0010
0000
,
1000
1000
0100
0001
,
0010
1000
0001
0000
,
0010
0000
1000
0000
,
0010
0010
1000
0000
,
0100
0001
0010
1000
,
0001
0000
1000
0000
,
0001
0000
1000
0000
0001
0000
1000
0010
,
1000
0000
0010
0000
0001
0000
0010
0001
,
0010
1000
0001
0000
,
0100
1000
0001
0100
,
0010
0010
0000
0000
,
0000
1000
0001
1000
,
0001
0000
0100
0000
,
1000
0000
0000
0000
,
0101
0000
0000
0000
,
1010
0000
0000
0000
,
0110
0000
1010
0000
,
0001
1000
0001
1000
,
0000
0000
0001
1000
,
0010
1000
0010
0000
0001
0000
0010
0000
,
0001
0010
0001
0000
0100
0000
1000
0000
,
0001
0100
0000
1000
,
0001
0100
0000
0010
,
1000
0010
0000
1000
,
0100
0001
1000
0010
,
1000
0000
0010
1000
0010
0000
0001
0010
,
0001
2002
0000
0000
,
0000
0000
0000
0000
,
0000
3003
0000
0000
;

//--------------- dance-single - XLev450X-DSP ----------------
#NOTES:
     dance-single:
     XLev450X:
     Medium:
     11:
     0,0,0,0,0:
0000
0000
0000
0000
,
0000
0000
0000
0000
,
0000
0000
0000
0000
,
0000
0000
0000
0000
,
0000
0000
0000
0000
,
0011
1001
0010
1000
,
0010
1000
0010
0000
0001
0000
0010
0000
,
0001
0100
0001
0000
0010
1000
0010
0000
,
0100
0000
0000
0000
0001
0000
0000
0000
1000
0000
0000
0001
0000
0000
0100
0000
,
0000
0001
1000
0010
,
0100
0000
1000
0000
0001
0010
0001
0000
,
0100
1000
0010
1000
,
0001
0000
1000
0001
,
1010
0001
0100
1000
,
0101
0010
1000
0001
,
1010
0001
0011
0001
,
1000
0001
1000
0000
0010
1000
0010
0100
,
2002
0000
0000
0000
,
0000
0000
0000
0000
3003
1000
0001
1000
,
0010
0000
0001
0000
1000
0010
1000
0010
,
0000
0001
0000
0100
0000
1000
0000
0001
,
0010
0000
1000
0000
0100
1000
0001
0010
,
0000
0001
0000
0100
0000
1000
0000
0010
,
1000
0000
0010
0000
0001
0010
0001
0010
,
0000
0100
0000
1000
0000
0001
0000
0100
,
1000
0000
0001
0000
0100
1000
0001
0010
,
0000
1000
0000
0100
0000
0001
0000
0010
,
1000
0000
0001
0000
0001
1000
0010
1000
,
0010
0000
0001
0000
0010
0001
0010
0001
,
1000
0000
0001
0000
0100
1000
0010
1000
,
0010
0000
0001
0000
0010
1000
0010
0000
,
0001
0010
0001
0000
0010
0100
0010
0000
,
1000
0010
1000
0000
0001
0000
0010
0000
,
1000
0001
1000
0000
0010
0000
1000
0000
,
0001
1000
0001
1000
0010
1000
0010
1000
,
0010
0001
1000
0001
,
0100
0010
1000
0010
,
0011
0000
1001
0000
0001
0000
1000
0010
,
1000
0000
0010
0000
0001
0000
0010
0001
,
0010
0000
0010
0100
0010
0000
0010
1000
,
0010
0000
0010
0100
0010
0000
0001
0010
,
0011
0101
1001
1100
,
1010
1001
0101
1010
,
0010
1000
0010
0100
1000
0001
0010
1000
,
0001
0010
0001
0000
1000
0100
1000
0000
0010
0100
0010
0000
1000
0001
1000
0000
,
2002
0000
0000
0000
0000
0000
0000
0000
0000
0000
0000
0000
0000
0000
0000
3003
,
0001
0000
1000
0000
0010
1000
0010
0100
,
0001
0000
1000
0000
0001
0010
1000
0001
,
0000
1000
0000
0010
0000
0100
0000
1000
,
0001
0000
0010
0000
1000
0010
1000
0001
,
0011
0000
0000
0000
1000
0000
0000
0000
0001
0000
0000
0100
0000
0000
1000
0000
,
0001
0000
0010
0000
1000
0010
1000
0010
,
0000
0001
0000
1000
0000
0100
0000
1000
,
0001
0000
0010
0000
1000
0010
1000
0010
,
0011
1000
0001
1000
,
1010
0000
0010
0000
0100
1000
0010
0000
,
1000
0001
1000
0001
,
0100
0000
1000
0000
0001
0100
0001
0000
,
0001
0000
0000
0000
1000
0000
0000
0000
0001
0000
0000
0100
0000
0000
0010
0000
,
1000
0000
0001
0000
1000
0001
1000
0000
,
0010
0000
0010
0000
0001
0010
0001
0000
,
1000
0010
1000
0000
0010
0100
0010
0000
,
0001
1000
0001
0100
1000
0001
0010
0100
,
1000
0001
0000
0000
,
0000
0001
1000
0010
,
0100
0000
1000
0000
,
0001
0000
0000
0000
0100
0001
0000
1000
,
0010
0000
0001
1000
,
1001
0000
0010
1000
,
1010
0000
0011
0000
,
1000
0000
0001
0000
0100
0001
1000
0001
,
0000
0000
0001
1000
,
0010
1000
0010
0000
0100
0000
1000
0000
,
0010
0100
0010
0000
0001
0000
0010
0000
,
0001
0000
0010
0000
0001
0000
0000
0000
1000
0000
0000
0000
0001
0000
0000
1000
,
0000
0001
0100
0000
0001
0000
1000
0010
,
1000
0000
0010
0000
0001
0000
0010
0001
,
0010
1000
0001
0100
,
1000
0000
0000
0000
0001
0010
0001
0000
0001
1000
0001
0000
1000
0010
1000
0000
,
1000
0001
1000
0000
2002
0000
0000
0000
0000
0000
0000
0000
0000
0000
0000
0000
,
0000
0000
0000
0000
,
0000
3003
0000
0000
;

//--------------- dance-single - XLev450X-ESP ----------------
#NOTES:
     dance-single:
     XLev450X:
     Hard:
     15:
     0,0,0,0,0:
0000
0000
0000
0000
,
0000
0000
0000
0000
,
0000
0000
0000
0000
,
0000
0000
0000
0000
,
0000
0000
0000
0000
,
0001
0000
1000
0000
0000
0010
0000
0000
,
0000
0100
0000
0000
0001
0000
1000
0000
,
0010
1000
0010
0000
0001
0010
0001
0000
,
1000
0000
0010
0000
0100
0000
1000
0000
0001
0000
0000
0100
0000
0000
0010
0000
,
0000
0000
1000
0010
0100
1000
0001
0010
,
1000
0000
0010
0000
0100
0000
1000
0100
0001
0000
0010
0000
1000
0000
0001
0000
,
0100
1000
0010
0001
0010
0001
1000
0010
,
1000
0001
0100
0000
1000
0000
0010
0000
,
0001
0010
1000
0010
0000
0100
1000
0001
,
0010
0000
0001
1000
0001
0000
0010
0000
1000
0000
0001
0000
0100
0000
0001
0000
,
0010
0000
1000
0010
1000
0000
0001
0000
0010
0000
0100
0010
0001
0000
0100
0000
,
1000
0000
0001
1000
0100
0000
0010
0000
1000
0000
0001
1000
0001
0000
1000
0010
,
2000
0000
0000
0000
,
0000
0000
0000
0000
3000
0001
1000
0010
,
0100
0000
0001
0000
1000
0010
0100
1000
,
0000
0000
0001
0010
0001
0000
1000
0100
1000
0000
0100
0010
0100
0000
0001
0000
,
1000
0000
0010
0000
1000
0100
1000
0001
,
0000
0000
0100
0010
0100
0000
1000
0010
1000
0000
0010
0100
0010
0000
1000
0000
,
0001
0000
0100
0000
1000
0001
1000
0010
,
0000
0000
1000
0010
1000
0000
0001
0100
0001
0000
0010
1000
0010
0000
0001
0000
,
0100
0000
1000
0000
0001
0100
1000
0001
,
0000
0000
0010
0001
0010
0000
1000
0010
1000
0000
0100
1000
0100
0000
0001
0000
,
1000
0000
0010
0000
0100
1000
0010
1000
,
0100
0000
0001
1000
0001
0000
0100
0010
0100
0000
1000
0100
0010
0000
0001
0100
,
1000
0010
1000
0001
0010
0100
1000
0010
,
1000
0000
0001
0010
0100
0000
1000
0010
0001
0000
0100
0001
0010
0000
1000
0100
,
0001
0100
1000
0100
0001
0010
1000
0010
,
0001
0000
0100
0001
0100
0000
1000
0010
0100
0000
0001
1000
0001
0000
0100
0001
,
1000
0010
0100
1000
0001
0010
1000
0001
,
0100
0000
1000
0001
1000
0001
0010
0100
0010
0100
1000
0100
0010
0100
0001
1000
,
0100
0000
0000
0000
1000
0000
0000
0000
0100
0000
0000
0000
0001
0000
0010
0100
,
1000
0000
0000
0000
0100
0000
0000
0000
1000
0000
0000
0000
0001
0000
0100
0001
,
1000
0000
0000
0000
0001
0000
0000
0000
1000
0000
0000
0000
0001
0000
1000
0001
,
0010
0000
0000
0000
0010
0000
0000
0000
1000
0000
0000
0000
0100
0000
1000
0001
,
0010
0000
0000
0000
0010
0000
0100
1000
0001
0000
0000
0000
0001
0000
1000
0100
,
0001
0000
0000
0000
0100
0000
1000
0010
0001
0000
0000
0000
0010
0000
1000
0001
,
0010
0101
1010
0110
,
1001
0011
1100
1001
,
0001
1000
0001
1000
0010
1000
0010
1000
,
0010
1000
0010
0100
0001
1000
0001
1000
0001
0010
0100
0010
0001
1000
0010
0100
,
0020
0000
0000
0000
0000
0000
0000
0000
0000
0000
0030
0000
,
0010
0100
0010
1000
0010
1000
0001
1000
0100
0010
0100
0010
0100
1000
0010
0100
,
0001
0000
1000
0000
0010
1000
0010
0100
,
1000
0000
0001
0000
0010
0001
0010
1000
,
0010
0000
0100
0000
1000
0001
1000
0001
,
1000
0000
0000
0000
0001
0000
0000
0000
1000
0000
0000
0001
0000
0000
0100
0000
,
1000
0000
0001
0000
0010
0001
1000
0100
,
1000
0000
0001
1000
0100
0000
1000
0100
0001
0000
1000
0010
0001
0000
0010
0100
,
0010
1000
0010
0000
0010
1000
0100
0000
,
0001
0000
1000
0000
0001
0000
0100
0000
1000
0000
0001
1000
0010
0000
1000
0001
,
0010
0000
0001
0000
1000
0010
0100
1000
,
0010
0000
0100
0000
1000
0001
1000
0010
,
1000
0000
0001
0000
0100
1000
0010
1000
,
0010
0000
0000
0000
0100
0000
0000
0000
1000
0000
0000
0001
0000
0000
1000
0000
,
0100
0000
1000
0000
0001
1000
0001
0100
,
1000
0000
0001
0010
0100
0000
1000
0100
0001
0000
0010
0001
1000
0000
0010
1000
,
0100
1000
0010
0100
0001
1000
0010
1000
,
0001
0000
0100
0000
0010
0000
1000
0000
0001
0000
0100
1000
0010
0000
1000
0001
,
1000
1001
0000
0000
,
0000
0001
1000
0010
,
0100
0000
0001
0000
,
1000
0000
0000
0000
0001
0000
0000
0000
0100
0000
0000
0001
0000
0000
0100
0000
,
2002
0000
0000
0000
0000
3003
0000
0000
0001
0000
0000
0000
0010
0000
0000
0000
,
2020
0000
0000
0000
0000
0000
0000
3030
0001
0000
0000
0000
0010
0000
0000
0000
,
0022
0000
0000
0000
0033
0000
0001
0000
0000
0100
0000
0000
,
1000
0000
0001
0000
0100
0010
1000
0001
,
0000
0000
0001
1000
,
0010
0000
1000
0000
0010
0000
0001
1000
0100
0000
0001
0100
1000
0000
1000
0100
,
0001
0100
1000
0000
0010
0000
0100
1000
,
0010
0000
0100
0000
1000
0000
0001
1000
0010
0000
1000
0100
0001
0000
0000
0100
,
0000
0000
0001
0000
1000
0000
0000
0000
0001
0000
0000
0000
1000
0100
0001
0010
,
1000
0001
0010
0100
1000
0000
0000
0001
0000
0000
0010
0000
0100
0001
1000
0001
,
0010
0100
1000
0001
0010
1000
0100
0000
1000
0000
0001
0000
0100
0001
1000
0000
,
0001
1000
0100
0000
0010
0001
1000
0100
0001
0010
0100
1000
0010
0100
1000
0100
,
0001
1000
0010
0100
2002
0000
0000
0000
0000
0000
0000
0000
0000
0000
0000
0000
,
0000
0000
0000
0000
,
0000
3003
0000
0000
;
