#TITLE:Eternal Memory ~소녀의 꿈~;
#ARTIST:M2U;
#TITLETRANSLIT:Eternal Memory ~A Girl's Dream~;
#GENRE:Fantasy Pop;
#MUSIC:Eternal Memory ~A Girl's Dream~.ogg;
#BANNER:Eternal Memory ~A Girl's Dream~.png;
#BACKGROUND:Eternal Memory ~A Girl's Dream~-bg.png;
#CDTITLE:./CDTitles/DJMAX Portable 1.png;
#SAMPLESTART:32.741;
#SAMPLELENGTH:15;
#OFFSET:-0.381;
#BPMS:0=125;
#BGCHANGES:0.000=Eternal Memory ~A Girl's Dream~.mp4=1.000=0=0=0=StretchNoLoop====,
99999.000=-nosongbg-=1.000=0=0=0=StretchNoLoop====
;

//--------------- dance-single - XLev450X -여정--bSP ----------------
#NOTES:
     dance-single:
     XLev450X -여정-:
     Beginner:
     3:
     0,0,0,0,0:
0000
0000
0000
0000
,
0000
0000
0000
0000
,
0000
0000
0000
0000
,
0000
0000
0000
0000
,
0000
0000
0000
0000
,
0000
0000
0000
0000
,
0000
0000
0000
0000
,
0000
0000
0000
0000
,
0000
0000
0000
0000
0000
0000
0000
1000
,
0000
0000
0000
0000
0000
0000
0000
0010
,
0000
0000
0000
0000
0000
0000
0000
0100
,
0000
0000
0000
0000
0000
0000
0000
0001
,
0000
0000
0000
0000
0000
0000
0000
1000
,
0000
0000
0000
1000
0000
0000
0000
1000
,
0000
0000
0000
0000
0000
0000
0000
0001
,
0000
0000
0000
0001
0000
0000
0000
0001
,
0000
0000
0000
0000
0000
0000
0000
0100
,
0000
0000
0000
0000
0000
0000
0000
0010
,
0000
0000
0000
0000
0000
0000
0000
0001
,
0000
0000
0000
0000
0000
0000
0000
1000
,
0000
0000
0000
0000
0000
0000
0000
0100
,
0000
0000
0000
0000
0000
0000
0000
1000
,
0000
0000
0000
0000
0000
0000
0000
0010
,
0000
0000
0000
0000
0000
0000
0000
0001
,
0000
0000
0000
0000
0000
0000
0000
1000
,
0000
1000
0000
0000
0000
0000
0000
0001
,
0000
0001
0000
0000
0000
0000
0000
0100
,
0000
0100
0000
0000
0000
0000
0000
0010
,
0000
0010
0000
0000
0000
0000
0000
1000
,
0000
0010
0000
0000
0000
0000
0000
0100
,
0000
0001
0000
0000
0000
0000
0000
1000
,
0000
0010
0000
1000
0000
0000
0000
1001
,
0000
0000
0000
0000
0000
0000
0000
0100
,
0000
0000
0000
0100
0000
0000
0000
0100
,
0000
0000
0000
0000
0000
0000
0000
0001
,
0000
0000
0000
0001
0000
0000
0000
0001
,
0000
0000
0000
0000
0000
0000
0000
0100
,
0000
0000
0000
1000
0000
0000
0000
0100
,
0000
0000
0000
0000
0000
0000
0000
0010
,
0000
0000
0000
0001
0000
0000
0000
0010
,
0000
0000
0000
0000
0000
0000
0000
1000
,
0000
0001
0000
1000
0000
0000
0000
0010
,
0000
1000
0000
0010
0000
0000
0000
0100
,
0000
0000
0000
0000
0000
0000
0000
0001
,
0000
0000
0000
0000
0000
0000
0000
0010
,
0000
0000
0000
0000
0000
0000
0000
0100
,
0000
0000
0000
0000
0000
0000
0000
1001
,
0000
0000
0000
0000
0000
0000
0000
1001
,
0000
0000
0000
0000
0000
0000
0000
0010
,
0000
0010
0000
0010
0000
0000
0000
0001
,
0000
0001
0000
0001
0000
0000
0000
1000
,
0000
0000
0000
0000
0000
0000
0000
0100
,
0000
0000
0000
0000
0000
0000
0000
0010
,
0000
1000
0000
0010
0000
0000
0000
0100
,
0000
0001
0000
0100
0000
0000
0000
0011
,
0000
0000
0000
0000
0000
0000
0000
1100
,
0000
0000
0000
0000
0000
0000
0000
0010
,
0000
1000
0000
0001
0000
0000
0000
0100
,
0000
0010
0000
0001
0000
0000
0000
1000
,
0000
0000
0000
0000
0000
0000
0000
0001
,
0000
0000
0000
0000
0000
0000
0000
0100
,
0000
0010
0000
0100
0000
0000
0000
1000
,
0000
0100
0000
1000
0000
0000
0000
0010
,
0000
0001
0000
0010
0000
0000
0000
0100
,
0000
0010
0000
0100
0000
0010
0000
1001
;

//--------------- dance-single - XLev450X -여정--BSP ----------------
#NOTES:
     dance-single:
     XLev450X -여정-:
     Easy:
     6:
     0,0,0,0,0:
0000
0000
0000
0000
,
0000
0000
0000
0000
,
0000
0000
0000
0000
,
0000
0000
0000
0000
,
0000
0000
0000
0000
,
0000
0000
0000
0000
,
0000
0000
0000
0000
,
0000
0000
0000
0000
,
0000
0000
0000
0000
0000
0000
0000
1000
,
0000
0001
0000
1000
0000
0000
0000
0010
,
0000
1000
0000
0010
0000
0000
0000
0100
,
0000
0001
0000
0100
0000
0000
0000
0001
,
0000
1000
0000
0001
0000
0100
0000
0010
,
0000
1000
0000
0010
0000
0000
0000
0100
,
0000
0001
0000
1000
0000
0000
0000
0101
,
0000
0000
0000
1010
0000
0000
0000
0020
,
0000
0000
0000
0200
0000
0000
0330
0001
,
0000
0001
0000
0001
0000
0000
0000
1000
,
0000
0010
0000
1000
0000
0001
0000
0100
,
0000
0010
0000
1000
0000
0000
0000
0010
,
0000
0010
0000
0010
0000
1000
0000
0001
,
0000
0100
0000
0010
0000
0000
0000
1000
,
0000
0010
0000
1000
0000
0001
0000
0100
,
0000
0000
0000
0010
0000
1000
0000
0001
,
0000
0000
0000
0100
0000
0001
0000
1000
,
0000
0010
0000
1000
0000
0000
0000
0010
,
0000
1000
0000
0010
0000
0001
0000
1000
,
0000
0001
0000
0100
0000
0000
0000
0010
,
0000
0010
0000
1000
0000
0001
0000
0100
,
0000
0000
0000
1000
0000
0001
0000
1000
,
0000
0000
0000
0010
0000
1000
0000
0010
,
0000
0000
0000
0100
0000
0001
0000
0001
,
0000
1000
0000
0010
0000
0000
0000
0100
,
0000
1000
0000
0001
0000
0000
0000
0100
,
0000
0010
0000
0100
0000
0000
0000
0001
,
0000
1000
0000
0010
0000
0100
0000
0010
,
0000
0000
0000
0001
0000
0000
0000
1000
,
0000
1000
0000
1000
0000
0000
0000
1000
,
0000
0001
0000
0100
0000
0000
0000
0010
,
0000
1000
0000
0001
0000
0100
0000
0010
,
0000
1000
0000
0001
0100
0001
0000
1000
,
0000
0010
0000
0100
0000
0000
0000
1000
,
0000
0001
0000
0010
0000
0000
0000
1000
,
0000
0001
0000
0100
0000
0010
0000
1000
,
0000
0000
0000
0001
0000
0100
0000
0010
,
0000
0000
0000
0000
0000
0000
0000
1001
,
0000
0000
0000
0000
0000
0000
0000
1100
,
0000
0000
0000
0011
0000
0000
0000
0220
,
0000
0000
0000
0000
0000
0000
0330
0001
,
0000
0001
0000
0001
0000
0000
0000
1000
,
0000
1000
0000
1000
0000
0000
0000
0010
,
0000
1000
0000
0001
0000
0100
0000
0010
,
0000
1000
0000
0010
0001
0010
0000
1000
,
0000
0010
0000
0100
0000
0000
0000
1000
,
0000
0010
0000
1000
0010
0100
0000
0001
,
0000
1000
0000
0001
0000
0000
0000
0100
,
0000
0010
0000
1000
0000
0000
0000
0001
,
0000
1000
0000
0010
0000
0000
0000
0100
,
0000
1000
0000
0001
0100
0010
1000
0001
,
0000
0100
0000
0010
0000
0000
0000
1000
,
0000
0001
0000
0100
0010
1000
0000
0001
,
0000
0000
0000
0000
0000
0000
0000
0110
,
0000
0000
0000
0000
0000
0000
0000
1001
,
0000
0000
0000
0101
0000
0000
0000
0220
,
0000
0000
0000
0000
0330
0000
0000
0020
,
0000
0000
0000
0100
0000
0000
0000
0030
;

//--------------- dance-single - XLev450X -여정--DSP ----------------
#NOTES:
     dance-single:
     XLev450X -여정-:
     Medium:
     10:
     0,0,0,0,0:
0000
0000
0000
0000
,
0000
0000
0000
0000
,
0000
0000
0000
0000
,
0000
0000
0000
0000
,
0000
0000
0000
0000
,
0000
0000
0000
0000
,
0000
0000
0000
0000
,
0000
0000
0000
0000
,
0000
0000
0000
0000
0000
0000
0000
1000
,
0000
0001
0100
0020
0000
0000
0000
0000
,
0000
0000
0030
1000
0000
0001
0100
0020
,
0000
0000
0000
0000
0000
0000
0030
0001
,
0000
1000
0000
0010
1000
0100
0001
0200
,
0000
0000
0300
2000
0000
0000
3000
0002
,
0000
0000
0003
1000
0000
0010
0000
0200
,
0000
0000
0300
0002
0000
0003
0100
0100
,
0000
0010
0000
1000
0001
0100
0001
0010
,
0000
0001
0000
1000
0000
0100
0000
1000
,
0010
1000
0001
0100
0010
1000
0000
0101
,
0000
1010
0000
0110
0000
0000
0000
1000
,
0000
0001
0000
1000
0000
1000
0000
0010
,
0000
0100
0000
1000
0000
0000
0000
0001
,
0000
0010
0000
1000
0000
0001
0000
0100
,
0000
0010
0000
1000
0000
0000
0000
0001
,
0100
0001
0000
1000
0010
1000
0000
0010
,
0000
0100
0000
0001
0000
1000
0000
0010
,
0000
0100
0000
0001
1000
0010
0000
0100
,
0000
1000
0000
0001
0000
0000
0000
1000
,
0000
0001
0000
1000
0000
0010
0000
0100
,
0000
1000
0000
0010
0000
0000
0000
1000
,
0000
0001
0000
0100
1000
0010
0100
0001
,
0000
1000
0000
0010
0000
0100
0000
0001
,
0000
1000
0000
0001
1000
0010
0100
0001
,
0000
1000
0000
0010
0000
0000
0000
1000
,
0000
0001
0000
1000
0000
0100
0000
1000
,
0000
0010
0000
0100
0000
0000
0000
0011
,
0000
1100
0000
0110
0000
1001
0000
0010
,
1000
0010
0100
0001
1000
0010
0000
0100
,
0000
1000
0000
0001
0100
0001
0000
1000
,
0000
0010
0000
0100
0000
0000
0000
1000
,
0000
0001
0000
1000
0010
0100
0001
1000
,
0000
0010
0000
1000
0010
1000
0000
0001
,
0000
0100
0000
0001
0100
0001
0000
1000
,
0000
0001
0000
0100
0000
0000
0000
1000
,
0000
0010
0000
1000
0001
0100
0010
1000
,
0000
0000
0000
0000
0000
0001
0100
1000
,
0000
0000
0000
0000
0000
0000
0000
0000
0001
0000
0000
1000
0000
0000
0010
0000
,
0000
0000
1000
1010
0000
0000
0001
0101
,
0000
0110
0000
0001
1000
0010
0100
1000
,
0000
0001
0000
1000
0000
0001
0000
1000
,
0100
1000
0000
0010
0001
0010
0000
0100
,
0000
0010
1000
0001
0100
0010
0000
0000
,
1000
0001
0000
0000
1000
0010
1000
0010
,
0000
0000
0000
0010
0000
0100
0000
0001
,
0010
0001
0000
1000
0000
0100
0000
1000
,
0001
0100
0000
0010
0000
1000
0000
0010
,
0001
1000
0000
0100
0001
1000
0000
0010
,
1000
0010
0100
0001
0000
0000
0000
1000
,
0001
0100
0000
0010
1000
0010
0000
0100
,
0000
0001
0000
1000
0000
0010
0000
1000
,
0010
0100
0000
0001
0100
0010
0000
1001
,
0000
0000
0000
0000
0000
0000
0010
0100
,
0000
0000
0000
0000
0000
0000
0000
0000
0001
0000
0000
1000
0000
0000
0010
0000
,
0000
0000
0001
0101
0000
0000
1000
1010
,
0000
0110
0000
0001
1000
0010
0100
0002
,
0000
0000
0000
0100
0000
0000
0000
0003
;

//--------------- dance-single - XLev450X -여정--ESP ----------------
#NOTES:
     dance-single:
     XLev450X -여정-:
     Hard:
     14:
     0,0,0,0,0:
0000
0000
0000
0000
,
0000
0000
0000
0000
,
0000
0000
0000
0000
,
0000
0000
0000
0000
,
0000
0000
0000
0000
,
0000
0000
0000
0000
,
0000
0000
0000
0000
,
0000
0000
0000
0000
,
0000
0000
0000
0000
0000
0000
0000
0001
,
0000
0000
1000
0000
0010
0100
0010
0000
0000
0000
0001
0000
0000
0000
1000
0000
,
0000
0000
0010
0000
0000
0000
1000
0000
0000
0000
0010
0000
0100
0010
0100
0000
,
0000
0001
0000
1000
0000
0001
0000
0100
,
0000
0010
0000
0001
1000
0010
0100
1000
,
0000
0000
0010
0000
0000
0000
0100
0000
0000
0000
0001
0000
1000
0001
1000
0000
,
0000
0000
0010
0000
0000
0000
0100
0000
1000
0000
0000
0010
0000
0000
0100
0000
,
0000
0000
0001
0000
1000
0001
0100
0000
1000
0000
0001
0100
0010
0001
1000
0000
,
0010
0100
0010
0000
0000
1000
0001
1000
0100
0010
0001
0100
1000
0001
0100
0000
,
0001
0000
0010
0000
0100
0001
1000
0000
0001
1000
0010
0000
0100
0010
0100
0000
,
0001
0000
1000
0000
0010
0000
0100
1000
0000
0010
1000
0000
0001
0100
0010
0000
,
1000
0000
0001
0000
1000
0000
0010
0000
0000
0001
0100
0000
1000
0000
0010
0000
,
0001
0010
0001
0000
1000
0010
1000
0000
0010
0000
0100
0010
0000
1000
0000
0000
,
0001
0000
0100
0000
0010
0100
0000
0000
0000
0000
0001
0000
1000
0000
0010
0000
,
0100
0000
1000
0000
0010
0000
0100
0000
1000
0000
0001
0100
0000
0000
0010
0000
,
0000
0000
1000
0000
0001
0100
0010
0000
0000
0000
1000
0000
0000
0000
0010
0000
,
0000
1000
0000
0001
0010
0001
1000
0010
,
0000
0000
0100
0000
0000
0000
1000
0010
1000
0000
0100
0000
0001
0000
1000
0000
,
0010
0000
0100
0000
0000
0000
0001
0010
0001
0000
1000
0000
0010
0000
0100
0000
,
0000
1000
0001
0100
0000
0010
0000
1000
,
0010
0001
0100
0000
1000
0010
1000
0000
0100
0000
0001
1000
0100
0010
0001
0000
,
0000
1000
0010
0100
0000
1000
0000
0001
,
0100
0010
1000
0001
0000
0100
0000
1000
,
0000
0000
0010
0000
0100
0000
0001
0000
1000
0000
0010
0000
0001
0000
0010
0001
,
0010
0000
1000
0010
1000
0000
0010
0100
0010
0001
1000
0010
0100
1000
0010
0000
,
0000
1000
0001
0100
0010
1000
0000
1001
,
0000
0010
0100
1000
0010
0100
0000
0101
,
0000
1010
0000
0010
0001
1000
0010
0100
,
0000
1000
0000
0100
1000
0001
0100
0010
,
0000
1000
0000
0010
0000
1000
0000
0001
,
0100
0010
0000
1000
0000
0100
0000
0010
,
0001
0010
1000
0010
0100
1000
0001
0100
,
0000
0010
0000
0101
0000
1000
0000
0010
,
0000
1000
1000
0100
0000
0010
0000
0010
,
0000
0100
0100
0001
1000
0001
0100
0010
,
0000
1000
0000
0001
0100
0010
0000
1000
,
0000
0010
0000
1000
0010
0100
0001
1000
,
0000
0010
0000
1000
0000
0100
0001
0100
,
0000
0000
0010
0000
0000
0000
0000
0000
1000
0000
0000
0001
0000
0000
0100
0000
,
0000
0000
0001
0101
0000
0000
1000
1100
,
0000
0000
0110
0000
0000
0000
0010
1000
0001
0100
0010
1000
0001
0100
0010
0000
,
1000
0001
0100
0010
0000
1001
0000
0010
,
0100
0010
0000
0001
0010
0001
0000
1000
,
0100
1000
0010
0100
0001
1000
0000
0010
,
0000
0101
0000
1010
0000
0110
0000
1000
,
0010
0000
1000
0000
0010
0001
0100
0000
0001
0000
1000
0000
0000
0000
0100
0000
,
0000
0000
1000
0100
0000
0010
0001
0000
0100
0000
0010
0000
0000
0000
0001
0000
,
0000
1000
0000
0010
1000
0010
0000
0100
,
0001
0100
0000
0010
0000
0100
0000
0001
,
1000
0010
1000
0001
0100
0010
0000
1000
,
1000
0010
0100
0000
0100
0001
1000
0001
,
0000
0100
0000
0001
0001
1000
0000
0010
,
0000
0100
0000
1000
0010
0100
0000
0101
,
0000
1000
0000
0010
0000
0000
0100
0010
,
0000
0000
1000
0000
0000
0000
0000
0000
0001
0000
0000
0100
0000
0000
0010
0000
,
0000
0000
1000
1001
0000
0000
0100
0110
,
0000
0000
0011
0000
0000
0000
0010
0100
0001
0010
0001
0010
0001
1000
0020
0000
,
0000
0000
0000
1000
0000
0000
0000
0030
;
