#TITLE:Entrapment;
#ARTIST:Expander;
#BANNER:Entrapment.png;
#BACKGROUND:Entrapment-bg.png;
#CDTITLE:./CDTitles/jubeat Qubell.png;
#MUSIC:Entrapment.ogg;
#OFFSET:-0.308;
#SAMPLESTART:39.48;
#SAMPLELENGTH:15;
#BPMS:0=150;
#BGSTAGE:1;

//--------------- dance-single - XLev450X-bSP ----------------
#NOTES:
     dance-single:
     XLev450X:
     Beginner:
     3:
     0,0,0,0,0:
0000
0000
0000
0000
,
0000
0000
0000
0000
,
0000
0000
0000
0000
,
0000
0000
0000
0000
,
0000
0000
0001
0000
,
1000
0000
0001
0000
,
0000
0000
0010
0000
,
1000
0000
0010
0000
,
0000
0000
0100
0000
,
0010
0000
0100
0000
,
0000
0000
0001
0000
,
1000
0000
0001
0000
,
0000
0000
0010
0000
,
0010
0000
1000
0000
,
0000
0000
0100
0000
,
0100
0000
0001
0000
,
0000
0000
1000
0000
,
0001
0000
1000
0000
,
0000
0000
0010
0000
,
1000
0000
0010
0000
,
0000
0000
1001
0000
,
0000
0000
1001
0000
,
0000
0000
1001
0000
,
0000
0000
1001
0000
,
0000
0000
0010
0010
,
0010
0000
0001
0001
,
0001
0000
1000
1000
,
1000
0000
0100
0100
,
0100
0000
0010
0100
,
0010
0000
0001
0010
,
0001
0000
1000
0100
,
1000
0000
0010
1000
,
0010
0000
0001
0000
,
0000
0000
1000
0000
,
0000
0000
0100
0000
,
0000
0000
0010
0000
,
0000
0000
0001
0000
,
0001
0000
1000
0000
,
0000
0000
1000
0000
,
1000
0000
0100
0000
,
0000
0000
0010
0010
,
0000
0000
0100
0100
,
0000
0000
0001
0001
,
0000
0000
1000
1000
,
0000
0000
0010
1000
,
0000
0000
0100
0001
,
0000
0000
0010
0100
,
0000
0000
0100
0010
,
0000
0000
0110
0000
,
0000
0000
0001
0000
,
0001
0000
0001
0000
,
0000
0000
1000
0000
,
1000
0000
0010
0000
,
0000
0000
0100
0000
,
0100
0000
0001
0000
,
0000
0000
1000
0000
,
0100
0000
1000
0000
,
0000
0000
0001
0000
,
0010
0000
1000
0000
,
0000
0000
1000
0000
,
0100
0000
0010
0000
,
0000
0000
0001
0000
,
0010
0000
0100
0000
,
0000
0000
1000
0000
,
0010
0000
1000
0000
,
0000
0000
0001
0000
,
0001
0000
0001
0000
,
0000
0000
1000
0000
,
1000
0000
1000
0000
,
0000
0000
1001
0000
;

//--------------- dance-single - XLev450X-BSP ----------------
#NOTES:
     dance-single:
     XLev450X:
     Easy:
     7:
     0,0,0,0,0:
0000
0000
0000
0000
,
0000
0000
0000
0000
,
0000
0000
0000
0000
,
0000
0000
0000
0000
,
0000
0000
0010
1000
,
0010
0001
0100
1000
,
0001
0000
1000
0100
,
0010
0001
1000
0010
,
0100
0000
0000
0000
0010
1000
0010
0000
,
0001
0100
0001
1000
,
0001
0000
0000
0000
0100
0001
0100
0000
,
0001
1000
0002
0000
,
0000
0000
2000
3003
0010
0000
1000
0000
,
0010
0000
0001
0010
,
0001
0000
1000
0100
,
0001
0000
0010
1000
,
0010
0000
0000
0000
2002
0000
0000
3003
,
0010
1000
0100
0001
,
0010
0000
0001
1000
,
0001
1000
0001
0000
1000
0000
0010
0000
,
0100
0000
0001
0010
,
1000
0000
0100
1000
,
0001
0000
0010
0001
,
0100
1000
0002
0000
,
2000
3003
0001
0010
,
1000
0000
0001
0100
,
0010
0000
1000
0100
,
0001
0000
0010
0100
,
1001
0000
0001
1000
,
0010
1000
0010
0000
0001
0000
0100
0000
,
1000
0000
0001
1000
,
0010
0000
0100
0001
,
0100
0000
0010
1000
,
0100
0001
0010
0100
,
1000
0000
0001
1000
,
0010
1000
0010
0000
2002
0000
0000
0000
,
0000
3003
1000
0001
,
0100
1000
0010
1000
,
0100
0000
0010
0100
,
0010
0001
1000
0001
,
2002
0000
0000
3003
0001
0000
1000
0000
,
0010
0100
1000
0001
,
0010
0000
0001
1000
,
0010
0000
1000
0100
,
0001
0000
0010
0100
,
0010
1000
0100
0001
,
0010
0000
1000
0001
,
1000
0000
0010
0100
,
0010
0000
2002
0000
,
0000
0000
0000
3003
0001
0000
1000
0000
,
0001
0000
1000
0100
,
0010
0000
0001
0010
,
0100
0000
1000
0010
,
1000
0000
0001
1000
,
0100
0001
0100
1000
,
0001
0000
0010
1000
,
0100
0010
0001
0010
,
0100
0000
0001
1000
,
0001
0000
1000
0100
,
0010
0000
0010
1000
,
0100
0000
0001
1000
,
0001
0000
1000
0010
,
1000
0100
0001
0010
,
0001
0010
0001
0000
0100
0000
1000
0000
,
0010
1000
0010
0000
0220
0000
0000
0000
,
0000
0330
0001
1000
,
0010
0000
0010
0001
,
0010
0000
1000
0100
,
0001
1000
0001
0000
0010
0000
1000
0000
,
0100
0010
2002
0000
,
0000
0000
0000
0000
,
0000
3003
0000
0000
;

//--------------- dance-single - XLev450X-DSP ----------------
#NOTES:
     dance-single:
     XLev450X:
     Medium:
     11:
     0,0,0,0,0:
0000
0000
0000
0000
,
0000
0000
0000
0000
,
0000
0000
0000
0000
,
0000
0000
0000
0000
,
0000
0000
0001
1000
,
0010
0000
1000
0100
,
0001
1000
0001
0000
0010
0000
1000
0000
,
0100
0000
0010
0001
,
0100
1000
0100
0000
0010
0000
1000
0000
,
0001
0000
0010
1000
,
0001
1000
0001
0000
0010
0000
1000
0000
,
0100
0001
2000
0000
,
0000
0000
0002
3003
0001
0000
1000
0000
,
0010
0000
0100
0010
0100
0000
0001
0010
,
0001
0000
1000
0010
1000
0000
0001
0000
,
1000
0000
0010
0000
0100
0001
1000
0000
,
0010
1000
0010
0000
0100
0000
0000
0000
,
1000
0001
0100
0010
,
1000
0000
0010
0100
,
0001
0010
1000
0000
0001
0000
1000
0000
,
0001
1000
0010
0000
0010
0000
0100
0000
,
1000
0001
1000
0010
,
0100
0000
1000
0001
,
1000
0010
1000
0000
0020
0000
0200
0000
,
0000
0000
0000
0330
0001
0000
1000
0000
,
0010
0000
0000
0100
0000
0000
0001
0000
1000
0000
0000
0000
0010
0000
0000
0000
,
0100
0000
0000
0001
0000
0000
1000
0000
0010
0000
0000
0000
0100
0000
0000
0000
,
0001
0000
0000
1000
0000
0000
0010
0000
1000
0000
0000
0000
0010
0000
0000
0000
,
0100
0001
1000
0100
0000
0000
1000
0000
0000
0010
0000
0000
,
0100
0000
0000
1000
0000
0000
0001
0000
0010
0000
0000
0000
1000
0000
0000
0000
,
0100
0000
0000
0010
0000
0000
1000
0000
0001
0000
0000
0000
0100
0000
0000
0000
,
1000
0000
0000
0001
0000
0000
1000
0000
0010
0000
0000
0000
0100
0000
0000
0000
,
0001
0000
0000
0000
0010
0000
0000
0000
0100
0000
0000
0000
1000
0000
0000
0000
0000
0000
0000
0000
0000
0000
0000
0000
0010
0000
0000
0000
0000
0000
0000
0000
0000
0100
0000
0000
0000
0000
0000
0000
0000
0000
0001
0000
0000
0000
0000
0000
,
1000
0000
0000
0001
0000
0000
0010
0000
1000
0000
0000
0010
0000
0000
0100
0000
,
0001
0000
0000
1000
0000
0000
0001
0000
0100
0000
0000
1000
0000
0000
0010
0000
,
1000
0000
0000
0000
0000
0000
0000
0000
0000
0010
0000
0000
0000
0000
0000
0000
0000
0000
0100
0000
0000
0000
0000
0000
0001
0000
0000
0000
0010
0000
0000
0000
0000
0000
0000
0000
0100
0000
0000
0000
1000
0000
0000
0000
0000
0000
0000
0000
,
0010
0000
0000
0000
0100
0000
0000
0000
0000
0000
0000
0000
0001
0000
0000
0000
1000
0000
0000
0000
0000
0000
0000
0000
0001
0000
0000
0000
0000
0000
0000
0000
0000
1000
0000
0000
0000
0000
0000
0000
0000
0000
0010
0000
0000
0000
0000
0000
,
0100
0000
0000
0001
0000
0000
1000
0000
0010
0000
0000
0100
0000
0000
0001
0000
,
1000
0000
0000
0010
0000
0000
1000
0000
0100
0000
0000
0001
0000
0000
1000
0000
,
0010
0000
0000
0100
0000
0000
0010
0000
1000
0000
0000
0001
0000
0000
1000
0000
,
0010
0001
1000
0100
0000
0000
0001
0000
0000
1000
0000
0000
,
0010
0100
0010
0000
0001
0000
1000
0000
,
0010
1001
0010
1000
,
0010
1000
0010
0000
0100
0000
0010
0000
,
0001
0000
1001
0000
0010
1000
0010
0000
,
0001
0010
0001
0000
0100
1000
0100
0000
,
0010
1001
0010
1000
,
0100
0010
0100
0000
0001
0000
1000
0000
,
0001
1000
0001
0000
2002
0000
0000
0000
,
0000
0000
0000
0000
0000
0000
3003
0000
0001
0000
0000
1000
0000
0000
0010
0000
,
0100
0000
0000
0001
0000
0000
1000
0000
0010
0000
0000
0100
0000
0000
0010
0000
,
1000
0000
0000
0001
0000
0000
1000
0000
0010
0000
0000
0100
0000
0000
1000
0000
,
0010
0000
0000
1000
0000
0000
0001
0000
0010
0000
0000
0100
0000
0000
1000
0000
,
0001
0000
0000
0000
0000
0000
0000
0000
0010
0000
0000
0000
0000
0000
0000
0000
0100
0000
0000
0000
0000
0000
0000
0000
1000
0000
0000
0000
0000
0000
0000
0000
0000
0010
0000
0000
0000
0000
0000
0000
0000
0000
0100
0000
0000
0000
0000
0000
,
0010
0000
0000
0001
0000
0000
1000
0000
0100
0000
0000
1000
0000
0000
0001
0000
,
1000
0000
0001
0000
1000
0000
0000
0000
0010
0000
0000
1000
0000
0000
0100
0000
,
0001
0000
0000
0010
0000
0000
1000
0000
0001
0000
0000
0100
0000
0000
1000
0000
,
0002
0000
2000
0000
0000
3003
0000
0000
1000
0000
0000
0010
0000
0000
0100
0000
,
1000
0000
0000
0001
0000
0000
1000
0000
0010
0000
0000
1000
0000
0000
0010
0000
,
0100
0000
0000
0001
0000
0000
1000
0000
0010
0000
0000
0100
0000
0000
1000
0000
,
0001
0000
0000
0010
0000
0000
1000
0000
0001
0000
0000
0100
0000
0000
1000
0000
,
0001
0000
0000
0000
0010
0000
0000
0000
0100
0000
0000
0000
1000
0000
0000
0000
0000
0000
0000
0000
0000
0000
0000
0000
1000
0000
0000
0000
0000
0000
0000
0000
0000
0010
0000
0000
0000
0000
0000
0000
0000
0000
0100
0000
0000
0000
0000
0000
,
1000
0000
0000
0001
0000
0000
0100
0000
1000
0000
0000
0001
0000
0000
1000
0000
,
0010
0000
0000
0100
0000
0000
0000
0000
0001
0000
0000
1000
0000
0000
0010
0000
,
0100
0000
0000
1000
0000
0000
0001
0000
0200
0000
0000
0000
0310
0000
0100
0010
,
0100
0001
0100
0001
0000
0000
0001
0000
0000
1000
0000
0000
,
0010
0000
0000
0100
0000
0000
0001
0000
1000
0000
0000
0000
0010
0000
0000
0000
,
0100
0010
0100
0000
0001
0000
1000
0000
,
0010
0001
1000
0000
0001
0000
1000
0000
,
0010
0100
0010
0000
2002
0000
0000
0000
,
0000
0000
0000
0000
,
0000
3003
0000
0000
;

//--------------- dance-single - XLev450X-ESP ----------------
#NOTES:
     dance-single:
     XLev450X:
     Hard:
     14:
     0,0,0,0,0:
0000
0000
0000
0000
,
0000
0000
0000
0000
,
0000
0000
0000
0000
,
0000
0000
0000
0000
,
0000
0000
0001
1000
,
0010
0000
1000
0000
0001
1000
0010
0000
,
0001
0010
0001
0000
1000
0000
0100
0000
,
0010
0100
0010
0000
0001
0000
1000
0000
,
0010
1000
0100
0001
0010
0000
1000
0000
,
0001
1000
0001
0000
0100
0000
1000
0000
,
0010
1000
0100
0010
0001
0000
0100
0000
,
1000
0001
1000
0100
0020
0000
0000
0000
,
0000
0000
0200
0330
0001
0000
1000
0000
,
0010
0100
1000
0000
0001
0010
1000
0000
,
0100
0010
0100
0000
0001
0000
0100
0000
,
1000
0001
1000
0000
0010
1000
0100
0010
,
0001
0100
1000
0000
0010
0000
1000
0000
,
0010
0000
0100
0001
1000
0000
0001
0010
,
0100
1000
0001
0000
0010
0000
1000
0000
,
0010
0100
0010
0000
0001
0000
1000
0000
,
0001
1000
0001
0000
0010
0000
1000
0000
,
0010
0000
0000
0100
0000
0000
0010
0000
0001
0000
0000
0000
1000
0000
0000
0000
,
0001
0000
0000
1000
0000
0000
0001
0000
0100
0000
0000
0000
0010
0000
0000
0000
,
1000
0000
0000
0001
0000
0000
0100
0000
0020
0000
0000
0000
0100
0000
0000
0000
,
0100
0130
0001
1000
,
0010
0000
0100
0000
0010
0001
0010
0100
,
1000
0010
1000
0000
0001
1000
0001
1000
,
0010
0000
1000
0000
0010
0000
0000
0000
0001
0000
0010
0001
0010
0000
1000
0000
,
0010
0100
1000
0000
0001
1000
0010
1000
,
0010
0000
1000
0010
1000
0000
0010
0000
0100
0000
0001
0000
0100
0000
1000
0000
,
0001
0000
1000
0001
1000
0000
0001
0000
1000
0000
0010
0000
0100
0000
1000
0000
,
0001
0000
1000
0001
1000
0000
0010
0000
1000
0000
0001
0000
0100
0000
1000
0000
,
0001
0000
0000
0000
0010
0000
0000
0000
0100
0000
0000
0000
1000
0000
0000
0000
0000
0000
0000
0000
0000
0000
0000
0000
0001
0000
0000
0000
0000
0000
0000
0000
0000
1000
0000
0000
0000
0000
0000
0000
0000
0000
0010
0000
0000
0000
0000
0000
,
0100
0000
0000
0001
0000
0000
1000
0000
0010
0000
0000
0100
0000
0000
1000
0000
,
0001
0000
0000
0100
0000
0000
1000
0000
0010
0000
0000
0100
0000
0000
0010
0000
,
0001
0000
0000
0000
0000
0000
0000
0000
0000
0100
0000
0000
0000
0000
0000
0000
0000
0000
1000
0000
0000
0000
0000
0000
0001
0000
0000
0000
0010
0000
0000
0000
0100
0000
0000
0000
1000
0000
0000
0000
0100
0000
0000
0000
0010
0000
0000
0000
,
0001
0000
0000
0000
0010
0000
0000
0000
0100
0000
0000
0000
1000
0000
0000
0001
0000
0000
1000
0000
0000
0001
0000
0000
1000
0000
0000
0000
0000
0000
0000
0000
0000
0001
0000
0000
0000
0000
0000
0000
0000
0000
1000
0000
0000
0000
0000
0000
,
0010
0000
0000
0100
0000
0000
1000
0000
0001
0000
0000
0100
0000
0000
1000
0000
,
0010
0000
0000
0100
0000
0000
0010
0000
0001
0000
0000
0100
0000
0000
1000
0000
,
0010
0000
0000
0100
0000
0000
0010
0000
0001
0000
1000
0000
0010
0000
0100
0000
,
0001
1000
0001
0000
0010
0000
1000
0000
0010
0000
0000
0000
1000
0000
0000
0000
,
0001
0000
0100
1000
0001
0000
0010
0000
,
1000
0010
0100
0001
0010
0000
1000
0000
,
0100
1000
0100
0001
1000
0010
1000
0001
,
1000
0000
0001
1000
0001
0000
0010
0000
1000
0000
0010
0000
0100
0000
0000
0000
,
0010
0001
0010
0000
0100
1000
0100
0000
,
0001
1000
0001
0000
0010
1000
0100
0010
,
0010
0100
0010
0000
1000
0000
0000
0000
0001
0000
0000
0000
1000
0000
0000
0000
,
0010
0100
0010
0000
0001
0000
1000
0000
,
0001
1000
0001
0000
0010
1000
0100
0010
,
0001
1000
0001
0000
0010
1000
0100
0010
,
0001
0000
0010
0001
0010
0000
0000
0000
1000
0000
0001
0000
0100
0000
0000
0000
,
0001
1000
0010
0000
1000
0100
0010
1000
,
0001
0000
1000
0001
1000
0000
0000
0000
0010
0000
1000
0000
0100
0000
0010
0000
,
0001
1000
0010
0000
0100
1000
0100
0000
,
0001
0010
1000
0000
0001
1000
0010
0100
,
0010
0000
1000
0010
1000
0000
0010
0000
0001
0000
0100
0000
1000
0000
0001
0000
,
0010
0000
1000
0000
0001
0000
0000
0000
0001
0000
0000
1000
0000
0000
0010
0000
,
0100
0000
0000
0001
0000
0000
1000
0010
0000
0000
0001
0000
0000
1000
0000
0000
,
0010
0000
0000
0100
0000
0000
1000
0000
0001
0000
0000
0010
0000
0000
0100
0000
,
1000
0000
0000
0001
0000
0000
0010
0000
1000
0000
0000
0100
0000
0000
0010
0000
,
0001
0000
0000
1000
0000
0000
0000
0000
0001
0000
0000
1000
0000
0000
0010
0000
,
0100
0000
0000
0010
0000
0000
0001
0000
1000
0000
0000
0100
0000
0000
1000
0000
,
0001
0000
0000
0010
0000
0000
0000
0000
1000
0000
0000
0010
0000
0000
0100
0000
,
0001
0000
0000
0010
0000
0000
1000
0000
0010
0000
0000
0000
0100
0000
0001
1000
,
0001
0010
0100
1000
0000
0000
0001
0000
0000
1000
0000
0000
,
0010
0000
0000
0100
0000
0000
0001
0000
1000
0000
0000
0000
0010
0000
0000
0000
,
0100
0000
0000
1000
0000
0000
0001
0000
0100
0000
0000
0000
0010
0000
0000
0000
,
1000
0000
0000
0001
0000
0000
0100
0000
0010
0000
0000
0000
1000
0000
0000
0000
,
0001
1000
0001
0000
2002
0000
0000
0000
,
0000
0000
0000
0000
,
0000
3003
0000
0000
;
