#TITLE:Eh, Eh (Nothing Else I Can Say);
#ARTIST:Lady Gaga;
#GENRE:POP;
#MUSIC:Eh, Eh (Nothing Else I Can Say).ogg;
#BANNER:Eh, Eh (Nothing Else I Can Say).png;
#BACKGROUND:Eh, Eh (Nothing Else I Can Say)-bg.png;
#SAMPLESTART:47.093;
#SAMPLELENGTH:15;
#OFFSET:0.460;
#BPMS:0=94;
#BGSTAGE:4;
#BGCHANGES:0.000=Eh, Eh (Nothing Else I Can Say).avi=1.000=0=0=1,
99999.000=-nosongbg-=1.000=0=0=0=StretchNoLoop====
;

//--------------- dance-single - XLev450X-bSP ----------------
#NOTES:
     dance-single:
     XLev450X:
     Beginner:
     1:
     0,0,0,0,0:
0000
0000
0000
0000
,
0000
0000
0000
0000
,
0000
0000
0000
0000
,
0000
0000
0000
0000
,
0000
0000
0000
0000
,
0000
0001
0000
0000
,
0000
1000
0000
0000
,
0000
0010
0000
0000
,
0000
0100
0000
0000
,
0000
0001
0000
0001
,
0000
0001
0000
0000
,
0000
1000
0000
1000
,
0000
1000
0000
0000
,
0000
0010
0000
0100
,
0000
0010
0000
0000
,
0000
0001
0000
1000
,
0000
0010
0000
0100
,
0000
0010
0000
0000
,
0000
1001
0000
0000
,
0000
0001
0000
0100
,
0000
1000
0000
0000
,
0000
0001
0000
0100
,
0000
0010
0000
0000
,
0000
1000
0000
0010
,
0000
0100
0000
0000
,
0000
0001
0000
0100
,
0000
1000
0000
0000
,
0000
0010
0000
0100
,
0000
1000
0000
0001
,
0000
0100
0000
0000
,
0000
0010
0000
0001
,
0000
0100
0000
0010
,
0000
1000
0000
0000
,
0000
0001
0000
1000
,
0000
0010
0000
0100
,
0000
0010
0000
0000
,
0000
1001
0000
0000
,
0000
0001
0000
1000
,
0000
0001
0000
0000
,
0000
1000
0000
0010
,
0000
0100
0000
0000
,
0000
0001
0000
0010
,
0000
0001
0000
0000
,
0000
1000
0000
0100
,
0000
1000
0000
0000
,
0000
0110
0000
0000
;

//--------------- dance-single - XLev450X-BSP ----------------
#NOTES:
     dance-single:
     XLev450X:
     Easy:
     3:
     0,0,0,0,0:
0000
0000
0000
0000
,
0000
0000
0000
0000
,
0000
0000
0000
0000
,
0000
0000
0000
0000
,
0000
0000
0000
0000
,
0000
1001
0000
1000
,
0010
1000
0000
0000
,
0000
1001
0000
0010
,
0100
0010
0000
0000
,
0000
0001
1000
0001
,
0000
0010
1000
0010
,
0000
0100
0000
0001
,
0000
1000
0100
1000
,
0000
0010
0001
0010
,
0000
0100
0000
0001
,
0000
1000
0010
1000
,
0001
0100
0010
1000
,
0001
0100
1001
0000
,
0000
0110
0000
0010
,
0010
1000
0000
0001
,
0100
0001
0000
1000
,
0100
1000
0000
0010
,
1000
0010
0000
0100
,
0001
0100
0000
1000
,
0001
1000
0000
0010
,
0100
0010
1000
0001
,
0100
2002
0000
3003
,
0000
0001
0001
1000
,
0010
1000
0010
0100
,
0001
0010
0000
1000
,
0000
1000
0001
0100
,
0000
0010
1000
0010
,
0100
0001
0000
0100
,
0000
0010
0001
0100
,
0000
1000
0001
1000
,
0000
0101
0000
1010
,
0000
0110
0000
0001
,
1000
0001
0000
1000
,
0100
1000
0000
0010
,
0100
0010
0000
0001
,
0010
0001
0000
1000
,
0001
0100
0000
1000
,
0010
0100
0000
0001
,
1000
0010
0000
0100
,
0010
0100
0000
0000
,
0000
0101
0000
0000
,
0000
1010
0000
0000
,
0000
1001
0000
0000
;

//--------------- dance-single - XLev450X-DSP ----------------
#NOTES:
     dance-single:
     XLev450X:
     Medium:
     6:
     0,0,0,0,0:
0000
0000
0000
0000
,
0000
0000
0000
0000
,
0000
0000
0000
0000
,
0000
0000
0000
0000
,
0000
0000
0000
0000
,
0000
1000
0001
1000
,
0010
0000
0100
0010
0001
0000
1000
0010
,
0100
1000
0001
0000
0100
0000
0001
0010
,
1000
0001
1000
0010
,
1000
0000
0010
1000
0010
0000
0100
0000
,
0011
0000
1000
0001
0100
0010
1000
0000
,
0010
1000
0010
0000
0000
0000
0101
0000
,
0000
0000
0010
1000
0010
0000
0100
1000
,
0100
0000
0010
1000
0001
0100
0010
0000
,
1000
0001
0100
1000
,
0010
0000
0100
0001
1000
0010
1000
0000
,
0000
0000
0100
0001
1000
0001
0100
0000
,
0000
0000
0010
0001
0010
0000
0100
1000
,
0010
0100
0000
1000
,
0001
0000
0000
1000
0001
0100
0000
0010
,
1000
0010
0000
0101
0000
1010
0010
1000
,
0001
0000
0000
1000
0010
1000
0000
0001
,
0100
0001
0000
0000
1000
0000
0001
0000
,
0100
0000
0010
1000
0010
0000
0010
0100
,
0010
0001
1000
0001
,
0000
0000
1000
0000
0010
0100
0001
0000
,
1000
0010
0200
0000
0300
0000
0000
0000
,
0000
0000
1000
0000
0001
0000
1000
0010
,
1000
0100
1000
0010
,
0100
0000
0000
0010
1000
0001
0000
0100
,
1000
0001
0100
0000
0010
0000
1000
0000
,
0100
0000
0001
0010
1000
0000
0100
0010
,
1000
0010
0100
0001
,
1000
0000
0101
0000
1010
0000
0000
1000
,
0001
0000
0100
0000
0010
0000
1000
0010
,
0100
0001
1000
0000
,
0010
1000
0000
0100
,
0010
0000
1000
0001
0100
0000
0010
0001
,
0010
1000
0010
0100
,
0000
0000
0000
1000
0001
0000
0100
0000
,
0010
0000
1000
0001
0100
0000
0010
0000
,
1000
0000
0000
0010
0100
0001
0000
0100
,
1000
0100
0000
0010
1000
0001
0100
0000
,
0010
0000
0000
1000
0001
0100
0000
0010
,
1000
0001
0200
0000
0000
0000
0300
0000
,
0000
0000
1000
0001
0100
0000
1000
0010
,
1000
0000
0001
0000
0100
0000
1000
0001
,
0100
0010
1001
0000
0000
0000
0000
0000
;

//--------------- dance-single - XLev450X-ESP ----------------
#NOTES:
     dance-single:
     XLev450X:
     Hard:
     9:
     0,0,0,0,0:
0000
0000
0000
0000
,
0000
0000
0000
0000
,
0000
0000
0000
0000
,
0000
0000
0000
0000
,
0000
0000
0000
0000
,
0000
0000
0000
1000
0001
0100
0000
0010
,
0001
0010
0000
1000
0001
0100
0010
1000
,
0001
0100
0000
0010
1000
0001
0000
0100
,
1000
0010
0000
0100
0001
1000
0010
0100
,
0001
1000
0001
0000
1000
0000
0010
1000
,
0010
0000
0100
0000
0001
0000
0100
0010
,
1000
0001
0100
0000
0000
0001
1000
0000
,
0000
0010
0100
0001
1000
0010
0100
1000
,
0001
0000
0100
0001
1000
0010
1000
0000
,
0001
0000
0100
1000
0010
0000
0000
0000
1000
0000
0001
0000
0100
0000
0000
0000
,
0001
1000
0010
1000
0001
0100
0010
1000
,
0001
0000
0000
0000
0100
0000
1000
0100
0001
0000
0010
0000
0100
0000
0001
0000
,
1000
0000
0001
0100
0020
0000
0000
0000
,
0030
0000
1000
0000
0002
0000
0000
0000
0003
0000
0100
0000
1000
0100
0001
0000
,
0100
0001
0010
0000
1000
0001
1000
0000
,
0010
0000
1000
0000
0001
0000
0100
0000
0010
0000
1000
0000
0001
0010
0100
0000
,
1000
0010
0000
0100
0001
1000
0000
0001
,
0100
0000
0010
0000
1000
0000
0000
0000
0001
0000
0000
0100
0000
0000
1000
0000
,
0001
0100
0010
1000
0001
0010
0000
1000
,
0100
1000
0001
0000
0100
0000
0010
0001
,
1000
0010
0100
0000
0001
0000
1000
0010
,
0100
0000
0101
0000
1010
0000
0010
1000
,
0010
1000
0001
0000
0100
0000
0001
1000
,
0001
0100
0010
1000
0001
0010
1000
0000
,
0001
0100
0010
0000
1000
0010
1000
0000
,
0100
0001
0100
1000
0001
0010
1000
0000
,
0100
0000
1000
0001
1000
0010
1000
0000
,
0100
0000
0001
0010
0001
0000
0100
1000
,
0010
0000
1000
0000
0010
0000
1000
0001
,
0100
0010
1000
0000
0001
0000
0100
0010
,
1000
0000
0010
0100
0001
0000
1000
0000
,
0001
0000
1000
0000
0200
0000
0000
0000
0300
0000
1000
0000
0010
0001
0100
0000
,
0001
1000
0010
0000
0000
1000
0001
1000
,
0010
0000
0000
0000
1000
0000
0001
0000
0100
0000
0010
0000
1000
0100
0001
0000
,
0100
0010
0000
1000
0001
0100
0000
0010
,
1000
0000
0001
0000
0000
0000
1000
0000
0100
0000
0000
0001
0000
0000
1000
0000
,
0001
0010
0200
0000
0300
0001
1000
0010
,
1000
0000
0010
0001
0100
0010
1000
0000
,
0001
0000
0100
0010
1000
0000
0010
0100
,
0001
1000
0001
0000
0100
0000
1000
0010
,
1000
0001
0100
0000
0000
1000
0002
0000
,
0003
0000
0010
0000
2000
0000
0000
0000
0000
0000
3000
0000
0100
0010
0001
0000
,
1000
0010
1001
0000
0000
0000
0000
0000
;
