#TITLE:EZ DO DANCE;
#ARTIST:Remixed by kors k;
#GENRE:IIDX EDITON;
#MUSIC:EZ DO DANCE.ogg;
#BANNER:EZ DO DANCE.png;
#BACKGROUND:EZ DO DANCE-bg.png;
#CDTITLE:./CDTitles/bm IIDX 30 RESIDENT.png;
#SAMPLESTART:73.993;
#SAMPLELENGTH:15;
#SELECTABLE:YES;
#OFFSET:-0.203;
#BPMS:0.000=147.987;
#DISPLAYBPM:147;
#BGSTAGE:2;

//--------------- dance-single - XLev450X-bSP ----------------
#NOTES:
     dance-single:
     XLev450X:
     Beginner:
     2:
     0,0,0,0,0:
0000
0000
0000
0000
,
0000
0000
0000
0000
,
0000
0000
0000
0000
,
0000
0000
0000
0000
,
0000
0000
0000
0000
,
0000
0000
1000
0000
,
0000
0000
0001
0000
,
0000
0000
1000
0000
,
0000
0000
2002
0000
,
0000
3003
1000
0000
,
0000
0000
0001
0000
,
0000
0000
0010
0000
,
0000
0000
0100
0000
,
0000
0000
0100
0000
,
0000
0000
0010
0000
,
0000
0000
0100
0000
,
0000
0000
0010
0000
,
0000
0000
1000
0000
,
0000
0000
1000
0000
,
0000
0000
0001
0000
,
0000
0000
0001
0000
,
0000
0000
0100
0000
,
0000
0000
0100
0000
,
0000
0000
0010
0000
,
0000
0000
0010
0000
,
0000
0000
0001
0000
,
0001
0000
0001
0000
,
0000
0000
1000
0000
,
1000
0000
1000
0000
,
0000
0000
0010
0000
,
0010
0000
0010
0000
,
0000
0000
0100
0000
,
0100
0000
0100
0000
,
0000
0000
1000
0000
,
0000
0000
0001
0000
,
0000
0000
1001
0000
,
0000
0000
1001
0000
,
0000
0000
0100
0000
,
0000
0000
0010
0000
,
0000
0000
1001
0000
,
0000
0000
1001
0000
,
0000
0000
0001
0000
,
0000
0000
1000
0000
,
0000
0000
0010
0000
,
0000
0000
0200
0000
,
0300
0000
0100
0000
,
0100
0000
0100
0000
,
0000
0000
0010
0000
,
0010
0000
0010
0000
,
0000
0000
1000
0000
,
1000
0000
1000
0000
,
0000
0000
0001
0000
,
0001
0000
0001
0000
,
0000
0000
1001
0000
,
0000
0000
1001
0000
,
0000
0000
1000
0000
,
0000
0000
0001
0000
,
0000
0000
1001
0000
,
0000
0000
1001
0000
,
0000
0000
0100
0000
,
0000
0000
0010
0000
,
0000
0000
0010
0000
,
0000
0000
1000
0000
,
0000
0000
0001
0000
,
0000
0000
0100
0000
,
0000
0000
0001
0001
,
0001
0000
1000
0000
,
0000
0000
0010
0000
,
0000
0000
0100
0100
,
0100
0000
2002
0000
,
0000
3003
0000
0000
;

//--------------- dance-single - XLev450X-BSP ----------------
#NOTES:
     dance-single:
     XLev450X:
     Easy:
     5:
     0,0,0,0,0:
0000
0000
0000
0000
,
0000
0000
0000
0000
,
0000
0000
0000
0000
,
0000
0000
0000
0000
,
0000
0000
0000
0000
,
0000
0000
1000
0000
,
1000
0000
0001
0000
,
0001
0000
0100
0010
,
0100
0000
2002
0000
,
0000
0000
0000
3003
0010
0000
0000
0000
,
0010
0000
0001
0010
,
0001
0000
0001
0000
,
0010
0000
1000
0001
,
1000
0000
0100
0000
,
1000
0000
0010
1000
,
0001
0000
0100
0000
,
0010
0000
0020
0000
,
0000
0000
0130
0000
,
0001
1000
0001
0000
,
0100
0000
0010
0000
,
1000
0100
0010
0000
,
0010
0000
0100
0000
,
1000
0001
1000
0000
,
0100
0000
0100
0000
,
0001
0100
0010
0000
,
0100
0000
0010
0000
,
0001
1000
0001
0000
,
0010
0000
0010
0000
,
1000
0010
0100
0000
,
0010
0000
0010
0000
,
1000
0001
1000
0000
,
0010
0000
0010
0000
,
0001
0010
0100
0000
,
1000
0000
0002
0000
,
0000
1003
2000
0000
,
0000
3001
0100
0000
,
0010
0000
1000
0001
,
1000
0000
0010
0000
,
0100
0000
0001
1000
,
0001
0000
0010
0000
,
0100
0000
1000
0001
,
1001
0000
1000
0000
,
0001
0000
1000
0001
,
0100
0000
0010
0000
,
0100
0000
0220
0000
,
0000
0330
0100
0000
,
0001
1000
0100
0000
,
1000
1001
0100
0000
,
0010
0000
0100
0000
,
0010
1001
0100
0000
,
1000
0001
0010
0000
,
1000
1001
0010
0000
,
0100
0000
0010
0000
,
0100
1001
1000
0000
,
1000
1001
0001
0000
,
0001
1001
0100
0000
,
0001
0000
0010
0001
,
1000
0000
0001
0000
,
0001
1001
1000
0000
,
1000
1001
0001
0001
,
1000
1000
0001
1000
,
0001
1000
0001
0000
,
0100
0000
1000
0100
,
0010
0000
0001
0000
,
0100
0000
0010
1000
,
0001
0000
0100
0000
,
0001
0000
1000
0010
,
1000
0000
0010
0000
,
0100
0000
0010
0001
,
0010
0000
2002
0000
,
0000
3003
0000
0000
;

//--------------- dance-single - XLev450X-DSP ----------------
#NOTES:
     dance-single:
     XLev450X:
     Medium:
     8:
     0,0,0,0,0:
0000
0000
0000
0000
,
0000
0000
0000
0000
,
0000
0000
0000
0000
,
0000
0000
0000
0000
,
0000
0000
0000
0000
,
0000
0000
1000
0001
,
0100
0001
0100
0000
0010
0000
1000
0000
,
0010
1000
0010
0000
0100
0000
0001
0000
,
1000
0000
0010
0100
0020
0000
0000
0000
,
0000
0000
0000
0030
0001
0000
1000
0000
,
0001
0000
0100
0010
,
0001
0010
0001
0000
1000
0000
0010
0000
,
1000
0000
0010
0100
,
0010
0100
0010
0000
0100
0000
0001
0000
,
1000
0000
1000
0100
,
0010
0000
0100
0001
,
1000
0000
0200
0000
,
0000
0000
0301
0100
,
0100
0001
0010
0000
0100
0000
1000
0000
,
0100
1000
0010
0000
0100
0000
0010
0000
,
0100
0010
0100
0000
0010
0000
0100
0000
,
0010
0000
1000
0010
,
0010
1000
0100
0000
0010
0000
0001
0000
,
0010
0001
0100
0000
0010
0000
0100
0000
,
0010
0100
0010
0000
0100
0000
0010
0000
,
0100
0000
1000
1000
,
0001
0010
1000
0000
0001
0000
0001
0000
,
1000
0010
0001
0000
0100
0000
0010
0000
,
1000
0001
0010
0001
,
0100
0000
0001
0001
,
1000
0010
0001
0000
1000
0000
1000
0000
,
0001
0010
1000
0000
0100
0000
0010
0000
,
0001
1000
0010
1000
,
0010
0000
0002
0000
,
0003
0010
2000
0000
,
3000
0010
1000
1000
,
0001
0001
0100
0010
,
0100
0000
0000
0000
0002
0000
0000
1003
,
2000
0000
0000
3001
0010
0000
0100
0000
,
0010
0001
0100
0001
,
1000
0010
0100
0001
,
0010
1000
0001
1000
,
0010
0000
0100
0000
1000
0100
1000
0000
,
0001
0100
0001
0000
0010
0000
0100
0000
,
0010
0100
2002
0000
,
0000
3003
0001
1000
,
0001
1000
0010
0000
0100
0000
0010
0000
,
0001
1001
1000
0001
,
1000
0001
0010
0000
0100
0000
0010
0000
,
1000
1001
0001
1000
,
0001
1000
0100
0000
0010
0000
0100
0000
,
0001
1001
1000
0001
,
1000
0001
0100
0000
0010
0000
0100
0000
,
1000
0000
1001
0000
0200
0000
0000
0301
,
0100
0000
0101
0000
0020
0000
0000
1030
,
0010
1010
1000
0100
,
0100
0010
0010
0001
,
0001
0000
1001
0000
0020
0000
0000
1030
,
0010
0000
1010
0000
0200
0000
0000
0301
,
0100
0101
0001
0010
,
0010
0100
0100
1000
,
1000
0010
1000
0001
,
0100
0010
1000
0001
,
1000
0000
0010
0100
,
0010
0000
0001
0000
0100
1000
0100
0000
,
0001
0100
0001
0000
0010
0000
1000
0000
,
0010
0000
0001
0100
,
0010
0000
1000
0001
,
1000
0000
0010
0000
0010
1000
0010
0000
,
0100
1000
0001
1000
0220
0000
0000
0000
,
0000
0330
0000
0000
;

//--------------- dance-single - XLev450X-ESP ----------------
#NOTES:
     dance-single:
     XLev450X:
     Hard:
     11:
     0,0,0,0,0:
0000
0000
0000
0000
,
0000
0000
0000
0000
,
0000
0000
0000
0000
,
0000
0000
0000
0000
,
0000
0000
0000
0000
,
0000
0000
1000
0001
,
0100
0010
0100
0000
1000
0000
0010
0000
,
0100
0000
1000
0000
0100
0000
0001
0000
1000
0000
0000
0001
0000
0000
0100
0000
,
0000
0010
0000
0000
1000
0000
0100
0001
0200
0000
0000
0000
0000
0000
0000
0000
,
0000
0000
0000
0000
0000
0000
0000
0300
0001
0000
0000
0000
1000
0000
0000
0000
,
0010
0001
0010
0000
1000
0000
0001
0000
,
0010
1000
0001
1000
0001
0000
1000
0000
,
0010
0100
0010
0000
1000
0000
0001
0000
,
0100
0000
0010
1000
0100
0000
0001
0000
1000
0000
0000
0000
0100
0000
0000
0000
,
0001
0100
1000
0100
,
0001
0000
0100
0000
1000
0100
0001
0000
,
1000
0100
0001
0000
2000
0001
0001
0001
,
0000
0000
0000
0000
0000
0000
0000
0000
3001
0000
0000
0100
0000
0000
0001
0000
,
0000
0000
0001
0000
0010
0000
0100
0000
1000
0000
0000
0100
0000
0000
1000
0000
,
0000
0000
1000
0000
0100
0000
0010
0000
0001
0000
0000
0010
0000
0000
0100
0000
,
0000
0000
0010
0000
0100
0000
0010
0000
0001
0000
0000
0100
0000
0000
0010
0000
,
0100
0000
0000
0000
1001
0000
0000
0000
1000
0000
0000
0010
0000
0000
1000
0000
,
0000
0000
1000
0000
0100
0000
0010
0000
0001
0000
0000
0010
0000
0000
0001
0000
,
0000
0000
0001
0000
0010
0000
0100
0000
1000
0000
0000
0100
0000
0000
0010
0000
,
0000
0000
0100
0000
0010
0000
0100
0000
1000
0000
0000
0010
0000
0000
0100
0000
,
0010
0000
0000
0000
1001
0000
0000
0000
0010
0000
0000
1000
0000
0000
0100
0000
,
0000
0000
0010
0000
0001
0000
0100
0000
1000
0000
0000
0100
0000
0000
0001
0000
,
0000
0000
1000
0000
0010
0000
0100
0000
1000
0000
0000
0100
0000
0000
0001
0000
,
0000
0000
0100
0000
0001
0000
0010
0000
1000
0000
0000
0010
0000
0000
0100
0000
,
0010
0000
0000
0000
1001
0000
0000
0000
0100
0000
0000
0001
0000
0000
0010
0000
,
0000
0000
0100
0000
1000
0000
0010
0000
0001
0000
0000
0010
0000
0000
1000
0000
,
0000
0000
0001
0000
0100
0000
0010
0000
0001
0000
0000
0010
0000
0000
1000
0000
,
0000
0000
0010
0000
1000
0000
0100
0000
0001
0000
0000
0100
0000
0000
0010
0000
,
0100
1001
0012
1000
,
0103
0101
2010
0001
,
3100
1100
0001
0001
,
1000
0000
0000
0000
1000
0000
0000
0000
0010
0000
0000
0100
0000
0000
0010
0000
,
0100
0110
1000
1000
,
0001
0000
0001
0000
0010
0000
0100
0100
,
0010
0110
0001
0010
,
1000
0100
0001
0010
,
0200
0000
0000
0000
0310
0001
0010
0000
,
1000
0000
0010
0000
1000
0000
0000
0000
0001
0000
0000
0100
0000
0000
0010
0000
,
0000
1000
0000
0000
0001
0000
0100
0000
1000
0000
0000
0000
0001
0000
0000
0000
,
0100
0000
0010
0000
0100
0000
0000
0000
0001
0000
0000
1000
0000
0000
0010
0000
,
0200
0000
0000
0000
0000
0000
0000
0300
0001
0000
0000
0000
0100
0000
0000
0000
,
0010
1000
0100
0000
0010
0001
0100
0001
,
0010
1001
1000
0100
,
0010
0001
0100
0000
0010
1000
0100
1000
,
0010
1001
1000
0010
,
0100
0001
0010
0000
0100
1000
0010
1000
,
0100
0110
0001
0010
,
0100
1000
0010
0000
0100
0001
0010
0001
,
0100
0000
0000
0000
0110
0000
0000
0000
0010
0000
0000
1000
0000
0000
0100
0000
,
0010
0000
0000
0000
1001
0000
0000
0000
0010
0000
0000
0001
0000
0000
0100
0000
,
0010
0000
1001
0000
1000
0010
0001
0000
,
0010
0100
0010
0000
0001
0010
1000
0000
,
0100
0000
0000
0000
1001
0000
0000
0000
0100
0000
0000
1000
0000
0000
0010
0000
,
0100
0000
0000
0000
1001
0000
0000
0000
0100
0000
0000
0001
0000
0000
0010
0000
,
0100
0000
1001
0000
1000
0001
0010
0000
,
0001
1000
0100
0000
1000
0100
0010
0000
,
0001
0100
0010
0000
0001
0000
1000
0000
,
0010
0001
0010
0000
1000
0010
0100
0001
,
0010
0000
1000
0000
0001
1000
0001
0000
,
0100
0000
0010
0000
0100
0000
0000
0000
0001
0000
0000
1000
0000
0000
0001
0000
,
0100
0000
0220
0330
0001
0000
1000
0000
,
0001
0100
0010
0001
1000
0000
0010
0000
,
0100
0010
1000
0000
0001
0000
0100
0000
,
0010
0000
0001
0000
0010
0000
0000
0000
1000
0000
0000
0001
0000
0000
0100
0000
,
0010
0000
0000
1000
0000
0000
0010
0000
2002
0000
0000
0000
0000
0000
0000
0000
,
0000
3003
0000
0000
;
