#TITLE:EXCITE;
#ARTIST:Remixed by BEMANI Sound Team "HuΣeR feat.PON";
#GENRE:IIDX EDITION;
#MUSIC:EXCITE.ogg;
#BANNER:EXCITE.png;
#BACKGROUND:EXCITE-bg.png;
#CDTITLE:./CDTitles/bm IIDX 27 HEROIC VERSE.png;
#SAMPLESTART:55.178;
#SAMPLELENGTH:15;
#OFFSET:-0.310;
#BPMS:0=152;
#BGSTAGE:30;

//--------------- dance-single - XLev450X-bSP ----------------
#NOTES:
     dance-single:
     XLev450X:
     Beginner:
     1:
     0,0,0,0,0:
0000
0000
0000
0000
,
0000
0000
0000
0000
,
0000
0000
0000
0000
,
0000
0000
0000
0000
,
0000
0000
0000
0000
,
0000
0000
0000
0000
,
0000
0000
0000
0000
,
0000
0000
0000
0000
,
0000
0000
0000
0000
,
0000
0000
0000
0000
,
0000
0000
0000
0000
,
0000
0000
0000
0000
,
0000
0000
0000
0000
,
0000
0000
0000
0000
,
0000
0000
0000
0000
,
0000
0000
0000
0000
,
0000
0000
0000
0000
,
0000
0000
0000
1000
,
0000
1000
0000
1000
,
0000
0000
0000
0001
,
0000
0001
0000
0001
,
0000
0000
0000
0100
,
0000
0100
0000
0100
,
0000
0000
0000
0010
,
0000
0010
0000
0010
,
0000
0000
0000
1000
,
0000
0000
0000
0001
,
0000
0000
0000
0100
,
0000
0000
0000
0010
,
0000
0000
0000
1000
,
0000
0001
0000
0100
,
0000
0000
0000
0010
,
0000
0000
0000
0100
,
0000
0000
0000
1001
,
0000
0000
0000
0010
,
0010
0010
0000
0100
,
0000
0001
0000
1000
,
1000
1000
0000
0010
,
0000
0100
0000
0001
,
0001
0001
0000
0010
,
0000
0100
0000
0010
,
0100
0010
0000
0000
,
0000
0000
0000
1000
,
0001
1000
0000
0010
,
0001
0010
0000
0100
,
0000
0010
0000
1000
,
0000
0001
0000
0100
,
1000
0100
0000
0010
,
0001
0010
0000
0010
,
0100
0010
0000
1000
,
0001
1000
0000
1001
,
0000
0000
0000
0110
,
0000
0000
0000
1100
,
0000
0000
0000
0011
,
0000
0000
0000
0010
,
0000
0000
0000
0100
,
0000
0000
0000
0001
,
0000
0000
0000
1000
,
0000
0000
0000
0010
,
0000
0100
0000
0010
,
0000
0000
0000
0001
,
0000
1000
0000
0001
,
0000
0000
0000
0000
,
0000
0000
0000
1001
;

//--------------- dance-single - XLev450X-BSP ----------------
#NOTES:
     dance-single:
     XLev450X:
     Easy:
     4:
     0,0,0,0,0:
0000
0000
0000
0000
,
0000
0000
0000
0000
,
0000
0000
0000
0000
,
0000
0000
0000
0000
,
0000
0000
0000
0000
,
0000
0000
0000
0100
,
0010
1000
0000
0001
,
0100
0010
0000
0001
,
0001
0001
0001
1000
,
1000
0010
0100
1000
,
0010
0100
0001
0000
,
0100
0000
0010
1000
,
0100
1000
0010
0000
,
0001
0000
0100
0010
,
1000
0001
0000
0100
,
0010
0001
0000
1000
,
0010
0100
0001
2002
,
0000
0000
3003
0100
,
0010
1000
0000
0010
,
0001
0100
0000
0010
,
0000
0100
0000
0001
,
1000
0010
0000
0100
,
0100
0100
0100
0000
,
0010
0000
0100
0001
,
0001
0001
0001
0202
,
0000
0000
0303
1000
,
0010
0100
0001
0000
,
0001
0000
1000
0010
,
0100
0001
1000
1100
,
0011
0110
1001
0000
,
0010
0100
0001
0000
,
0100
0000
1000
0010
,
0100
0001
0000
0010
,
0100
1000
0000
2002
,
0000
0000
3003
0010
,
0010
0010
0010
0100
,
0000
0001
0000
1000
,
1000
1000
1000
0100
,
0000
0010
0000
0010
,
0001
0010
0000
0100
,
1000
0100
0000
0010
,
0001
1000
0010
0022
,
0000
0000
0000
0000
0000
0000
0000
0000
0000
0000
0000
0000
0000
0000
0000
0000
0000
0000
0000
0000
0000
0000
0000
0000
0000
0000
0000
0000
0000
0000
0000
0000
0000
0000
0000
0000
0000
0000
0000
0000
0000
0000
0000
0000
0000
0000
0000
0000
0000
0000
0000
0000
0000
0000
0000
0000
0000
0000
0000
0000
0003
0030
0000
0000
0000
0000
0000
0000
0000
0000
0000
0000
0100
0000
0000
0000
0000
0000
0000
0000
0000
0000
0000
0000
0000
0000
0000
0000
0000
0000
0000
0000
0000
0000
0000
0000
,
0010
1000
0000
0010
,
0100
0001
0000
0001
,
0000
1000
0000
0100
,
0010
0001
0000
0010
,
0010
0010
0010
0100
,
1000
0001
0000
0100
,
0100
0100
0100
1000
,
0001
0100
0000
2200
,
3300
0010
0100
0022
,
0033
0100
0010
2002
,
3003
0010
0100
0220
,
0000
0330
0000
0010
,
0001
1000
0000
0010
,
0100
0001
0000
1000
,
0000
0001
0000
0100
,
0010
1000
0000
0010
,
0100
0001
0000
1000
,
0010
0100
0000
0001
,
0000
1000
0000
0010
,
0100
0001
0000
0011
,
0000
1100
0000
2002
,
0000
3003
0000
0000
;

//--------------- dance-single - XLev450X-DSP ----------------
#NOTES:
     dance-single:
     XLev450X:
     Medium:
     10:
     0,0,0,0,0:
0000
0000
0000
0000
,
0000
0000
0000
0000
,
0000
0000
0000
0000
,
0000
0000
0000
0000
,
0000
0000
0000
0000
,
0000
0000
0000
0000
0000
0000
0010
0100
,
0001
1000
0010
0000
0000
0000
0010
0001
,
1000
0010
0100
0000
0000
0000
1000
0001
,
0100
0000
0010
1000
0001
0000
0100
0010
,
0001
1000
0010
0100
0001
0000
0010
0000
,
0001
0000
1000
0010
0100
0000
0001
1000
,
0010
0000
0100
0001
1000
0000
0001
0000
,
1000
0000
0010
0100
0001
0000
1000
0010
,
0001
0000
0100
0000
0010
0000
0000
0000
0001
0000
0000
0000
1000
0000
0000
1000
,
0000
0000
1000
0000
0010
0000
0100
0000
0001
0000
0000
0000
0001
0000
0000
0001
,
0000
0000
0001
0000
1000
0000
0100
0000
0001
0000
0000
0000
0100
0000
0000
0100
,
0000
0100
0001
1000
0010
0000
2002
0000
,
0000
0000
0000
0000
0000
0000
0000
0000
0000
0000
0000
3003
0010
0000
0100
0000
,
0001
0000
0010
1000
0001
0000
0100
0010
,
0001
1000
0010
0000
0201
0000
0300
0000
,
1000
0010
0001
0100
0000
0010
0100
0001
,
1000
0010
0100
0000
0001
0000
1000
0000
,
0010
0100
2001
0100
,
0001
0000
0010
3000
0010
0100
0001
0000
,
1000
0000
0010
0000
1100
0000
0010
0100
,
0001
1000
0000
0010
0100
0000
0010
0100
,
1000
0000
0001
0100
0010
0000
0001
0010
,
0100
0010
1000
0001
0010
0000
0010
0100
,
1000
0000
0001
0100
0010
0000
0011
0000
,
1100
0000
1001
0000
0110
0000
0000
0010
,
0001
1000
0010
0100
0000
0001
0000
0010
,
0100
1000
0001
0000
0100
0000
0001
0000
,
1000
0000
0010
0100
0001
0000
0010
0000
,
1000
0000
0001
0100
0010
0000
2002
0000
,
0000
0000
0000
0000
0000
3003
0010
1000
,
0001
0000
0000
0000
0010
0000
0000
0010
0000
0000
0010
0000
1000
0000
0001
0000
,
0100
0000
0010
1000
0001
0000
0100
0010
,
1000
0000
0001
0000
0010
0000
0000
0010
0000
0000
0010
0000
0001
0000
1000
0000
,
0100
0000
0010
0100
1000
0000
0001
0100
,
0010
0000
1000
0000
0100
0000
0000
0100
0000
0000
0100
0000
0001
0000
1000
0000
,
0010
0100
1000
0001
1000
0000
0100
0000
,
0010
0000
0100
0000
0010
0000
0000
0010
0000
0000
0010
0000
2200
0000
3300
0000
,
0022
0033
2002
3003
0220
0330
0000
0000
,
1001
0000
0000
0010
0100
0001
1000
0010
,
0000
0100
0000
0001
0000
0000
0000
0000
,
2200
3300
0000
0010
0100
0001
1000
0010
,
0000
0001
0000
0100
0000
0000
0010
0100
,
0001
0000
1000
0010
0100
0000
0001
0010
,
1000
0000
0010
0000
0100
0000
0001
1000
,
0100
0000
0010
0100
0001
0000
1000
0000
,
0010
0000
0100
0001
0100
0000
2200
3300
,
0010
0100
0001
0000
1000
0000
0022
0033
,
0000
0100
0001
0100
1000
0000
0202
0303
,
0000
0100
0001
1000
0010
0000
2002
0000
,
0000
0000
0000
0000
3003
0000
0010
0100
,
0001
2000
0010
0000
0001
0000
0100
0000
,
0001
0000
0000
0000
0000
0000
0000
0000
0000
0000
0000
0000
0000
0000
0000
0000
0010
0000
0000
0000
0000
0000
0000
0000
0000
0000
0000
0000
0000
0000
0000
0000
0001
0000
0000
0000
0000
0000
0000
3000
0000
0000
0000
0000
0000
0000
0000
0000
0010
0000
0000
0000
0000
0000
0000
0000
1000
0000
0000
0000
0000
0000
0000
0000
,
0001
0000
0010
0100
0001
0000
0010
1000
,
0001
0100
0010
1000
0001
0000
0100
0010
,
1000
0002
0010
0000
1000
0000
0100
0000
,
0010
0000
0000
0000
0000
0000
0000
0000
0000
0000
0000
0000
0000
0000
0000
0000
0000
0000
0000
0000
0000
0000
0000
0000
1000
0000
0000
0000
0000
0000
0000
0000
0000
0000
0000
0000
0000
0000
0000
0000
0000
0000
0000
0000
0000
0000
0000
0000
0100
0000
0000
0000
0000
0000
0000
0000
0000
0000
0000
0003
0000
0000
0000
0000
0000
0000
0000
0000
0000
0000
0000
0000
0010
0000
0000
0000
0000
0000
0000
0000
0000
0000
0000
0000
0100
0000
0000
0000
0000
0000
0000
0000
0000
0000
0000
0000
,
1000
0000
0001
0100
0010
0000
0001
1000
,
0010
0000
0100
0000
0001
0000
0000
0000
1001
0000
0000
0000
0100
0000
0000
0100
,
0000
0100
0001
0010
0100
1000
0220
0000
,
0000
0330
0000
0000
;

//--------------- dance-single - XLev450X-ESP ----------------
#NOTES:
     dance-single:
     XLev450X:
     Hard:
     14:
     0,0,0,0,0:
0000
0000
0000
0000
,
0000
0000
0000
0000
,
0000
0000
0000
0000
,
0000
0000
0000
0000
,
0000
0000
0000
0000
,
0000
0000
0000
0000
0000
0000
0100
0010
,
1000
0001
0100
0010
0001
0000
0010
1000
,
0001
0100
0010
0001
0100
0000
1000
0010
,
0100
0001
1000
0010
0100
0001
0011
0000
,
1100
0000
0001
0100
0010
1000
0010
0100
,
0001
1000
0010
0100
0001
0000
0010
0100
,
0001
1000
0010
0100
0010
0000
1000
0010
,
0100
0001
1000
0010
0100
0000
1000
0010
,
0100
0000
0001
0000
1000
0010
1000
0000
0110
0000
0000
0000
0100
0000
0000
0100
,
0000
0000
0100
0000
0000
0010
0000
0000
1000
0000
0001
0000
1000
0000
0000
0010
,
0000
0000
0010
0000
0000
0010
0000
0000
1000
0000
0010
0000
0100
0000
0000
0100
,
0000
0000
0100
0000
0000
0100
0000
0000
0010
0000
1000
0000
0011
0000
0000
1001
,
0000
0000
0101
0000
0000
1010
0000
0000
1000
0000
0010
1000
0020
0000
0030
0000
,
0001
0010
0001
0100
1000
0000
1000
0010
0000
0000
0100
0000
0001
0000
1000
0000
,
0010
0000
0100
0000
0022
0000
0000
0033
2200
3300
0000
1000
0200
0000
0300
0000
,
0010
0001
0010
0001
0010
0000
1000
0010
0000
0000
0010
0000
1000
0000
0100
0000
,
0001
0000
0100
0000
0010
0000
0001
0000
1000
0010
0000
0001
0100
0000
0000
0100
,
0000
0000
0100
0000
0010
0000
0000
1000
0010
0000
0100
0000
0001
0000
0010
0000
,
0100
0000
1000
0000
0001
0000
0010
0000
1000
0001
1000
0100
0010
0000
0000
0010
,
0000
0000
0010
0000
1000
0000
0100
0000
0001
0000
0000
0000
0100
0000
0000
0001
,
0000
1000
0010
0100
0002
0003
0010
0100
,
0001
1000
0010
0001
0100
1000
0001
1000
,
0010
0000
0000
0100
0000
0000
0001
0000
0000
1000
0000
0000
0010
0000
0000
0200
0000
0000
0000
0000
0300
0002
0000
0000
,
0000
0003
0100
0001
0010
0100
1001
0000
,
0110
0000
0011
0000
1100
0000
0000
0010
,
0100
0001
1000
0100
0000
0100
0000
0001
,
1000
0000
0010
0000
0100
0000
0000
0000
0010
0000
0100
0000
0100
0000
0000
1000
,
0001
0000
0000
0001
0000
0000
0100
0000
0000
0100
0000
0000
0100
0000
0010
0000
,
1000
0001
0000
0100
0010
0000
1000
0100
,
0022
0000
0033
0000
1000
0000
0001
0000
0220
0330
0000
0000
0010
0000
0100
0000
,
1000
0000
0000
0000
0010
0000
0000
0010
0000
0000
0010
0000
1000
0000
0100
0000
,
0001
0000
1000
0010
0100
0000
0001
1000
,
0100
0000
0001
0000
0010
0000
0000
0010
0000
0000
0010
0000
0001
0000
0100
0000
,
1000
0000
0001
0100
0010
0000
1000
0001
,
0100
0000
0010
0000
1000
0000
0000
1000
0000
0000
1000
0000
0100
0000
0010
0000
,
1000
0001
0100
0010
1000
0000
0010
1000
,
0100
0000
0001
0000
0010
0100
0001
1000
0001
0100
1000
0010
0202
0000
0303
0000
,
2200
0000
3300
0000
0022
0000
0033
0000
2002
0000
3003
0000
0010
0000
0000
1000
,
0001
0100
0010
1000
0001
0100
0001
0010
,
1000
0000
0001
0000
0100
0000
0010
0000
1000
0000
0000
0000
0010
0000
0000
0001
,
0100
0001
1000
0010
0100
0001
1000
0010
,
0100
0001
1000
0010
0100
0000
0010
0001
,
0100
0000
1000
0100
0010
0000
0001
0100
,
0010
1000
0001
0100
0010
0000
1000
0100
,
0010
0000
0001
1000
0010
0000
0100
0001
,
1000
0000
0010
0000
0100
0000
0001
0000
1000
0000
0000
0000
0010
0000
0000
0010
,
0000
0000
0001
0000
1000
0000
0010
0000
0100
0000
0001
0000
1000
0000
0000
1000
,
0010
0000
0100
0000
0001
0000
1000
0000
0010
0000
0100
0000
0001
0000
0000
0001
,
0010
0100
0001
1000
0010
0100
2002
0000
,
0000
0000
0000
0000
3003
0000
0100
0010
,
1000
0001
0100
0010
1000
0000
0001
0100
,
0010
1000
0001
0100
0010
0000
1000
0100
,
0010
0001
1000
0010
0100
0001
0010
1000
,
0001
0100
0010
1000
0001
0000
0100
1000
,
0001
0100
0010
1000
0001
0000
0100
0010
,
1000
0001
0010
0100
0010
1000
0001
1000
,
0010
0010
0100
0001
1000
0010
0100
0010
,
0001
0000
1000
0000
0010
0000
0100
0000
0001
0000
0000
0000
0010
0000
0000
0001
,
0000
0000
0100
0000
0000
1000
0000
0000
0001
0000
0100
0000
2002
0000
0000
0000
,
0000
3003
0000
0000
;
