#TITLE:EROICA;
#ARTIST:BEMANI Sound Team "HERO";
#ARTISTTRANSLIT:HERO;
#GENRE:VERSE;
#MUSIC:EROICA.ogg;
#BANNER:EROICA.png;
#BACKGROUND:EROICA-bg.png;
#CDTITLE:./CDTitles/bm IIDX 27 HEROIC VERSE.png;
#SAMPLESTART:74.400;
#SAMPLELENGTH:15.000;
#SELECTABLE:YES;
#OFFSET:0.000;
#BPMS:0.000=100
,28.000=200
,172.000=100
,196.000=200
,304.000=100;
#DISPLAYBPM:100:200;
#BGCHANGES:0.500=EROICA.avi=1.000=0=0=1;

//--------------- dance-single - XLev450X-bSP ----------------
#NOTES:
     dance-single:
     XLev450X:
     Beginner:
     8:
     0,0,0,0,0:
0000
0000
0000
0000
,
0000
0000
0000
0000
,
0000
0000
0000
0000
,
0000
0000
0000
0000
,
1000
0010
0001
0100
,
0000
0000
1000
0001
,
0100
0010
0000
0001
,
1000
1000
1000
0000
,
0001
0001
0001
0100
,
0010
1000
0001
0100
,
0010
0010
1000
0001
,
0100
0010
1000
0000
,
0001
0100
0010
0001
,
1000
0010
0100
0001
,
1000
0010
0100
0000
,
0001
0010
0000
1000
,
0010
0100
0001
1000
,
0000
0000
0010
0000
0100
0000
0000
0001
,
0000
1000
0010
0100
,
0001
0000
1000
0010
,
0000
0100
0001
0000
,
0010
1000
0000
0010
,
0100
0000
0001
1000
,
0000
0010
0100
0000
,
0001
1000
0010
0100
,
2000
0000
0000
0000
,
0000
3100
0002
0000
,
0003
0000
0200
0000
0000
0000
0000
0300
,
0020
0000
0000
0000
0000
0030
0100
0000
,
0001
1000
0010
0000
,
0100
0000
0001
1000
,
0010
0000
0100
0001
,
0000
1000
0010
0000
,
0100
0001
0000
1000
,
0010
0000
0100
0001
,
0000
0000
0010
0000
1000
0000
0000
0001
,
0000
0100
0000
0010
,
0200
0000
0000
0000
,
0000
0310
0002
0000
,
0000
0003
2000
0000
0000
0000
0000
3000
,
0020
0000
0000
0000
0000
0030
0200
0000
,
0000
0000
0000
0300
0001
0000
0000
0000
,
1000
0000
0010
0100
,
0001
1000
0001
0100
,
0010
0001
1000
0010
,
0100
0001
1000
0000
,
0010
0100
0001
1000
,
0010
0100
0001
1000
,
0010
0100
0010
1001
,
0010
0010
0010
0100
,
0001
1000
0010
1000
,
0001
0100
0010
0000
,
0001
0001
1000
0010
,
0100
0001
1000
0010
,
0100
0001
0000
0000
,
1000
0001
0100
0010
,
1000
0001
0100
0010
,
1000
0001
0000
0000
,
0100
0001
1000
0010
,
0100
0001
1000
0010
,
0100
0001
0000
0000
,
1000
0001
0100
0010
,
0001
0010
0001
1000
,
0010
0100
0001
0000
,
1000
0001
0100
0010
,
1000
0001
0100
0010
,
1000
0010
0000
0000
,
0001
0100
0001
1000
,
0010
0100
0001
1000
,
0010
0100
0000
0000
,
0001
1000
0001
0100
,
0010
1000
0001
0100
,
0010
1000
0000
0000
,
0001
0010
1000
0001
,
0100
0010
1000
0001
,
0100
0010
1000
0000
,
0001
0000
1000
0000
0010
0100
0001
0000
,
1000
0000
0010
0100
0001
0000
1000
0000
,
0010
0100
1000
0000
0001
0000
0010
1000
,
0100
0001
0010
1000
,
0010
0000
0100
0001
2002
0000
0000
0000
,
0000
0000
0000
0000
0000
0000
0000
0000
0000
0000
0000
0000
0000
0000
0000
3003
;

//--------------- dance-single - XLev450X-BSP ----------------
#NOTES:
     dance-single:
     XLev450X:
     Easy:
     12:
     0,0,0,0,0:
0000
0000
0000
0000
,
0000
0000
0000
0000
,
0000
0000
0000
0000
,
0000
0000
0000
0000
,
1000
0010
0100
0000
0001
0100
0010
0000
,
1000
0000
0001
0010
1000
0001
0100
0000
,
0010
0001
1000
0000
0010
0000
0100
0001
,
0010
0000
1000
0001
0100
0000
0010
0000
,
0001
0010
0001
0000
1000
0000
0010
1000
,
0010
0100
0001
1000
,
0010
0000
0100
0001
0100
0000
0010
0000
,
1000
0001
0100
0000
0010
0000
0001
0010
,
0001
0000
1000
0000
0010
0100
0001
1000
,
0010
0000
0100
0001
1000
0000
0010
0000
,
0100
0001
0100
0000
0010
0000
1000
0100
,
0001
0000
0100
0000
0010
0001
0010
0000
,
1000
0000
0010
1000
0001
0000
0100
0000
,
0010
0001
1000
0000
0010
0000
0100
0000
,
0001
0000
1000
0000
0001
1000
0001
1000
,
0020
0000
0000
0030
0100
0000
0002
0000
,
0000
0003
1000
0000
0010
0000
0000
0100
,
0000
0000
0002
0000
0000
0003
0010
0000
,
2000
0000
0000
3000
0001
0000
0200
0000
,
0000
0300
0010
0000
0001
0000
0000
1000
,
0000
0000
0010
0000
0000
0100
0000
0000
,
0002
0000
0000
0000
,
0000
0003
1000
0000
0020
0000
0000
0000
,
0000
0030
0200
0000
0000
0000
0000
0300
,
0001
0000
0000
1000
0000
0000
0010
0000
,
0100
0000
0001
0000
1000
0000
0000
0010
,
0000
0000
0100
0000
0001
1000
0010
0001
,
0200
0000
0000
0300
0001
0000
2000
0000
,
0000
3000
0001
0000
0100
0000
0000
0010
,
0000
0000
2000
0000
0000
3000
0001
0000
,
0200
0000
0000
0300
0010
0000
0002
0000
,
0000
0003
1000
0000
0010
0000
0000
0100
,
0000
0000
0001
0000
0000
1000
0000
0000
,
0020
0000
0000
0000
,
0000
0030
0100
0000
0002
0000
0000
0000
,
0000
0003
2000
0000
0000
0000
0000
3000
,
0010
0000
0000
0100
0000
0000
0001
0000
,
0100
0000
0001
0000
1000
0000
0000
0010
,
0000
0100
0001
1000
,
0010
0000
0100
0000
0010
0001
1000
0010
,
0100
0000
0001
0000
0010
0001
0010
0000
,
1000
0010
0100
0001
1000
0000
0010
0100
,
0001
1000
0010
0000
0100
0000
1000
0001
,
0100
0000
0010
0000
1000
0001
0100
0000
,
0010
0000
0001
0000
1000
0000
0010
0000
0100
0000
0001
0000
0200
0000
0000
0300
,
0010
0001
1000
0010
,
0100
0000
0001
0000
1000
0000
0010
0001
,
0010
0000
1000
0010
1000
0000
0010
0100
,
0001
0010
1000
0001
,
0100
0000
0010
0000
0001
0000
1000
0001
,
1000
0000
0010
0100
0010
0000
1000
0001
,
0100
0010
0001
1000
,
0010
0000
0100
0000
0001
0000
0100
0001
,
0100
0000
1000
0010
1000
0000
0010
0100
,
0010
0001
1000
0010
,
0100
0000
0001
0000
1000
0000
0010
0100
,
0001
0000
1000
0010
0100
0000
0001
0000
,
0010
1000
0001
0100
,
0010
0000
0001
0000
1000
0000
0010
1000
,
0010
0000
0100
0001
0100
0000
0010
1000
,
0010
0100
0001
1000
,
0010
0000
0100
0000
0001
0000
1000
0001
,
1000
0000
0100
0010
0100
0000
0001
1000
,
0010
0100
0001
1000
,
0010
0000
0100
0000
0001
0000
0010
0001
,
0010
0000
1000
0010
1000
0000
0010
0100
,
0001
1000
0010
0100
,
0001
1000
0010
0001
,
1000
0010
1100
1000
,
0001
0100
0010
1000
0001
0100
0010
1000
,
0001
0100
0010
1000
0001
0100
0010
1000
,
0001
0100
0010
1000
0001
0100
0010
1000
,
0001
0000
0000
0100
0000
0000
0001
0000
1000
0000
0010
0000
1000
0000
0000
0001
,
0000
0000
0100
0000
0010
0000
1000
0000
0001
0000
0000
0100
0000
0000
0010
0000
,
1000
0000
0001
0000
0100
0000
0000
0010
0000
0000
1000
0000
0001
1000
0100
0001
,
0010
0000
0001
1000
0010
0000
1000
0000
0010
0001
0100
0000
1000
0000
0010
0001
,
0100
0000
1000
0000
0001
1000
0100
0001
2020
0000
0000
0000
0000
0000
0000
0000
,
0000
0000
0000
0000
0000
0000
0000
0000
0000
0000
0000
0000
0000
0000
0000
3030
;

//--------------- dance-single - XLev450X-DSP ----------------
#NOTES:
     dance-single:
     XLev450X:
     Medium:
     16:
     0,0,0,0,0:
0000
0000
0000
0000
,
0000
0000
0000
0000
,
0000
0000
0000
0000
,
0000
0000
0000
0000
,
0001
1000
0010
0000
0100
0000
0001
0100
0010
0000
1000
0000
0001
0100
0010
0000
,
1000
0000
0001
0000
0100
0000
0010
0000
0001
0010
0001
0000
1000
0000
0010
1000
,
0010
0000
0100
0000
0001
1000
0010
0000
0100
0000
0001
0000
1000
0010
0100
0001
,
0010
0000
1000
0001
0100
0000
0010
0000
,
0001
1000
0010
0100
0001
0000
0010
0001
,
1000
0000
0010
0000
0100
0001
1000
0010
,
0100
0000
0010
0001
1000
0000
0010
0000
,
0100
0001
1000
0010
0100
0000
0001
1000
,
0010
0000
0000
0000
0100
0000
0000
0000
0001
0000
0010
1000
0001
0000
1000
0000
,
0010
0000
0100
0001
1000
0000
0010
0000
,
0001
1000
0010
0000
0100
0000
0010
0001
,
0010
0000
0000
0000
1000
0000
0000
0000
0010
0001
0100
0000
0001
0000
1000
0000
,
0010
0000
0100
0001
0010
0000
0101
0000
,
0010
1000
0001
0000
0100
0000
0010
1000
,
0001
0000
0000
0000
0100
0000
0000
0000
0010
0001
1000
0000
0001
1000
0100
0000
,
0020
0000
0030
1000
0001
0100
0020
0000
,
0030
1000
0001
0100
0020
0000
0000
0031
,
0000
0100
0000
0000
1000
0000
0000
0000
0000
0000
0010
0000
0100
0000
0001
0000
,
1000
0000
0000
0000
0000
0000
0010
0000
0100
0000
0001
0100
1000
0000
0000
0000
,
0000
0010
1000
0001
0100
0000
0000
1000
,
0000
0000
0001
0000
0000
0100
0000
0010
,
2000
0000
0001
0010
,
3000
0100
0000
0001
2000
0000
0000
0000
,
3010
0000
0100
0000
0000
0001
0000
1000
,
0010
0000
0000
0100
0000
0000
0001
0000
,
1000
0000
0010
0000
0100
0000
0000
0001
,
0000
0000
0000
0000
0010
0000
0000
0000
0001
0100
1000
0000
0010
1000
0100
0000
,
0002
0000
0003
1000
0010
0100
0002
0000
,
0003
1000
0010
0100
0002
0000
0003
0100
,
0000
1000
0000
0000
0010
0000
0000
0000
0000
0000
0100
0000
0001
0000
1000
0000
,
0010
0000
0000
0001
0010
0001
1000
0000
,
0000
0010
0100
0001
0000
1000
0000
0010
,
0000
0000
0100
0000
0000
0001
0000
0100
,
0000
0010
0000
1000
0000
0000
0001
0000
,
0000
0100
0000
0010
1000
0000
0000
0001
,
0000
0000
0100
0000
0000
0010
0000
1000
,
0001
0000
0000
0100
0000
0000
0010
0000
,
1000
0000
0001
0000
0100
0000
0000
0010
,
0000
1000
0001
0100
,
0001
0000
1000
0000
0010
0100
0001
0000
0010
0000
0001
0000
0100
0001
0100
0000
,
1000
0010
1000
0000
0010
0100
0010
0000
0001
0000
0010
0000
0001
0100
1000
0000
,
0010
0000
0100
0000
0001
0100
0001
0000
1000
0010
1000
0000
0010
0100
0010
0000
,
0001
0000
0010
0000
1000
0010
0001
0000
0100
0000
0010
0000
1000
0010
1000
0000
,
0100
0001
0100
0000
0010
1000
0010
0000
0100
0000
0001
0000
0010
1000
0100
0000
,
0001
0000
1000
0000
0001
0100
0001
0000
1000
0010
0200
0000
0001
0000
0000
0300
,
1000
0010
0100
0001
,
1000
0000
0010
0000
0100
0000
0001
1000
,
0001
0100
0010
1000
0001
0100
0010
1000
,
0001
0010
1000
0001
,
0100
0000
0001
0000
0010
0000
0001
0100
,
0001
0010
0100
0010
0100
1000
0100
1000
,
0010
0100
0001
1000
,
0100
0000
0010
0000
0100
0000
0010
0100
,
0001
0010
0001
0010
0001
0100
0010
1000
,
0100
0010
0100
0010
,
0100
0000
1000
0000
0001
0000
0001
0100
,
0010
1000
0100
0010
0100
0010
0001
0100
,
0010
1000
0010
1000
,
0100
0000
0000
0000
0010
0000
0000
0000
0100
0000
0000
0000
0010
0001
1000
0000
,
0010
0001
0100
0000
0010
0001
1000
0001
0100
0000
1000
0010
0100
0000
1000
0100
,
0010
0100
0010
0100
,
0001
0000
0000
0000
0010
0000
0000
0000
0100
0000
0000
0000
0010
0001
1000
0000
,
0010
1000
0100
0000
0001
0010
1000
0000
0010
0001
1000
0000
0010
0001
1000
0000
,
0100
0010
0100
1000
,
0001
0000
0000
0000
0010
0000
0000
0000
0001
0000
0000
0000
0010
1000
0100
0000
,
0001
1000
0100
0000
0010
0001
1000
0000
0100
0010
1000
0000
0010
1000
0100
0000
,
0010
0100
0001
0100
0001
0100
0010
1000
,
0010
1000
0100
1000
0001
0100
0010
1000
,
0001
0010
0100
1000
0100
1000
0001
1000
,
0001
0100
0010
0000
1000
0001
0100
0000
0010
0100
0010
0000
0001
1000
0010
0000
,
0100
0001
0010
0000
1000
0100
1000
0000
0010
0100
0001
0000
1000
0010
0100
0000
,
0010
0001
0010
0000
1000
0100
1000
0000
0100
1000
0100
0010
0001
0010
0001
0100
,
0010
0000
1000
0000
0001
0010
0100
0000
0001
0000
1000
0000
0010
0000
0100
0000
,
0001
0000
1000
0000
0001
1000
0100
0000
0001
0000
1000
0000
0010
0000
1000
0000
,
0001
0000
0100
0000
0010
0000
0001
0000
1000
0000
0010
0000
0001
0010
0001
0100
,
1000
0000
0010
0000
0100
0000
1000
0000
0001
0000
0100
0000
0010
0001
1000
0000
,
0001
0000
1000
0000
0010
0100
0001
0100
2002
0000
0000
0000
0000
0000
0000
0000
,
0000
0000
0000
0000
,
3003
0000
0000
0000
;

//--------------- dance-single - XLev450X-ESP ----------------
#NOTES:
     dance-single:
     XLev450X:
     Hard:
     18:
     0,0,0,0,0:
0000
0000
0000
0000
,
0000
0000
0000
0000
,
0000
0000
0000
0000
,
0000
0000
0000
0000
,
0001
1000
0010
0100
0010
0100
0001
1000
0001
0100
0001
0010
0100
0010
0001
0100
,
0001
0010
0100
1000
0100
0010
0001
0000
0100
0010
0100
1000
0100
0010
0001
0010
,
0001
1000
0001
1000
0010
1000
0100
0010
0100
0010
0100
1000
0010
1000
0010
0100
,
0001
0000
1000
0010
0100
0000
0001
0000
,
1000
0001
0100
0010
1000
0000
0001
0100
,
0010
0000
0000
0000
1000
0000
0000
0000
0001
1000
0010
0000
0100
0000
1000
0000
,
0001
0010
0101
1000
,
0010
0100
0001
1000
0010
0000
0100
0001
,
1000
0000
0000
0000
0010
0000
0000
0000
0100
0000
0001
0100
1000
0000
0010
0001
,
0100
0000
0001
1000
0010
0000
0100
0000
,
1000
0001
0100
0010
0001
0000
0100
1000
,
0100
0000
0000
0000
0001
0000
0000
0000
0010
0001
0100
0010
1000
0000
0100
0000
,
0001
0100
0010
1000
0001
0000
1000
0010
,
0100
0001
1000
0000
0010
0000
0100
0001
,
1000
0000
0010
0000
0100
0000
0001
0000
1000
0001
0010
0000
0100
1000
0001
0000
,
0010
0000
0000
0000
1000
0000
0100
0000
0001
0010
1000
0000
0010
0000
0000
0000
,
1000
0000
0001
0000
0100
0000
0010
0000
1000
0000
0000
0000
0001
0000
0000
1000
,
0000
0010
0100
0000
0001
0000
1000
0010
,
0100
0000
0000
0000
0010
0000
0001
0000
1000
0000
0010
1000
0100
0000
0001
1000
,
0100
0000
0001
0000
1000
0000
0010
0000
0100
0000
0000
0000
1000
0000
0001
0010
,
0000
0000
0001
0100
0000
0000
1000
0100
0000
0001
0100
1000
0010
0000
0100
0000
,
0002
0000
0000
0000
,
0003
0000
2000
3000
0002
0000
0000
0000
,
0003
0020
0000
0030
,
0100
0000
0000
0001
0000
0000
1000
0000
,
0000
0010
0000
0100
0001
0000
0000
1000
,
0000
0000
0000
0000
0001
0000
0000
0000
0100
0000
0010
0001
1000
0000
0001
1000
,
0010
0000
0000
0000
0001
0000
0000
0000
0100
0000
1000
0100
0001
0000
0010
0000
,
0000
0000
1000
0000
0010
0000
0100
0000
0001
0000
1000
0010
0000
0000
0100
0001
,
1000
0000
0001
0000
0010
0000
0000
1000
0000
0000
0001
0000
0100
0000
0000
0000
,
0001
0000
0100
0000
0010
0000
1000
0000
0001
0000
0010
1000
0001
0000
0000
0000
,
1000
0000
0001
0000
1000
0000
0010
0000
0100
0000
0000
0000
1000
0000
0001
0010
,
0000
0000
0001
0100
0000
0000
1000
0100
0000
0001
0100
1000
0010
0000
0100
0000
,
0002
0000
0000
0000
,
0003
0000
2000
3000
0002
0000
0000
0000
,
0003
0020
0000
0030
,
0100
0000
0000
0001
0000
0000
1000
0000
,
0000
0010
0000
0100
0001
0000
0000
1000
,
0000
0000
0000
0000
0001
0000
0000
0000
0100
0001
0010
0100
1000
0010
0001
1000
,
0010
0100
0010
1000
0100
1000
0001
0100
0001
0100
0010
1000
0010
0100
0001
0010
,
0100
0010
0001
1000
0010
0100
0001
1000
0010
0100
0010
1000
0010
1000
0001
1000
,
0001
0100
0010
1000
0100
0010
0001
0010
0100
0010
0001
1000
0100
0010
0001
0000
,
0100
0010
0100
0010
0100
1000
0010
0100
0010
0100
0010
1000
0100
1000
0100
1000
,
0010
0100
0001
0010
0100
0010
0001
0010
0100
1000
0001
0100
0001
1000
0010
1000
,
0100
0010
0001
0100
0001
0010
0001
0010
0100
1000
0020
0000
1000
0000
0000
0030
,
0001
1000
0010
1000
0001
0100
0010
1000
,
0001
0000
0100
0000
0001
0000
1000
0000
0100
0000
1000
0001
1000
0000
0100
0010
,
0001
0000
1000
0100
1000
0000
0001
0010
0001
0000
0010
0100
0010
0000
0001
0010
,
0100
1000
0100
0010
0001
0100
0001
0010
,
0001
0000
0100
0000
0010
0000
1000
0000
0100
0000
1000
0001
1000
0000
0100
0010
,
0001
0000
1000
0100
1000
0000
0001
0010
0001
0000
0010
0100
0010
0000
0001
1000
,
0010
0100
0010
1000
0010
1000
0100
0010
,
0001
0000
1000
0000
0100
0000
0010
0000
0100
0000
1000
0001
1000
0000
0100
0010
,
0001
0000
1000
0100
1000
0000
0001
0010
0001
0000
0010
0100
0010
0000
1000
0100
,
0001
0100
0001
1000
0001
0100
0010
1000
,
0010
0000
0100
0000
0010
0000
0100
0000
0001
0000
1000
0001
1000
0000
0100
0010
,
0001
0000
1000
0100
1000
0000
0001
0010
0001
0000
0010
0100
0010
0000
0100
1000
,
0001
0010
0100
0010
0100
1000
0010
1000
,
0001
0000
0100
0000
0010
0000
1000
0000
0100
0000
1000
0001
1000
0000
0100
0010
,
0001
0000
1000
0100
1000
0000
0001
0010
0001
0000
0010
0100
0010
0000
1000
0100
,
0001
1000
0100
1000
0100
1000
0001
0100
,
0001
0000
0010
0000
0001
0000
1000
0000
0010
0000
1000
0001
1000
0000
0100
0010
,
0001
0000
1000
0100
1000
0000
0001
0010
0001
0000
0010
0100
0010
0000
0001
1000
,
0100
1000
0010
1000
0010
1000
0100
0010
,
0100
0000
1000
0000
0100
0000
0010
0000
0001
0000
1000
0001
1000
0000
0100
0010
,
0001
0000
1000
0100
1000
0000
0001
0010
0001
0000
0010
0100
0010
0000
0001
0010
,
1000
0001
1000
0000
0100
0010
0001
0000
1000
0100
1000
0000
0001
0010
0001
0000
,
0010
0100
0010
0000
1000
0001
1000
0000
0100
0010
0001
0000
1000
0100
1000
0000
,
0001
0010
0001
0000
0010
0100
0010
0000
1000
0001
1000
0000
0100
0010
0001
0000
,
0010
0100
0001
0010
0100
0010
0001
0010
0100
1000
0100
0010
0100
0010
0001
0010
,
0100
1000
0010
0100
0010
0100
0010
1000
0001
0010
0100
1000
0001
0100
0001
1000
,
0100
0010
0001
0100
0001
0010
0001
0010
0100
0010
0001
0100
0001
0100
0001
1000
,
0001
0100
0010
1000
0010
0100
0010
0100
0001
0010
0001
1000
0010
0100
0010
1000
,
0010
1000
0100
1000
0001
0010
0100
1000
0001
1000
0010
1000
0010
0100
0001
1000
,
0010
0000
0100
0000
0010
0000
0001
0000
0010
0000
0100
0000
0001
0000
1000
0000
0010
0000
1000
0000
0001
0000
1000
0000
0010
0000
0100
0000
0010
1000
0100
0010
,
0001
0100
1000
0100
1000
0010
0100
0001
0100
0001
1000
0001
0010
0100
0010
0100
,
1000
0000
0001
0000
1000
0000
0001
0000
0100
1000
0001
0100
0010
0001
0100
1000
0020
0000
0000
0000
0000
0000
0000
0000
0000
0000
0000
0000
0000
0000
0000
0000
,
0000
0000
0000
0000
,
0030
0000
0000
0000
;

//--------------- dance-single - XLev450X-CSP ----------------
#NOTES:
     dance-single:
     XLev450X:
     Challenge:
     19:
     0,0,0,0,0:
0000
0000
0000
0000
,
0000
0000
0000
0000
,
0000
0000
0000
0000
,
0000
0000
0000
0000
,
0010
0100
0001
0100
0001
0100
0010
1000
0010
1000
0001
0010
0100
1000
0010
1000
,
0001
1000
0001
0010
0001
1000
0100
0010
0001
0100
0001
0010
0001
1000
0100
0010
,
0001
0000
0000
0010
0000
0000
0100
0000
0000
1000
0000
0000
0100
0000
0000
1000
0000
0000
0010
0000
0000
1000
0000
0000
0010
0000
0000
0100
0000
0000
0001
0000
0000
0010
0000
0000
0010
0000
1000
0001
0100
0000
1000
0000
0001
0100
1000
0000
,
0010
0000
1000
0001
0100
0010
1000
0000
,
0001
0010
0001
0100
1000
0000
0010
0100
,
0001
0000
1000
0000
0010
0000
0100
0000
0001
0010
0100
0010
0100
1000
0100
0001
,
0010
0100
0001
1000
0010
0000
0100
1000
,
0001
0100
0010
1000
0001
0000
0100
0010
,
1000
0000
0100
0000
0001
0000
0010
0000
0100
1000
0100
0010
0001
0000
1000
0000
,
0010
0000
0100
0010
0001
1000
0010
0100
,
0001
0000
1000
0010
0100
0000
0001
0000
,
0010
0000
0000
0000
1000
0100
0001
0000
0100
0000
0010
0000
1000
0000
0010
0000
,
0001
0000
0100
0010
0001
0000
1000
0000
,
0010
0100
1000
0001
0100
0000
0010
0100
,
0001
0000
1000
0000
0010
0000
0100
0000
1000
0010
0100
0010
0001
0010
0001
0100
,
0001
0000
0000
0000
1000
0000
0010
0000
0100
0001
1000
0000
0001
0000
0000
0000
,
1000
0001
0100
0010
1000
0000
0001
0100
,
0010
0100
0001
0000
1000
0000
0000
0000
0001
0000
0100
0000
0010
0000
1000
0000
,
0001
0000
0000
0000
0100
0000
0010
0000
1000
0100
0010
0000
0001
0000
0000
0000
,
0100
0000
0010
0000
1000
0000
0001
0000
0100
0000
0000
0000
0010
0100
1000
0100
,
0000
0000
0001
0010
0100
1000
0000
0000
0010
0100
1000
0001
0100
0000
0001
0000
,
0100
0000
0010
1000
0001
0100
0010
0000
,
1000
0000
0001
0100
0010
0000
1000
0000
,
0001
0000
0100
0010
1000
0000
0001
0000
,
0100
0010
1000
0001
0100
0000
0010
0000
,
1000
0001
0100
0000
0010
0000
1000
0000
,
0001
0000
0000
0000
0100
0000
0000
0000
0001
1000
0001
0100
0010
0100
0010
1000
,
0100
0000
0001
1000
0010
0000
0100
0000
,
1000
0001
0100
0010
1000
0000
0001
0100
,
0010
1000
0001
0000
0010
1000
0001
0000
,
0100
0000
0001
1000
0010
0000
0100
0000
,
0001
1000
0010
0100
0001
0000
1000
0010
,
0000
0100
1000
0000
0001
0100
0000
0010
,
1000
0000
0001
0100
0010
0000
1000
0000
,
0001
0000
0100
0000
0010
0000
1000
0000
0001
0000
0100
1000
0010
0000
1000
0100
,
0001
0010
0100
0000
0001
0000
1000
0000
,
0010
0100
0001
0000
1000
0000
0010
0100
,
0001
0000
0000
0000
1010
0000
0000
0000
0110
0000
0000
0000
0100
0001
1000
0010
,
0001
0000
0100
1000
0010
0000
0001
0000
0100
1000
0100
0010
0100
1000
0001
0000
,
0100
1000
0100
1000
0010
0100
0010
1000
0010
1000
0001
0100
0001
1000
0001
1000
,
0100
0010
0100
1000
0100
1000
0001
0100
0010
0100
0001
0100
0001
0010
0100
1000
,
0100
1000
0001
1000
0001
0100
0001
0100
0010
1000
0100
1000
0010
1000
0001
0010
,
0001
1000
0100
0010
0001
0010
0001
1000
0010
1000
0010
0100
0010
0100
0001
1000
,
0010
1000
0100
0010
0001
0010
0001
1000
0010
0100
0001
0010
0001
1000
0001
0010
,
0100
0010
0100
1000
0001
0010
0100
1000
0001
0200
0010
0000
0001
0000
1300
0000
,
0010
1000
0010
0100
0001
0010
0001
1000
,
0001
0000
0010
0000
0100
0000
1000
0000
0100
0000
0100
1000
0001
1000
0001
0100
,
0010
0100
0001
1000
0001
0010
0001
0010
0100
0010
0001
0100
0010
1000
0010
0000
,
0001
1000
0001
0010
0001
0100
0010
0100
,
0001
0000
0100
0000
0001
0000
0010
0000
0100
0000
0010
0100
0010
0100
0010
1000
,
0001
0010
0100
1000
0100
0010
0100
1000
0010
1000
0010
0100
0010
0100
0001
0000
,
0010
1000
0001
0010
0001
0010
0001
1000
,
0100
0000
1000
0000
0100
0000
0010
0000
0100
0000
0010
0100
0001
1000
0001
1000
,
0010
1000
0001
0010
0100
1000
0001
0010
0001
1000
0010
0100
0001
0100
0010
0000
,
0001
0100
0001
1000
0010
0100
0010
0100
,
0010
0000
1000
0000
0001
0000
1000
0000
0001
0000
0010
0100
0001
1000
0001
1000
,
0001
0100
0010
1000
0100
0010
0100
1000
0100
0010
0001
0100
0010
0100
0001
0000
,
0100
0010
0100
0010
0100
1000
0001
1000
,
0100
0000
1000
0000
0001
0000
0010
0000
0100
0000
0100
1000
0010
1000
0010
0100
,
0001
1000
0001
0010
0001
0100
0010
0100
0010
0100
0001
0010
0001
0100
0010
0000
,
0100
0010
0001
1000
0001
0100
0010
0100
,
0001
0000
1000
0000
0001
0000
0100
0000
0001
0000
0010
0100
0001
0010
0001
1000
,
0001
1000
0010
1000
0100
0010
0001
0010
0100
0010
0001
1000
0100
1000
0010
0000
,
0010
1000
0001
1000
0001
0100
0001
0100
,
0010
0000
0100
0000
0001
0000
1000
0000
0100
0000
0010
1000
0001
0100
0001
1000
,
0100
1000
0100
1000
0001
0010
0100
1000
0002
0203
0302
0203
0302
0023
2030
3000
,
0001
0010
0001
1000
0010
1000
0010
0100
0010
0100
0001
1000
0001
0100
0010
0100
,
0010
0100
0001
1000
0100
0010
0100
1000
0010
0100
0001
0010
0001
0100
0010
1000
,
0100
0010
0100
1000
0001
1000
0001
1000
0010
0100
0001
1000
0001
0010
0001
0100
,
0010
1000
0001
0100
0001
1000
0010
0100
0001
0010
0001
1000
0001
0010
0100
0010
,
0001
0100
0010
0100
0001
0010
0100
1000
0100
1000
0010
1000
0001
0100
0010
0100
,
0001
0100
0001
1000
0010
1000
0100
1000
0001
0100
0010
0100
0001
0100
0010
1000
,
0001
0100
0010
1000
0010
0100
0010
0100
0001
0010
0001
1000
0010
0100
0010
1000
,
0010
1000
0100
1000
0001
0010
0100
1000
0001
1000
0010
1000
0010
0100
0001
1000
,
0010
0000
0100
0000
0010
0000
1000
0000
0010
0000
0100
0000
0001
0000
1000
0000
0010
0000
1000
0000
0001
0000
1000
0000
0010
0000
0100
0000
0010
1000
0100
0010
,
0001
0100
1000
0100
1000
0010
0100
0001
0100
0001
1000
0001
0010
0100
0010
0100
,
1000
0000
0001
0000
1000
0000
0001
0000
0100
1000
0001
0100
0010
0001
0100
1000
0020
0000
0000
0000
0000
0000
0000
0000
0000
0000
0000
0000
0000
0000
0000
0000
,
0000
0000
0000
0000
,
0030
0000
0000
0000
;
