#TITLE:ECSTASY (midnight blue mix) (RGR-Special);
#ARTIST:d-complex;
#MUSIC:ECSTASY (midnight blue mix) (RGR-Special).ogg;
#BANNER:ECSTASY (midnight blue mix) (RGR-Special).png;
#BACKGROUND:ECSTASY (midnight blue mix) (RGR-Special)-bg.png;
#CDTITLE:./CDTITLES/DDRMAX2 -Dance Dance Revolution 7thMIX-.PNG;
#SAMPLESTART:28.094;
#SAMPLELENGTH:15;
#SELECTABLE:YES;
#BPMS:0=145.268
,180=150.330;
#DISPLAYBPM:145:150;

//--------------- dance-single - XLev450X ----------------
#NOTES:
     dance-single:
     XLev450X:
     Challenge:
     16:
     0,0,0,0,0:
0000
0000
0000
0000
,
0000
0000
0000
0000
,
0000
0000
0000
0000
,
0000
0000
0000
0000
,
0000
0000
0000
0000
,
1001
0000
0110
1000
0001
0010
1000
0100
,
0010
0001
0010
0100
0010
0001
0010
1000
,
0100
0001
0100
1000
0100
0010
0100
0010
,
0100
0000
0000
0001
0000
0000
1000
0000
0000
0010
0000
0000
0001
0000
1000
0000
,
0001
1000
0001
0000
0010
0100
0010
0100
0001
0000
1000
0000
0100
0010
0100
1000
,
0001
0000
1000
0000
0001
0010
0100
0010
0001
0000
0010
0000
0001
1000
0100
0010
,
0001
0000
0010
0000
0100
1000
0010
1000
0100
0000
0001
0000
0010
1000
0100
0010
,
0100
0000
1000
0000
0010
1000
0010
1000
0001
0000
0010
0000
0100
0010
0100
0000
,
0100
1000
0001
0100
0010
0100
0010
0100
0001
1000
0010
1000
0001
0010
0001
1000
,
0100
0010
0100
0010
0001
0100
0010
0100
0001
1000
0001
0010
0001
0010
0100
1000
,
0010
0100
0001
0100
0010
1000
0001
1000
0010
1000
0010
0100
0010
1000
0001
0010
,
0100
0000
0000
1000
0000
0000
0100
0000
0000
1000
0000
0000
0100
0000
0000
0010
0000
0000
0001
0000
0000
0100
0000
0000
0010
0000
0000
0100
0000
0000
0010
0000
0000
1000
0000
0000
0100
0000
1000
0000
0001
0000
0010
0000
0100
0000
1000
0000
,
0020
0000
0001
0000
0000
0001
0000
0000
0001
0000
0001
0000
0000
0031
0000
0000
,
0200
0000
1000
0000
0000
1000
0000
0000
1000
0000
1000
0000
0000
1300
0000
0000
,
2000
0000
0010
0000
0000
0010
0000
0000
0010
0000
0010
0000
0000
3010
0000
0000
,
0002
0000
0100
0000
0000
0100
0000
0000
0100
0000
0100
0000
0000
0103
0000
0000
,
1000
0000
0001
0000
0010
0001
0010
0000
0000
1000
0000
0010
0000
0100
0000
0010
,
0001
0000
1000
0000
0001
0010
0001
0000
0000
1000
0000
0010
0000
0100
0000
0010
,
0001
0000
0001
0000
1000
0010
1000
0000
0000
0001
0000
0100
0000
0010
0000
0100
,
0010
0000
0000
0000
0000
0000
0100
0000
0000
0000
0000
0000
0001
0000
0000
0000
0000
0000
0100
0000
0000
0000
0000
0000
0010
0000
0000
0000
0000
0000
0100
0000
0000
0000
0000
0000
0010
0000
0000
0000
0000
0000
1000
0000
0000
0000
0000
0000
0010
0000
0000
0000
0100
0000
1000
0000
0000
0000
0000
0000
0001
0000
0000
0000
0100
0000
0010
0000
0000
0000
0000
0000
0001
0000
0000
0000
0000
0000
0010
0000
0000
0000
0000
0000
0001
0000
0000
0100
0000
0000
1000
0000
0000
0000
0000
0000
,
0010
0000
0000
1000
0000
0000
0001
0000
0100
0000
1000
0000
0001
0000
1000
0000
,
0010
0000
0000
0100
0000
0000
0001
0000
0000
0000
0001
0000
0000
1000
0000
0000
,
0010
0000
0000
0100
0000
0000
0001
0000
0000
0010
0001
0100
0000
1000
0000
0000
,
0010
0000
0000
0100
0000
0000
0001
0000
0000
0000
1000
0000
0000
0010
0000
0000
,
0001
0000
1000
0000
0010
1000
0010
0100
,
0010
0000
0100
1000
0001
0000
0000
0000
1000
0000
0000
0000
0010
0000
0000
0000
,
0001
0000
0000
0010
1000
0100
0000
0001
0000
1000
0000
0010
0001
1000
0000
0100
,
0000
0010
0000
0001
0000
0100
0010
0001
1000
0000
0000
0000
0001
0000
0000
0000
,
0100
0010
0001
0000
1000
0001
0100
0000
,
0010
0001
0010
0001
1000
0010
0100
0000
,
0001
0000
0000
0100
0000
0000
0010
0000
0000
1000
0000
0000
0001
0000
0100
0000
,
0010
0000
0000
1000
0000
0000
0001
0000
0000
0100
0000
0000
0010
0000
1000
0000
,
0010
0100
0010
0100
0010
0000
0100
0000
0001
0100
0001
0100
0010
0000
0010
0000
,
0001
0100
0001
0100
0010
0000
0001
0000
0100
0010
0001
1000
0100
0000
0001
0000
,
0010
0100
0010
1000
0001
0000
0100
0000
0100
0010
0001
1000
0010
0000
0001
0000
,
0001
0010
0100
1000
0100
0000
0010
0000
0100
0010
0100
1000
0010
0000
0001
0000
,
0010
0100
0001
0010
0001
0100
0010
0100
0001
0100
0001
1000
0100
0010
0001
0010
,
0100
1000
0001
0100
0010
0100
0001
1000
0100
0010
0001
1000
0001
0010
0001
1000
,
0100
0010
0100
0010
0100
1000
0001
1000
0010
1000
0001
0010
0100
1000
0001
0100
,
0001
0100
0010
1000
0001
0100
0010
0100
0010
1000
0001
0010
0100
1000
0010
0100
,
0001
0000
0000
0000
1000
0000
0000
0000
0010
0000
0001
0000
0000
0001
0000
0000
,
1000
0000
0010
0000
0001
0000
0100
0000
0001
0000
0000
1000
0000
0000
0010
0000
,
0001
0000
1000
0000
0001
0000
0000
0000
0010
0001
0010
0000
0000
1000
0000
0000
,
0010
0000
0100
0000
0001
0000
0000
0000
1000
0010
1000
0000
0000
0100
0000
0000
,
0001
0000
1000
0000
0010
0000
0100
0000
0010
0001
0010
0000
0000
1000
0000
0000
,
0001
0000
0100
0000
0010
0000
0100
0000
1000
0001
1000
0000
0000
0100
0000
0000
,
0010
0100
0001
1000
0010
1000
0100
0010
0100
0010
0001
1000
0001
0100
0010
0100
,
0001
0100
0010
1000
0100
0010
0100
1000
0010
1000
0010
1000
0100
0010
2000
0000
,
0000
0000
0000
0000
0000
0000
0001
0000
0000
0000
0000
0000
0000
0000
0000
3010
;
