#TITLE:Don't believe the hype;
#ARTIST:DJ Mass MAD Izm* feat.H14(LEONAIR);
#GENRE:MIXTURE;
#MUSIC:Don't believe the hype.ogg;
#BANNER:Don't believe the hype.png;
#BACKGROUND:Don't believe the hype-bg.png;
#CDTITLE:./CDTitles/bm IIDX 29 CastHour.png;
#SAMPLESTART:96.993;
#SAMPLELENGTH:15;
#OFFSET:-0.422;
#BPMS:0=210;

//--------------- dance-single - XLev450X*-bSP ----------------
#NOTES:
     dance-single:
     XLev450X*:
     Beginner:
     5:
     0,0,0,0,0:
0000
0000
0000
0000
,
0000
0000
0000
0000
,
0000
0000
0000
0000
,
0000
0000
0000
0000
,
0000
0000
0000
0000
,
0000
0000
0000
0000
,
0000
0000
0000
0000
,
0000
0000
0000
0000
,
0000
0000
0010
0000
,
0000
0000
0001
0000
,
0000
0000
1000
0000
,
0001
0000
1000
0000
,
0010
0000
1000
0000
,
0100
0000
0001
0000
,
1000
0000
0010
0000
,
1000
0000
0001
0001
,
1000
0010
0000
0000
,
0000
0000
0001
0000
,
0001
0000
1000
0000
,
1000
0000
0010
0000
,
1000
0000
0100
0000
,
0001
0000
0001
0000
,
1000
0000
0100
0000
,
0010
0000
1000
1000
,
0010
0100
0001
0000
,
0000
0000
1000
0000
,
0001
0000
1000
0000
,
0100
0000
0010
0000
,
1000
0000
0001
0000
,
0010
0000
1000
0000
,
0010
0000
0100
0001
,
0010
0000
1000
0001
,
0100
0000
1000
0001
,
0100
0010
1000
0000
,
0001
0000
0100
0000
,
0000
0000
1000
0000
,
0001
0000
0100
0000
,
0000
0000
1000
0000
,
1000
0000
0001
0000
,
0001
0000
1000
0000
,
0010
0000
0100
0001
,
1000
0000
0001
0000
,
0001
1000
0010
0000
,
1000
0000
1000
0000
,
1000
0001
0100
0000
,
0000
0000
0010
0000
,
0010
1000
0100
0000
,
0000
0000
0001
0000
,
0001
1000
0100
0000
,
0000
0000
0010
0000
,
1000
0000
0001
0000
,
0000
0000
0100
0000
,
1000
0000
0100
0000
,
0000
0000
0010
0000
,
0001
0000
0010
0000
,
0000
0000
1000
0000
,
0001
0000
0100
0000
,
0000
0000
1000
0000
,
0001
0000
0100
0000
,
0000
0000
0010
0000
,
1000
0000
0010
0000
,
0000
0000
0100
0000
,
1000
0000
0001
0000
,
0000
0000
0100
0000
,
0010
0000
1000
0000
,
0000
0000
0001
0000
,
0000
0000
1000
0000
,
0000
0000
0010
0000
,
0000
0000
0100
0000
,
0000
0000
1000
0000
,
0000
0000
0001
0000
,
0000
0000
0100
0000
,
0000
0000
0010
0000
,
0000
0000
0001
0000
,
0001
0000
0001
0000
,
1000
0000
0010
0000
,
1000
0000
0100
0000
,
0010
0000
1000
0000
,
0001
0000
0100
0000
,
0010
0000
1000
0000
,
0001
0000
0100
0000
,
0010
0000
0001
0000
,
0000
0000
1000
0000
,
0000
0000
0010
0000
,
0000
0000
2002
0000
,
0000
3003
1000
1000
,
1000
0000
0001
0000
,
0010
0000
0100
0100
,
0100
0000
0001
0000
,
1000
0000
0010
0010
,
1000
1000
0001
0001
,
0100
0100
0010
0000
,
0000
0000
1000
0000
,
0001
0000
0010
0001
,
0010
0000
0100
1000
,
0100
0000
0010
0000
,
0100
0000
0010
0000
,
1000
0000
0001
0100
,
0001
1000
0001
0100
,
0010
0000
1000
0000
,
0000
0000
0010
0000
,
1000
0000
0010
0000
,
0000
0000
0100
0000
,
0100
0000
0001
0000
,
1000
0000
0010
0000
,
1000
0000
0001
0000
,
0100
0000
0010
0000
,
1000
0000
0010
0001
,
0010
0000
0100
1000
,
0100
0020
0030
0000
;

//--------------- dance-single - XLev450X*-BSP ----------------
#NOTES:
     dance-single:
     XLev450X*:
     Easy:
     9:
     0,0,0,0,0:
0000
0000
0000
0000
,
0000
0000
0000
0000
,
0000
0000
0000
0000
,
0000
0000
0000
0000
,
0000
0000
0000
0000
,
0000
0000
0000
0000
,
0000
0000
0000
0000
,
0000
0000
0000
0000
,
0000
0000
1000
0000
,
0001
0000
1000
0000
,
0010
0000
1000
0010
,
0100
0001
0010
1000
,
0010
0000
0100
0010
,
1000
0000
0001
0010
,
0001
0000
1000
0001
,
0100
0010
1000
0010
,
0100
0001
1000
0010
0000
0000
0000
0000
,
0000
0000
1000
1000
,
0001
1000
0010
1000
,
0010
1000
0001
0100
,
0010
1000
0001
0010
,
0001
0000
1000
0010
,
1000
0000
0010
0000
0100
0000
0010
0100
,
0010
0001
0010
0000
,
0001
0000
1000
0010
,
1000
0000
0010
0001
,
0010
0001
0010
0000
1000
0000
0010
0000
,
1000
0010
1000
0000
0001
0000
0100
0000
,
0010
0000
1000
0001
,
0010
0000
1000
0001
,
0010
0000
1000
0000
,
0001
0100
0001
0000
,
1000
0000
0010
1000
,
0010
1000
0100
0001
0010
0000
1000
0000
,
0001
0010
1000
0001
,
0100
0010
1000
0001
,
0010
0001
1000
0010
,
0001
0010
0001
0000
1000
0000
0010
0000
,
0100
0000
1000
0000
0010
1000
0010
0000
,
0100
0001
0100
0000
0010
0000
1000
0000
,
0001
0010
2002
0000
,
0000
0000
0000
3003
0001
1000
0010
0000
,
0010
0000
1000
0000
0010
0001
0010
0000
,
1000
0000
0010
0000
1000
0010
1000
0000
,
0010
0000
0100
0000
0001
0100
1000
0001
,
0010
0000
0000
0000
1000
0010
1000
0000
,
0001
0000
0100
0000
0010
0100
0010
0000
,
0001
0000
1000
0000
0001
0100
0001
0000
,
1000
0000
0010
0000
1000
0100
0001
1000
,
0010
0000
0001
0000
,
1000
0000
0010
0000
,
1000
0000
0010
0000
,
0100
0000
0001
0000
,
1000
0000
0001
0000
,
0100
0000
1000
0000
,
0010
0000
1000
0000
,
0001
0000
0100
0000
,
0000
0000
0001
0000
,
1000
0000
0001
0000
,
1000
0000
0010
0000
,
1000
0000
0010
0000
,
0100
0000
0001
0000
,
1000
0000
0010
1000
,
0010
0000
0001
0000
,
0100
0000
0010
1000
,
0001
0000
0100
0000
0010
0000
0000
1000
,
0000
0000
0001
0000
0100
0000
0000
0010
,
0000
0000
1000
0000
0001
0000
0000
0100
,
0000
0001
1000
0010
,
0100
0000
0000
0000
0001
0000
0000
1000
,
0000
0000
0001
0000
0100
0000
0000
0010
,
0000
0000
1000
0000
0001
0000
0000
0100
,
0000
0010
1000
0010
,
1000
0000
0010
0001
,
1000
0000
0010
0100
,
0001
0000
1000
0001
,
0100
0010
1000
0001
,
0010
0000
1000
1000
,
0010
0100
0001
1000
,
0010
0000
0000
0000
1000
0001
0000
0000
,
0100
0000
0010
0000
1000
0001
1000
0000
,
0001
1000
0010
0000
1000
0000
0000
0002
,
0000
0000
0103
0000
0010
0000
0000
2000
,
0000
0000
3100
0000
0010
0000
0000
0200
,
0000
0310
0001
0001
,
0001
0001
1000
0010
,
1000
0000
0010
0100
,
0010
0001
1000
0010
,
0100
0000
0000
0000
0000
0001
0000
0000
,
0010
1000
0010
0100
,
0010
0000
0001
0010
0001
0000
1000
0000
,
0010
0000
0100
0010
1000
0000
0010
0000
,
0100
0000
0010
0000
1000
0000
0000
0001
,
0000
0000
0100
0010
,
1000
0000
0010
0100
,
0001
0000
1000
0001
,
1000
0010
1000
0010
,
0100
0000
0010
1000
,
0001
0000
0010
0000
0001
0010
0001
0000
,
1000
0010
1000
0000
0010
0000
0100
0000
,
0001
1000
0010
0000
,
0100
0001
1000
0000
,
0010
0000
1000
0001
,
1000
0000
0001
0000
,
0100
0000
1000
0010
,
1000
0010
0100
0000
,
0001
0000
0001
1000
,
0001
0000
1000
0010
,
1000
0010
0100
0010
,
1000
0002
0003
0000
;

//--------------- dance-single - XLev450X*-DSP ----------------
#NOTES:
     dance-single:
     XLev450X*:
     Medium:
     12:
     0,0,0,0,0:
0000
0000
0000
0000
,
0000
0000
0000
0000
,
0000
0000
0000
0000
,
0000
0000
0000
0000
,
0000
0000
0000
0000
,
0000
0000
0000
0000
,
0000
0000
0000
0000
,
0000
0000
0000
0000
,
0000
0000
1000
0001
,
1000
0000
0010
1000
,
0010
0000
0001
0010
,
0001
0000
1000
0000
0010
0000
1000
0010
,
1000
0010
0100
0010
,
0001
0000
1000
0001
,
0100
0000
0010
1000
,
0001
0000
0100
0000
0010
0000
1000
0001
,
0100
0010
1000
0002
0000
0003
0000
0000
,
1000
0000
0001
0000
0010
0000
1000
0010
,
0000
0100
0010
0000
0001
0000
0010
0001
,
0000
1000
0010
0000
1000
0000
0010
0100
,
0000
0010
0100
0000
0001
0000
0010
0000
,
1000
0000
0001
0000
0010
0001
0010
0000
,
1000
0010
1000
0000
0010
0100
0010
0100
,
0001
1000
0010
0100
0001
0000
1000
0000
,
0010
1000
0001
1000
,
0010
0000
0100
0000
0001
0000
0000
1000
,
0000
0000
0010
0000
0100
0000
0000
0001
,
0000
0000
0010
0000
0001
0010
0001
0000
,
1000
0010
1000
0000
0010
0000
0100
0000
,
0001
0000
1000
0001
,
0100
0010
1000
0001
,
1000
0000
0001
0000
0001
0001
0001
0000
,
1000
0000
0010
0000
0010
0010
0010
1000
,
0010
0000
0100
0001
,
1000
0000
0010
0000
0001
0001
0001
0000
,
1000
1000
1000
0000
0010
0000
1000
0000
,
0010
0100
0010
0000
0010
0001
0010
1000
,
0010
0000
0001
0010
,
1000
0001
0100
0000
0010
0001
0010
0001
,
1000
0010
0000
0000
0001
0000
1000
0000
,
0010
1000
0010
0000
0100
0001
1000
0010
,
0100
0000
0001
1000
,
0010
0100
0010
0000
0001
0000
0010
0000
,
0001
0000
1000
0010
,
1000
0000
0001
0000
0100
0000
0010
1000
,
0010
0000
0100
0000
0001
0000
1000
0010
,
1000
0000
0001
0100
0001
0000
0010
0000
,
1000
0000
0010
0100
,
0001
0000
0010
0000
0001
0010
0001
0000
,
1000
0000
0010
0000
,
1000
0001
0000
0100
,
0000
0010
1000
0001
,
0010
0000
1000
0000
,
0010
0000
0100
0001
,
1000
0001
0100
0010
,
1000
0000
0001
0000
,
0001
0000
1000
0000
,
1000
0010
1000
0000
,
0010
0100
0010
0001
,
1000
0000
0010
0000
,
1000
0000
0001
0100
,
0001
0000
1000
0000
0001
0010
0001
0000
,
1000
0010
1000
0000
0010
0000
0100
0000
,
0001
0000
1000
0010
,
0100
0000
0010
0000
1000
0001
0100
0010
,
1000
0001
0100
1000
0001
0000
0000
1000
,
0000
0000
0010
0000
0100
0000
0000
0001
,
0000
0000
1000
0000
0010
0000
0000
0100
,
0000
0000
0010
0000
0001
0000
0010
0001
,
0000
0000
1000
0000
0010
0000
0000
1000
,
0000
0000
0010
0000
0100
0000
0000
0001
,
0000
0000
1000
0000
0001
0000
0000
0100
,
0000
0010
1000
0001
,
0010
0001
0000
0000
1000
0000
0010
0100
,
0000
0000
0010
0000
0001
0000
0001
1000
,
0000
0000
0001
0000
0100
0000
0010
1000
,
0000
0010
0010
0010
,
0100
0000
0000
0000
0001
0000
1000
0001
,
0000
0100
0010
1001
,
0000
0000
0100
0000
0001
0000
1000
0001
,
0000
0000
0010
0000
1000
0010
0100
0000
,
0001
0010
0001
0000
1000
0100
0001
0010
,
0200
0000
0310
0000
0010
1000
0001
0100
,
0020
0000
0130
0000
0010
1000
0001
0010
,
0200
0000
0310
0000
0101
1001
1001
0101
,
0101
1001
1001
0001
0010
1000
0010
0100
,
0000
0001
0010
0000
1000
0000
0010
0100
,
0000
0010
1000
0000
0001
0000
0010
0001
,
0000
0100
0010
0000
1000
0000
0001
0100
,
0000
0000
0010
0000
0001
0010
0001
0000
,
1000
0010
1000
0000
0010
0000
0100
0000
,
0010
1000
0010
0100
0001
0000
0010
0000
,
1000
0000
0001
0000
0100
0001
0000
1000
,
0000
0010
0000
0000
1000
0000
0010
1000
,
0000
0001
0100
0000
,
0001
1000
0010
0100
,
0001
0000
1000
0001
,
0100
0000
0010
0000
1000
0010
1000
0000
,
0001
0100
0001
0000
0010
0000
0001
0000
,
1000
0000
1000
0010
,
1000
0000
0001
0100
,
0010
1000
0001
0010
,
1000
0000
1000
0001
,
0100
0000
1000
0010
,
1000
0000
0001
0000
,
1000
0000
0010
0001
,
0010
0000
1000
0010
,
0100
0001
1000
0010
,
0001
0000
0010
0000
0001
0010
0001
0000
,
1000
0100
1000
2002
3003
0000
0000
0000
;

//--------------- dance-single - XLev450X*-ESP ----------------
#NOTES:
     dance-single:
     XLev450X*:
     Hard:
     16:
     0,0,0,0,0:
0000
0000
0000
0000
,
0000
0000
0000
0000
,
0000
0000
0000
0000
,
0000
0000
0000
0000
,
0000
0000
0000
0000
,
0000
0000
0000
0000
,
0000
0000
0000
0000
,
0000
0000
0000
0000
,
0000
0000
0000
1000
,
0001
0000
0010
1000
,
0000
0000
0010
0001
0010
0000
1000
0000
,
0010
0000
0100
0000
0001
1000
0001
0100
,
0010
0000
1000
0000
0010
1000
0010
0000
,
0100
0000
0010
0100
0010
0000
0001
0000
,
0010
0001
0010
0000
1000
0000
0001
0000
,
0100
0000
0010
0000
1000
0001
0100
0010
,
1000
0001
0100
0020
0030
0000
0000
0000
,
0010
0000
0001
0000
1000
0000
0001
0100
,
0000
0010
1000
0001
0010
0100
0000
0010
,
1000
0001
0010
0000
1000
0000
0010
0001
,
0000
0001
0100
0001
1000
0010
0001
1000
,
0010
0100
0001
1000
,
0010
1000
0010
0100
,
0001
0000
0010
0001
0010
0000
1000
0000
,
0010
0000
1000
0000
0001
0100
0001
0010
,
0100
1000
0001
1000
0010
0000
0001
0010
,
0000
1000
0010
1000
0001
0000
0100
0010
,
0000
1000
0001
0100
0010
0000
0001
0010
,
0000
1000
0010
1000
0010
0000
0100
1000
,
0000
0010
0100
0001
1000
0000
0010
0000
,
1000
0000
0010
1000
0010
0000
0100
0000
,
0010
0000
0001
0010
0001
0000
1000
0000
,
0001
0000
0100
0010
1000
0001
1000
0100
,
0001
0010
0100
1000
0100
0010
0001
0010
0100
0000
0001
0000
1000
0000
0010
0000
,
1000
0000
0001
0000
0100
0010
0001
1000
,
0100
0010
0100
0000
0001
0010
0001
0000
,
1000
0010
1000
0000
0100
0000
1000
0001
,
1000
0100
0001
0010
1000
0000
0001
0000
,
0100
0000
0010
0000
1000
0001
0100
0010
,
0100
1000
0001
0000
0100
0000
0010
0000
,
1000
0001
1000
0000
0010
1000
0001
0100
,
0010
1000
0001
0100
0010
0000
1000
0001
,
0000
0010
1000
0000
0010
0000
0010
0001
,
0000
0100
1000
0010
0100
0000
0001
0010
,
0000
1000
0010
0100
0001
0000
1000
0000
,
0010
0100
0001
0000
0010
0000
0001
1000
,
0000
0001
0100
0000
0010
0000
1000
0001
,
0000
0100
0010
0000
1000
0001
0100
0010
,
0000
1000
0010
0000
0101
0101
0101
0101
,
0202
0303
0010
0000
,
1000
0020
0000
1030
,
0001
0010
0001
0001
,
0010
0000
1000
0010
1000
0000
0001
0000
,
0100
0000
0000
0000
0010
0000
1000
0010
,
1000
0000
0001
0000
0100
0000
0010
0100
,
0010
0000
0001
0000
0010
0001
0010
0001
,
1000
0010
1000
0010
0100
0000
0001
0000
,
1000
0000
0000
0000
0010
1000
0010
0000
,
0100
0010
0100
0000
0001
0010
0001
0000
,
1000
0001
1000
0000
0100
0010
0100
0010
,
1000
0010
0100
0001
1000
0010
0100
0001
,
1000
0000
0001
1000
,
0010
0000
1000
0010
1000
0010
1000
0000
,
0100
0000
0000
0000
0010
0000
0001
0010
,
0001
0000
0000
0000
1000
0000
0000
0000
1000
0100
0010
0001
0010
0100
1000
0100
,
0010
0001
0010
0100
1000
0100
0010
0001
0010
0000
1000
0000
0010
0000
0001
0000
,
0000
0100
0000
0000
0010
0000
0001
0010
,
0000
1000
0010
0000
0100
0000
1000
0001
,
0000
0100
0010
1000
0001
0000
0100
0010
,
0000
1000
0010
0100
0001
0000
0010
0001
,
0000
0010
0100
0000
1000
0000
0010
0100
,
0000
0010
0001
0000
1000
0000
0001
0100
,
0000
0010
1000
0001
0100
0001
0010
1000
,
0001
0100
0010
1000
0001
0000
0010
0000
,
1000
0000
0010
0100
0010
0000
0001
0000
,
0010
0000
0001
1000
0001
0000
1000
0000
,
0010
0000
1000
0010
1000
0010
0100
0001
,
1000
0000
0010
0000
0100
0001
1000
0010
,
0100
0000
0001
0000
1000
0010
0100
0001
,
1000
0010
1000
0001
,
0100
0000
0010
0000
0001
0100
0010
1000
,
0001
0100
0010
0100
1000
0001
0100
0020
,
0000
0000
0031
0000
1000
0100
0010
0100
1000
0000
0010
0000
1000
0000
0002
0000
,
0000
0000
0103
0000
0001
0010
0100
0010
0001
0000
0010
0000
1000
0000
0002
0000
,
0000
0000
0103
0000
1000
0000
0100
0000
0001
0010
0100
1000
0100
0010
0001
0010
,
0100
1000
0100
0010
0001
0010
0100
1000
0100
0000
0000
0000
0010
0000
1000
0000
,
0100
0010
0001
0000
0010
1000
0010
0001
,
1000
0100
0001
0000
1010
0000
0010
0001
,
0100
0010
1000
0000
0010
0001
0010
1000
,
0001
0100
1000
0000
1100
0000
0101
0000
,
0110
0000
1001
0000
1000
0100
0010
0001
,
0100
0010
1000
0000
0002
0010
0013
0000
,
1000
0100
0001
0000
0100
1000
0010
1000
,
0001
0010
0001
0100
0001
0000
1000
0000
,
0010
1000
0010
0100
0010
0000
0001
0000
,
0010
0001
0010
0001
1000
0000
0010
0000
,
1000
0010
0100
0000
0010
0000
1000
0000
,
0001
0100
0010
0000
0001
0000
1000
0010
,
0000
1000
0010
0000
0100
0000
0010
0001
,
0000
0100
0010
1000
0001
0000
0100
0000
,
0010
1000
0001
0100
0010
0000
1000
0001
,
0000
0100
0010
1000
0001
0000
0100
0000
,
0001
0000
1000
0000
0010
1000
0010
0000
,
0100
0000
0010
0001
0010
0000
0010
0000
,
0100
0010
1000
0000
0010
0000
0100
0010
,
1000
0001
0000
0000
0100
0001
0100
0000
,
0010
0000
1000
0010
1000
0010
0000
0100
,
0000
0010
1000
0001
,
0100
0000
0010
0000
0001
1000
0010
0100
,
0001
1000
0010
0200
0300
0000
0000
0000
;
