#TITLE:Don't Stop The Music;
#ARTIST:tofubeats feat. 森高千里;
#ARTISTTRANSLIT:tofubeats feat. Chisato Moritaka;
#GENRE:J-Pop;
#MUSIC:Don't Stop The Music.ogg;
#BANNER:Don't Stop The Music.png;
#BACKGROUND:Don't Stop The Music-bg.png;
#CDTITLE:./CDTitles/bm IIDX 22 PENDUAL.png;
#SAMPLESTART:80.155;
#SAMPLELENGTH:15;
#SELECTABLE:YES;
#OFFSET:-0.246;
#BPMS:0=110;
#BGSTAGE:2;
#BGCHANGES:3.750=Don't Stop The Music.mp4=1.000=0=0=0=StretchNoLoop====,
99999.000=-nosongbg-=1.000=0=0=0=StretchNoLoop====;

//--------------- dance-single - XLev450X-bSP ----------------
#NOTES:
     dance-single:
     XLev450X:
     Beginner:
     2:
     0,0,0,0,0:
0000
0000
0000
0000
,
0000
0000
0000
0000
,
0000
0000
0000
0000
,
0000
0000
0000
0000
,
0000
0000
0000
0000
,
1000
0000
0010
0000
,
0001
0000
0100
0000
,
1000
0000
0010
0000
,
0100
0000
0001
0000
,
1000
0000
0000
0000
,
0001
0000
0000
0000
,
0100
0000
0010
0000
,
0000
0000
0000
0000
,
1000
0000
0001
0000
,
0100
0000
0000
0000
,
1000
0000
0010
0000
,
0100
0000
0000
0000
,
0001
0000
1000
0000
,
0010
0000
0000
0000
,
0100
0000
0001
0000
,
1000
0000
0000
0000
,
0000
0010
0000
0000
,
0000
0100
0000
0000
,
0000
0001
0000
1000
,
0000
0001
0000
0000
,
0000
0100
0000
0010
,
0000
0100
0000
0000
,
0010
0000
1000
0000
,
0001
0000
0000
0000
,
0100
0000
0010
0000
,
0100
0000
0001
0000
,
1000
0000
0000
0000
,
0100
0000
0000
0000
,
0001
0000
1000
0000
,
0010
0000
0000
0000
,
0100
0000
0001
0000
,
1000
0000
0000
0000
,
0010
0000
0100
0000
,
0010
0000
0000
0000
,
1000
0000
0001
0000
,
1000
0000
0000
0000
,
0100
0000
0010
0000
,
0100
0000
0000
0000
,
0001
0000
1000
0000
,
0010
0000
0000
0000
,
0100
0000
0001
0000
,
1000
0000
0010
0000
,
0100
0000
0001
0000
,
1000
0000
0000
0000
,
0100
0000
0001
0000
,
0100
0000
0010
0000
,
1000
0000
0001
0000
,
0010
0000
0000
0000
,
1001
0000
0000
0000
;

//--------------- dance-single - XLev450X-BSP ----------------
#NOTES:
     dance-single:
     XLev450X:
     Easy:
     5:
     0,0,0,0,0:
0000
0000
0000
0000
,
0000
0000
0000
0000
,
0000
0000
0000
0000
,
0000
0000
0000
0000
,
0000
0000
0000
0000
,
1000
0001
0010
0000
,
0100
0001
1000
0000
,
0010
0100
0001
0010
,
1000
0000
0001
0000
,
0100
0010
0100
0000
,
0001
0100
0010
0000
,
1000
0010
0100
0000
,
1001
0000
0000
0000
,
0100
0001
1000
0010
,
0100
0000
0001
0000
,
0010
1000
0001
0100
,
0010
0000
0100
0000
,
0010
1000
0010
0100
,
0001
0000
0100
0000
,
0010
1000
0001
0100
,
0010
0000
0000
0000
,
0100
0000
0001
0000
,
1000
0010
1000
0000
,
0100
0000
0010
0000
,
0001
0100
0001
0000
,
1000
0000
0001
0000
,
0100
0000
0010
1000
,
0100
0000
0001
0000
,
0010
0000
0100
0000
,
0001
0001
1000
0000
,
0010
0010
0100
0000
,
1000
0000
0001
0000
,
0100
0000
0010
0000
,
1000
0001
0100
0000
,
0010
1000
0001
0000
,
0100
0000
0001
0000
,
1000
0010
1001
0000
,
0010
0100
0010
0000
,
1000
0010
1000
0000
,
0001
0000
0100
0000
,
0001
1000
0010
0000
,
0100
0000
0001
0000
,
1000
0001
0100
0000
,
0010
1000
0010
0100
,
0001
0000
0100
0000
,
0010
0010
1000
0000
,
0100
1000
0001
0000
,
0010
0100
1000
0000
,
0001
0100
0010
0000
,
0001
0000
1000
0000
,
0010
0100
0001
0000
,
1000
0000
0001
0000
,
0010
0100
0010
0000
,
1001
1001
0000
0000
0000
0000
0000
0000
;

//--------------- dance-single - XLev450X-DSP ----------------
#NOTES:
     dance-single:
     XLev450X:
     Medium:
     7:
     0,0,0,0,0:
0000
0000
0000
0000
,
0000
0000
0000
0000
,
0000
0000
0000
0000
,
0000
0000
0000
0000
,
0000
0000
0000
0000
,
1000
0000
0001
0000
0100
0010
0100
0000
,
0001
0000
0010
0000
0001
1000
0001
0000
,
0100
0000
0010
0000
1000
0010
1000
0000
,
0100
0001
0100
0000
0010
0000
0000
0000
,
0001
1000
0100
0010
,
1000
0010
1000
0000
0100
0001
0100
0000
,
0010
1000
0001
0100
,
1001
0000
0000
0000
,
0010
0000
0100
0000
0001
1000
0010
0000
,
0100
0000
1000
0000
0001
0010
0001
0000
,
0100
1000
0010
0100
,
0010
0100
0010
0000
1000
0010
1000
0000
,
0100
0001
0100
0000
,
0010
1000
0001
0000
,
0100
0010
1000
0100
,
0010
0001
0010
0000
1000
0000
0000
0000
,
0010
0100
0001
0000
,
1000
0010
0100
0000
,
0001
0000
0100
0000
0010
0001
0010
0000
,
1000
0010
0100
0000
,
1000
0010
0100
0001
,
0010
0000
1000
0000
0010
1000
0010
0000
,
0100
0001
0010
0100
,
0010
0100
0010
0000
0001
0010
0001
0000
,
1000
0010
0100
0000
,
0001
0100
0010
0000
,
1000
0010
0100
1000
,
0001
0000
0100
0000
,
0010
0100
0001
1000
,
0010
0000
1000
0000
,
0010
0100
0010
0001
,
1000
0010
0000
0000
,
1000
0001
1000
0000
0100
0010
0100
0000
,
0010
0001
0010
0000
1000
0100
1000
0000
,
0010
0100
0001
1000
,
0010
0000
0100
0000
,
0001
1000
0010
0100
,
0001
0100
0001
0000
1000
0010
1000
0000
,
0010
0100
0001
1000
,
0010
0001
0010
1000
0010
0100
0001
0000
,
1000
0000
0001
0100
,
0010
1000
0001
0000
,
1000
0010
0100
0000
,
0001
1000
0010
0000
,
0100
0001
1000
0010
,
0100
0000
0001
0000
1000
0001
1000
0000
,
0010
0100
0010
0000
,
1000
0000
0001
0000
0100
0010
1000
0000
,
0101
1010
0000
0000
0000
0000
0000
0000
;

//--------------- dance-single - XLev450X-ESP ----------------
#NOTES:
     dance-single:
     XLev450X:
     Hard:
     10:
     0,0,0,0,0:
0000
0000
0000
0000
,
0000
0000
0000
0000
,
0000
0000
0000
0000
,
0000
0000
0000
0000
,
0000
0000
0000
0000
,
0001
1000
0010
0100
0001
0000
1000
0000
,
0010
1000
0010
0000
0100
0001
0100
0000
,
0010
1000
0001
0100
0010
1000
0001
0100
,
0010
0001
0010
0000
0100
1000
0100
0000
,
0010
0000
0100
0000
0001
1000
0010
0000
,
0101
1010
0110
0001
,
1000
0010
0100
0001
1000
0010
0100
0000
,
0000
0001
1000
0010
0100
1000
0001
0100
,
0010
1000
0001
0100
,
0010
0000
0001
0000
1000
0010
0100
0000
,
1000
0001
1000
0001
,
0010
0001
0010
1000
0010
0100
0001
0000
,
1000
0010
0100
0001
,
1000
0010
1000
0000
0100
0001
0100
0000
,
0010
0100
0001
1000
,
0010
1000
0001
0100
0010
1000
0001
0000
,
0100
0010
1000
0001
,
0100
0010
0100
0000
1000
0010
1000
0000
,
0001
0000
0100
0000
0001
0100
0010
0000
,
1000
0001
0100
0000
,
1000
0010
0100
0001
,
1000
0010
1000
0000
0100
0001
0100
0000
,
0010
1000
0001
0100
,
0010
1000
0001
0100
0010
0000
1000
0000
,
0001
0010
0001
0000
1000
0010
1000
0000
,
0100
0010
0100
0001
1000
0000
0010
0000
,
0100
0000
0001
0000
1000
0001
1000
0010
,
0100
0001
1000
0010
,
0100
0001
1000
0010
0100
0000
0001
0000
,
1000
0001
0100
0010
1000
0000
0001
0000
,
1000
0000
0001
0000
0100
0010
1000
0000
,
0010
0100
0001
0010
1000
0000
0000
0000
,
0010
0000
0100
0000
0001
1000
0001
0100
,
0010
1000
0001
1000
,
0100
0010
0100
0000
0010
0001
0010
0000
,
1000
0010
0100
0001
1000
0000
0010
0000
,
1000
0010
1000
0000
0100
0001
0100
0000
,
0010
0100
1000
0001
,
0100
0010
1000
0001
0100
0000
0010
0000
,
0000
0100
0001
1000
0010
0100
0001
1000
,
0010
0100
0010
1000
,
0001
0000
0100
0000
0010
1000
0001
0100
,
0010
1000
0001
0100
,
1000
0010
1000
0000
0100
0001
0100
0000
,
0001
1000
0010
0100
,
0001
1000
0010
0100
0001
0000
1000
0000
,
0010
1000
0001
0100
,
0010
1000
0001
0100
0010
1000
0001
0100
,
1001
0110
0000
0000
0000
0000
0000
0000
;
