#TITLE:Don't Promise Me;
#ARTIST:Reflection Theory;
#MUSIC:Don't Promise Me.ogg;
#BANNER:Don't Promise Me.png;
#BACKGROUND:Don't Promise Me-bg.png;
#CDTITLE:./CDTitles/in the groove.png;
#SAMPLESTART:42.455;
#SAMPLELENGTH:15;
#OFFSET:-0.449;
#BPMS:0=132.11
,79=66.055
,87=132.11;
#DISPLAYBPM:66:132;

//--------------- dance-single - XLev450X -破滅--bSP ----------------
#NOTES:
     dance-single:
     XLev450X -破滅-:
     Beginner:
     4:
     0,0,0,0,0:
0000
0000
0000
0000
,
0000
0000
0000
0000
,
0000
0000
0000
0000
,
0000
0000
0000
1000
,
0001
1000
0000
0010
,
1000
0001
0100
0010
,
1000
0001
0000
0100
,
0010
1000
0010
0001
,
1000
0010
0000
1000
,
0001
1000
0010
0100
,
0001
1000
0010
1001
,
0000
0000
0000
1000
,
0001
1000
0010
1000
,
0010
0100
0000
0001
,
0010
0100
1000
0001
,
0100
0010
0000
1000
,
0001
1000
0010
0100
,
0001
1000
0000
0010
,
1000
0001
0100
0010
,
1000
0010
0100
2002
,
0000
0000
0000
0000
,
0000
0000
0000
3003
0000
0000
0001
0000
,
1000
0001
0100
0001
,
0000
1010
0000
1000
,
0010
1000
0100
1000
,
0000
0011
0000
0010
,
0001
0100
1000
0010
,
0000
0110
0000
0001
,
1000
0010
0100
0001
,
0000
0011
0000
1000
,
1000
0001
1000
0100
,
0100
0010
0001
1000
,
0010
1000
0001
0100
,
0001
1000
0000
1000
,
0001
0100
1000
0010
,
1000
0001
0010
0100
,
1000
0010
0100
1000
,
0001
0100
0010
1000
,
0001
0200
0300
0001
,
1000
0010
1000
0010
,
0100
0001
0000
1000
,
0001
0100
0010
1000
,
0001
0100
0000
0010
,
1000
0010
0100
0001
,
1000
0010
0000
1000
,
1000
0001
0100
0010
,
1000
0001
0100
0010
,
0000
1000
0010
0100
,
0000
0001
0010
1000
,
0000
0001
1000
0010
,
0100
0001
0000
1000
,
1000
0001
0100
1000
,
0010
0100
0000
0010
,
1000
0010
0100
0001
,
1000
0010
0000
0001
,
1000
0010
1000
0010
,
0100
0001
0000
1000
,
0001
0100
0010
1000
,
0010
0100
0000
0001
,
1000
0001
0100
0010
,
1000
0010
0000
0100
,
0001
1000
0010
0200
,
0000
0000
0000
0000
,
0000
0000
0000
0300
;

//--------------- dance-single - XLev450X -破滅--BSP ----------------
#NOTES:
     dance-single:
     XLev450X -破滅-:
     Easy:
     7:
     0,0,0,0,0:
0000
0000
0000
0000
,
0000
0000
0000
0000
,
0000
0000
0000
0000
,
0000
0000
0000
0001
,
1000
0000
0010
1000
0010
0100
0001
0000
,
1000
0000
0001
0100
0010
0000
0001
0000
,
1000
0000
0010
1000
0010
0000
0100
0000
,
1000
0001
0000
1000
,
0010
0000
1000
0010
0100
0000
0001
0000
,
1000
0000
0010
0000
1000
0000
0001
0100
,
0001
0000
1000
0010
0100
0010
0000
1010
,
0000
0101
0000
0110
0000
1001
0010
1000
,
0001
0000
0010
0001
1000
0001
0100
0010
,
1000
0000
0010
1000
0001
0010
1000
0001
,
1000
0000
0010
1000
0010
0100
0001
0010
,
1000
0001
0100
0000
0010
0000
1000
0001
,
0100
0000
0010
0001
1000
0010
1000
0001
,
0100
0000
0010
1000
0001
0010
1000
0001
,
0100
0000
0010
1000
0001
0100
0010
1000
,
0001
0000
0010
0000
0001
0100
1000
0000
0010
0000
0100
1000
0002
0000
0000
0000
,
0000
0000
0000
0000
,
0000
0000
0003
0001
,
1000
0000
0010
1000
0010
0100
0001
0000
,
0010
0000
0001
1000
0010
0000
1000
0000
,
0001
0100
0000
0010
1000
0000
0001
0000
,
0010
0000
0000
0000
1000
0000
0000
0001
0000
0000
1000
0000
0010
0000
0000
0000
,
1000
0000
0010
1000
0010
0100
0001
0000
,
1000
0000
0001
0010
0001
0000
1000
0000
,
0010
0000
0100
0001
1000
0000
0010
0000
,
1000
0000
0000
0000
0001
0000
0000
0100
0000
0000
0010
0000
1000
0000
0000
0000
,
0001
0000
0010
0001
1000
0010
0100
0000
,
0001
0000
1000
0010
0100
0001
1000
0000
,
0001
0100
0000
0010
1000
0000
0010
0001
,
0010
0000
1000
0000
0001
0000
0000
0100
0000
0000
0010
0000
1000
0000
0000
0000
,
0001
0000
0000
0000
1000
0000
0000
0001
0000
0000
0100
0000
0010
0000
0000
0000
,
1000
0000
0000
0000
0010
0000
0000
0100
0000
0000
0001
0000
0010
0000
0001
0000
,
1000
0000
0001
0100
0020
0000
0000
0000
,
0000
0000
0000
0000
0000
0000
0000
0030
,
0000
0010
2000
3000
0002
0003
0001
1000
,
0010
1000
0000
0010
1000
0000
0001
0010
,
0001
0100
0001
0000
1000
0000
0001
1000
,
0001
1000
0000
0010
1000
0010
1000
0000
,
0010
0100
0000
0000
1001
0000
0010
1000
,
0010
1000
0000
0001
0010
0000
0100
0000
,
0010
0001
0000
1000
0001
1000
0010
0000
,
1000
0000
0010
1000
0010
0000
0010
0001
,
1000
0001
0100
0001
1000
0010
1000
0000
,
0001
0000
1000
0000
0010
1000
0010
0000
,
0100
0000
0010
0000
1000
0001
1000
0000
,
0001
0000
0100
0000
0010
1000
0001
0000
,
1000
0010
1000
0000
,
0001
0000
1000
0010
0100
0001
0000
0000
,
1000
0000
0001
0000
1000
0010
1000
0000
,
0100
0000
1000
0000
0001
0000
1000
0001
,
1000
0000
0010
0001
0010
0001
1000
0000
,
0010
1000
0001
1000
,
0010
0100
1000
0001
,
1000
0000
0010
1000
0010
0100
0001
0000
,
1000
0001
1000
0010
,
1000
0000
1000
0000
0001
0000
0100
0001
,
1000
0000
1000
0010
1000
0000
0010
0000
,
0100
0001
1000
0020
,
0000
0000
0000
0000
,
0000
0000
0000
0030
;

//--------------- dance-single - XLev450X -破滅--DSP ----------------
#NOTES:
     dance-single:
     XLev450X -破滅-:
     Medium:
     12:
     0,0,0,0,0:
0000
0000
0000
0000
,
0000
0000
0000
0000
,
0000
0000
0000
0000
,
0000
0000
0000
0001
,
1000
0010
1000
0000
0010
0000
0100
0000
,
0001
0010
1000
0000
0001
0000
1000
0001
,
0100
0000
0010
0000
1000
0000
0001
0100
,
0010
1000
0001
0000
1000
0000
0001
0100
,
0010
1000
0000
0001
0000
1000
0010
1000
,
0010
0100
0000
0001
0000
1000
0010
0100
,
0001
0000
0000
0000
0000
0000
0000
0000
1000
0000
0000
0000
0000
0000
0000
0000
0000
0000
0000
0000
0000
0000
0000
0000
0010
0000
0000
0000
0000
0000
0000
0000
0100
0000
0000
0000
0000
0000
0000
0000
0011
0000
0000
0000
0000
0000
0000
0000
0000
0000
0000
0000
0000
0000
0000
0000
0101
0000
0000
0000
0000
0101
0000
0000
,
0000
0000
0000
0000
0000
0000
0000
0000
1010
0000
0000
0000
0000
1010
0000
0000
0000
0000
0000
0000
0000
0000
0000
0000
0110
0000
0000
0000
0000
0110
0000
0000
0000
0000
0000
0000
0000
0000
0000
0000
1001
0000
0000
0000
0000
1001
0000
0000
0010
0000
0000
0000
0000
0000
0000
0000
1000
0000
0000
0000
0000
0000
0000
0000
,
1000
0001
0010
0000
1000
0000
0010
0001
,
1000
0010
0100
0001
1000
0000
0010
0000
,
0100
0000
0001
1000
0010
1000
0000
0001
,
0100
0000
0010
0000
1000
0000
0001
0010
0001
0000
1000
0000
0001
0000
0000
0000
,
1000
0000
0010
1000
0001
0010
0000
1000
,
0001
0000
0100
0010
1000
0001
0000
1000
,
0001
0100
0010
0000
1000
0000
0001
1000
,
0010
0000
1000
0000
0001
0010
0100
1000
0010
0001
1000
0100
0002
0000
0000
0000
,
0000
0000
0000
0000
,
0000
0000
0000
0000
0000
0000
0000
0000
0000
0000
0000
0000
0000
0000
0000
0000
0003
0000
0000
0000
0000
0000
0000
0000
0000
0000
0000
0000
1000
0000
0000
0000
0100
0000
0000
0010
0000
0001
0000
0000
0000
0100
0000
0000
1000
0000
0010
0000
1000
0000
0000
0000
0000
0000
0000
0000
0000
0000
0000
0000
0000
0000
0000
0000
,
0001
0000
1000
0010
1000
0010
0001
0010
,
1000
0001
0100
0010
,
1000
0001
0000
0100
0010
0000
1000
0000
,
0001
0000
0000
0000
0100
0000
0000
0010
0000
0000
1000
0000
0010
0000
0000
0000
,
0001
0000
1000
0000
0001
0000
1000
0010
,
1000
0001
0100
0000
0010
0000
1000
0000
,
0001
0010
0000
1000
0001
0000
0100
0010
,
1000
0000
0001
0000
0100
0000
0000
0010
0000
0000
1000
0000
0001
0000
0000
0000
,
1000
0000
0010
1000
0001
0100
0010
0000
,
1000
0000
0001
0100
0010
1000
0001
0000
,
1000
0010
0000
0100
0010
0000
1000
0001
,
0010
0000
1000
0000
0001
0000
0000
0100
0000
0000
0010
0000
1000
0000
0000
0000
,
0001
0000
1000
0000
0010
0000
0000
0100
0000
0000
0001
0000
1000
0000
0000
0000
,
0001
0000
1000
0010
1000
0000
0001
0000
,
0100
0000
0010
0001
1000
0000
0001
0000
,
0100
0000
1000
0001
1000
0010
0100
0001
,
1000
0000
0010
0001
0100
0000
1000
0000
0002
0000
0003
0000
1000
0000
0001
0000
,
1000
0010
0000
1000
0010
0100
0001
0010
,
1000
0001
0000
0100
0001
1000
0000
0001
,
1000
0010
0000
1000
0100
0001
0000
1000
,
0001
1000
0010
1000
0010
0000
0100
0000
,
1000
0001
1000
0000
0010
0000
1000
0000
,
0001
0000
0100
0000
0010
1000
0001
0000
,
0100
0000
1000
0000
0010
0000
1000
0001
,
0100
0000
0010
0000
1000
0100
0001
0000
0100
0001
0010
0000
1000
0000
0000
0000
,
0001
0000
1000
0000
0010
0100
0000
0001
,
1000
0000
0010
0000
0100
0001
0000
1000
,
0001
0000
0100
0010
1000
0001
0000
1000
,
0010
0000
1000
0000
0010
0000
0000
1000
,
0001
0000
1000
0000
0010
1000
0001
0000
,
0100
0000
0010
0000
1000
0001
0100
0000
,
0010
0000
0000
0000
1000
0000
0001
0000
0100
0000
0001
0000
1000
0001
0010
0100
,
1000
0100
0001
0010
1000
0001
0010
1000
0100
0010
0001
0100
1000
0000
0001
0000
,
1000
0000
0010
0000
0100
0000
0000
0001
0000
0000
1000
0000
0000
0000
0010
0000
,
0100
0000
1000
0000
0001
0000
0000
0100
0000
0000
0010
0000
0000
0000
1000
0000
,
0001
0000
0100
0000
0010
0000
0000
0001
0000
0000
1000
0000
0000
0000
0010
0000
,
0100
0000
0001
0000
1000
0000
0000
0010
0000
0000
0100
0000
0000
0000
1000
0000
,
0001
0000
1000
0000
1000
0000
0000
0001
0000
0000
0100
0000
0000
0000
0010
0000
,
1000
0000
0010
0000
0100
0000
0000
1000
0000
0000
0001
0000
0000
0000
0100
0000
,
0010
0000
1000
0000
0001
0000
0000
0100
0000
0000
0001
0000
0000
0000
1000
0000
,
0000
0010
0000
1000
0000
0100
0020
0000
,
0000
0000
0000
0030
;

//--------------- dance-single - XLev450X -破滅--ESP ----------------
#NOTES:
     dance-single:
     XLev450X -破滅-:
     Hard:
     15:
     0,0,0,0,0:
0000
0000
0000
0000
,
0000
0000
0000
0000
,
0000
0000
0000
0000
,
0000
0000
0000
0000
0000
0000
1000
0001
,
0100
0000
0010
0000
0001
0000
1000
0001
0010
0000
0000
0000
0001
0000
0010
0000
,
1000
0000
0001
0000
0100
0000
0010
1000
0001
0000
0000
0000
0010
0000
0001
0000
,
0010
0000
1000
0010
0100
0000
0010
0001
,
1000
0000
0010
0000
0100
0000
0001
1000
0010
0001
0100
1000
0001
0000
0010
0000
,
0001
0000
1000
0010
0100
0000
0001
0010
,
0001
0000
1000
0000
0010
0000
0001
0010
0001
0000
1000
0000
0010
0000
1000
0010
,
0100
0000
0000
0000
0000
0000
0000
0000
0001
0000
0000
0000
0000
0000
0000
0000
0100
0000
0000
0000
0000
0000
0000
0000
1000
0000
0000
0000
0001
0000
0000
0000
0010
0000
0000
0000
0000
0000
0000
0000
0100
0000
0000
0000
0000
0000
0000
0000
0011
0000
0000
0000
0000
0000
0000
0000
0101
0000
0000
0000
0000
0001
0000
0000
,
0110
0000
0000
0000
0000
0000
0000
0000
1010
0000
0000
0000
0000
0010
0000
0000
1100
0000
0000
0000
0000
0000
0000
0000
0110
0000
0000
0000
0000
0100
0000
0000
1001
0000
0000
0000
0000
0000
0000
0000
0010
0000
0000
0000
0000
0100
0000
0000
1000
0000
0000
0000
0000
0000
0000
0000
0010
0000
0000
0000
0000
0000
0000
0000
,
0100
0000
0001
0000
1000
0000
0001
0100
0001
0000
1000
0000
0010
0000
0001
1000
,
0010
0000
0100
0000
0001
0000
0010
0001
0010
0000
1000
0000
0010
0000
0100
0010
,
1000
0000
0001
0000
1000
0000
0001
0100
0001
0000
1000
0000
0000
0000
0001
0000
,
1000
0000
0010
0000
0001
0000
1000
0010
0100
0000
0001
0000
1000
0000
0100
0000
,
0010
0000
0001
0000
0010
0000
1000
0001
0100
0000
0010
0000
0001
0000
1000
0000
,
0010
0000
0100
0000
0001
0000
1000
0001
0100
0000
0010
0000
0001
0000
1000
0001
,
0010
0000
0100
0000
0001
0000
1000
0001
0010
0000
0100
0000
0001
0000
1000
0000
,
0010
0000
0100
0000
0001
0010
0100
0010
0100
1000
0010
1000
0020
0000
0000
0000
,
0000
0000
0000
0000
,
0000
0000
0000
0000
0000
0000
0000
0000
0000
0000
0000
0000
0000
0000
0000
0000
0000
0000
0000
0000
0000
0000
0000
0000
0000
0000
0000
0000
0000
0000
0000
0000
0000
0000
0000
0000
0000
0000
0000
0000
0000
0000
0000
0000
0000
0000
0000
0000
0000
0000
0000
0000
0000
0000
0000
0000
0000
0000
0000
0000
0030
0000
0000
0000
0000
0000
0000
0000
0000
0000
0000
0000
0000
0000
0000
0000
0000
0000
0000
0000
0000
0000
0000
0000
1000
0000
0000
0100
0000
0000
0001
0000
0000
0000
0000
0000
0010
0000
0000
0000
0000
0000
0000
0000
0000
0100
0000
0000
0000
0000
0000
0000
1000
0000
0000
0000
0000
0000
0000
0000
0000
0000
0000
0001
0000
0000
0000
0000
0000
1000
0000
0000
0000
0000
0000
0100
0000
0000
0000
0000
0000
0000
0000
0000
0010
0000
0000
0000
0000
0000
0000
0000
0000
0000
0000
0000
0001
0000
0000
0000
0000
0000
0000
0000
0000
0000
0000
0000
1000
0000
0000
0000
0000
0000
0000
0000
0000
0000
0000
0000
0001
0000
0000
0000
0000
0000
0000
0000
0000
0000
0000
0000
,
0100
0000
0010
1000
0001
0000
0010
1000
0100
0000
0001
0000
0010
0000
0001
1000
,
0010
0000
0100
0001
0100
0000
0010
1000
0001
0000
0100
0000
0010
0000
0000
0000
,
1000
0000
0001
0000
0100
0000
0000
0000
0001
0000
1000
0000
0010
0000
1000
0010
,
1000
0000
0001
0000
0100
0000
0010
0001
1000
0000
0001
0000
0100
0000
0001
1000
,
0010
0000
0100
0001
1000
0000
0010
0100
0001
0000
1000
0010
0001
0000
0100
0001
,
0100
0000
0100
1000
0100
0000
0010
0000
0100
0000
0001
0000
1000
0000
0010
0001
,
0010
0000
1000
0010
1000
0000
0010
0100
0010
0000
1000
0001
1000
0000
0001
0100
,
0001
0000
1000
0001
0010
1000
0000
0100
0000
0001
0000
1000
0010
0000
1000
0010
,
1000
0000
0001
0100
0010
0000
1000
0001
1000
0000
0010
0100
0010
0000
1000
0001
,
1000
0000
0001
0100
0001
0000
1000
0010
1000
0000
0010
0100
0001
0000
1000
0000
,
0001
0000
0100
0000
0010
0000
1000
0001
1000
0000
0010
0000
0100
0000
0001
0000
,
1000
0000
0010
0001
1000
0000
0010
0001
0010
0000
1000
0000
0010
0000
0100
0010
,
1000
0000
0001
0000
0100
0000
0010
1000
0001
0000
0100
0000
0010
0000
1000
0001
,
0100
0000
0010
0000
1000
0000
0001
0100
0010
0000
1000
0000
0001
0000
0000
0000
,
0100
0001
0000
1000
0010
0000
0100
0001
,
1000
0000
0010
1000
0010
0000
0100
0000
0001
0000
0000
0000
1000
0000
0000
0000
,
0001
0000
0100
0001
0100
0000
0010
0000
1000
0000
0000
0000
0001
0000
0000
0000
,
0100
0000
0000
0000
0001
0000
1000
0000
0001
1000
0100
0010
0000
0000
1000
0000
,
0010
0000
0100
0000
0001
0000
1000
0010
1000
0001
0000
0100
0000
0000
0001
0000
,
1000
0000
0010
0000
0100
0000
0001
0000
1000
0010
0000
0100
0000
0000
0001
0000
,
0010
0000
0001
0000
1000
0000
0010
0000
0001
0100
0010
1000
0000
0000
0001
0000
,
0010
0001
1000
0010
0001
1010
0000
0100
,
0001
0000
0010
0000
0001
0000
1000
0000
0010
0100
0001
1000
0000
0000
0010
0000
,
0100
0000
0001
0000
0010
0000
0001
0000
1000
0010
0100
0000
0000
0000
0001
0010
,
1000
0000
0010
0000
0100
0001
1000
0010
0100
0001
1000
0010
0100
0000
0000
0000
,
0001
0000
0010
0001
1000
0000
0010
0100
,
0001
0000
0000
1000
0000
0000
0010
0000
0100
0000
0001
0000
0000
0010
0000
0000
,
0001
0000
1000
0000
0010
0000
0100
0001
1000
0000
0010
0000
0000
0000
0100
0000
,
0001
0000
1000
0000
0010
0000
0100
0001
1000
0000
0000
0000
0000
0000
0010
0000
,
0001
0000
1000
0000
0010
0000
0100
0001
1000
0000
0010
0000
0000
0000
0010
0000
,
0001
0000
1000
0000
0010
0000
0100
0001
1000
0000
0010
0000
0000
0000
1000
0000
,
0001
0000
0100
0000
0010
0000
1000
0000
0001
0000
0100
0000
0001
1000
0010
0100
,
0001
1000
0010
0100
0001
1000
0010
0100
0001
0010
1000
0100
0001
0000
1000
0000
,
0010
0000
0001
0000
1000
0000
0000
0001
0000
0000
0100
0000
0000
0000
0010
0000
,
1000
0000
0010
0000
0100
0000
0000
0001
0000
0000
1000
0000
0010
0000
0100
0000
,
0001
0000
1000
0000
0010
0000
0000
0001
0000
0000
1000
0000
0000
0000
0010
0000
,
0000
0000
0001
0000
1000
0000
0000
0010
0000
0000
0100
0000
0001
0000
1000
0000
,
0010
0000
0100
0000
0001
0000
0000
1000
0000
0000
0001
0000
0000
0000
0010
0000
,
0100
0000
0001
0000
1000
0000
0000
0010
0000
0000
0100
0000
0000
0000
0001
0000
,
1000
0000
0010
0000
0100
0000
0000
0001
0000
0000
1000
0000
0010
0000
0100
0000
,
0001
0000
1000
0000
0010
0000
0100
0001
1000
0100
0001
1000
0200
0000
0000
0000
,
0000
0000
0000
0300
;

//--------------- dance-single - XLev450X -破滅--CSP ----------------
#NOTES:
     dance-single:
     XLev450X -破滅-:
     Challenge:
     17:
     0,0,0,0,0:
0000
0000
0000
0000
,
0000
0000
0000
0000
,
0000
0000
0000
0000
,
0000
0000
0000
0000
0000
0000
0001
1000
,
0010
0000
0100
0000
1000
0000
0001
0000
0100
0001
0010
0100
1000
0001
0100
1000
,
0001
0000
1000
0000
0010
0000
0100
0000
1000
0001
1000
0001
0100
0000
1000
0000
,
0100
0000
1000
0000
0001
0000
0100
0000
0010
0001
1000
0010
0100
0000
1000
0000
,
0001
0000
0100
0000
0010
0000
1000
0001
1000
0000
0010
0000
1000
0000
0100
0000
,
1000
0001
1000
0000
0001
0000
0100
0000
0010
0100
0010
0000
1000
0000
0100
0000
,
1000
0001
1000
0000
0100
0000
1000
0100
1000
0000
0001
0000
0100
0000
0001
0100
,
0001
0000
0000
0000
1000
0000
0000
0000
0010
0000
0000
0000
0001
0000
1000
0000
0001
0000
0000
0000
0010
0000
0000
0000
0100
0000
0010
0000
0001
1000
0010
0000
,
0100
0000
1000
0000
0001
0010
1000
0000
0100
0000
0010
0000
0001
0100
1000
0000
0001
0000
0010
0000
0100
0010
1000
0100
0001
0000
0000
0000
0100
0000
0000
0000
,
0010
0000
1000
0000
0001
0000
1000
0010
1000
0100
0010
0001
0000
0000
1000
0001
,
0100
0000
0010
0000
1000
0000
0100
1000
0100
1000
0100
0001
0000
0000
0010
0100
,
0010
0000
1000
0000
0001
0000
1000
0010
1000
0000
0001
0000
0100
0000
1000
0000
,
0001
0000
0100
0000
1000
0000
0001
0100
0001
0100
0001
0100
0001
0000
0010
0000
,
0100
0000
1000
0000
0100
0000
0001
1000
0001
1000
0010
0100
0000
0000
0001
0000
,
0100
0000
0010
0000
1000
0000
0001
1000
0001
1000
0100
0001
0000
0000
0001
1000
,
0001
0000
0010
0000
1000
0000
0001
1000
0001
0000
0010
0000
0100
0010
0001
1000
,
0001
0000
0010
0000
0001
0000
0100
0000
1000
0001
0100
0000
0010
0000
0100
0000
0010
1000
0001
0000
0100
1000
0001
0010
0200
0000
0000
0000
0000
0000
0000
0000
,
0000
0000
0000
0000
,
0000
0000
0000
0000
0000
0000
0000
0000
0000
0000
0000
0000
0000
0000
0000
0000
0000
0000
0000
0000
0000
0000
0000
0000
0000
0000
0000
0000
0000
0000
0000
0000
0000
0000
0000
0000
0000
0000
0000
0000
0000
0000
0000
0000
0000
0000
0000
0000
0000
0000
0000
0000
0000
0000
0000
0000
0000
0000
0000
0000
0300
0000
0000
0000
0000
0000
0000
0000
0000
0000
0000
0000
0000
0000
0000
0000
0000
0000
0000
0000
0000
0000
0000
0000
1000
0000
0000
0100
0000
0000
0001
0000
0000
0000
0000
0000
0010
0000
0000
0000
0000
0000
0000
0000
0100
0000
0000
0000
0000
0000
0000
0000
1000
0000
0000
0000
0000
0001
0000
0000
0000
0000
0000
0000
0100
0000
0000
0000
0000
0010
0000
0000
1000
0000
0000
0100
0000
0000
0001
0000
0000
0000
0000
0000
1000
0000
0000
0000
0000
0000
0000
0000
0000
0000
0000
0000
1000
0000
0000
0000
0000
0000
0000
0000
0000
0000
0000
0000
0100
0000
0000
0000
0000
0000
0000
0000
0000
0000
0000
0000
0010
0000
0000
0000
0000
0000
0000
0000
0000
0000
0000
0000
,
0001
0010
0100
1000
0010
0100
0010
0100
0010
0000
0110
0000
0001
0010
0100
0010
,
0100
1000
0001
0100
0010
0100
0001
0010
0001
0000
1001
0000
0001
1000
0010
1000
,
0001
0010
0001
0100
0001
0010
0100
0010
0001
0000
1100
0000
0010
0100
0001
0010
,
0001
0010
0100
1000
0010
1000
0100
0010
0001
0000
0011
0000
0001
1000
0100
1000
,
0100
0010
0001
0010
0001
0010
0100
1000
0100
1000
0010
0100
0010
0100
0010
1000
,
0001
0000
0000
0100
0000
0000
0010
0000
0000
0100
0000
0000
0010
0000
0000
1000
0000
0000
0010
0000
0000
1000
0000
0000
0100
0000
0000
1000
0000
0000
0100
0000
0000
0010
0000
0000
0100
0000
0001
1000
0000
0000
0010
0000
0000
1000
0000
0000
,
0100
0000
0000
1000
0000
0000
0010
0000
0000
0100
0000
0000
0010
0000
0001
1000
0000
0000
0010
0000
0000
1000
0000
0000
0001
0000
0000
0010
0000
0000
0100
0000
0000
1000
0000
0000
0100
0000
0001
1000
0000
0000
0001
0000
0000
0100
0000
0000
,
0010
0000
0000
0000
0000
0000
0000
0000
1000
0000
0000
0000
0100
0000
0000
0000
0000
0000
0000
0000
0000
0000
0000
0000
0001
0000
0000
0000
0000
0000
0000
0000
0000
0000
0000
0000
0100
0000
0000
0000
0000
0000
0000
0000
0000
0000
0000
0000
1000
0000
0000
0000
0000
0000
0000
0000
0010
0000
0000
0000
0001
0000
0000
0000
0000
0000
0000
0000
0000
0000
0000
0000
0000
0000
0000
0000
0000
0000
0000
0000
0000
0000
0000
0000
0100
0000
0000
0000
0000
0000
0000
0000
0000
0000
0000
0000
0000
0000
0000
0000
0000
0000
0000
0000
0000
0000
0000
0000
0010
0000
0000
0000
0000
0000
0000
0000
0000
0000
0000
0000
1000
0000
0000
0000
0000
0000
0000
0000
0001
0000
0000
0000
0000
0000
0000
0000
0010
0000
0000
0000
0000
0100
0000
0000
0010
0000
0000
0000
0000
0000
0000
0000
0000
0000
0000
0000
0001
0000
0000
0000
0000
0000
0000
0000
0000
0000
0000
0000
0010
0000
0000
0000
0000
0000
0000
0000
0000
0000
0000
0000
0100
0000
0000
0000
0000
0000
0000
0000
0000
0000
0000
0000
,
1000
0100
0010
0001
0100
0010
0100
0010
0100
0000
0110
0000
1000
0100
0010
0100
,
0010
0001
1000
0010
0100
0010
1000
0100
1000
0000
1001
0000
1000
0001
0100
0001
,
1000
0100
1000
0010
1000
0100
0010
0100
1000
0000
0011
0000
0100
0010
1000
0100
,
1000
0100
0010
0001
0100
0001
0010
0100
1000
0000
1100
0000
0010
0100
0001
1000
,
0100
0010
0001
0100
0010
0100
0010
1000
0001
0100
0001
0010
0100
1000
0001
1000
,
0010
0000
0000
1000
0000
0000
0001
0000
0000
0100
0000
0000
0010
0000
0000
0100
0000
0000
0001
0000
0000
1000
0000
0000
0010
0000
0000
0100
0000
0000
0010
0000
0000
0100
0000
0000
0001
0000
1000
0010
0000
0000
0001
0000
0000
0100
0000
0000
,
0010
0000
0000
1000
0000
0000
0001
0000
0000
1000
0000
0000
0100
0000
1000
0010
0000
0000
0001
0000
0000
0010
0000
0000
0100
0000
0000
1000
0000
0000
0010
0000
0000
0100
0000
0000
0010
0000
0001
1000
0000
0000
0100
0000
0000
1000
0000
0000
,
0010
0000
0000
0100
0000
0000
0010
0000
0000
1000
0000
0000
0100
0000
0001
1000
0000
0000
0100
0000
0000
0010
0000
0000
0100
0000
0000
1000
0000
0000
0001
0000
0000
0100
0000
0000
0001
0000
0010
1000
0000
0000
0100
0000
0000
1000
0000
0000
,
0001
0000
1000
0010
0000
0000
0001
0000
0000
0100
0000
0000
0001
0000
1000
0100
0000
0000
0010
0000
0000
1000
0000
0000
0010
0000
0001
0100
0000
0000
0010
0000
0000
1000
0000
0000
0100
0000
0010
0000
0000
0000
0001
0000
0000
0000
0000
0000
,
0010
0000
0100
0000
1000
0000
0001
0000
1000
0001
0010
0100
1000
0000
0001
0000
,
0100
0000
0010
0000
1000
0000
0001
0100
0001
1000
0000
0010
0000
0100
1000
0000
,
0001
0000
0100
0000
0010
0000
1000
0000
0001
0100
0000
0010
0000
0001
1000
0000
,
0100
0000
1000
0000
0001
0000
0100
0000
1000
0010
0100
0001
0010
0000
1000
0000
,
0100
0000
1000
0000
0001
0000
0100
0000
1000
0000
0001
0100
0001
0000
0010
0000
,
1000
0000
0100
0000
1000
0000
0001
0000
0100
0010
1000
0001
1000
0000
0100
0000
,
0010
0000
1000
0000
0100
0000
1000
0000
0001
0100
0010
0000
0100
0010
0100
1000
,
0010
0100
0010
1000
0100
1000
0001
0010
0100
0010
0001
0100
0010
0000
0000
0000
,
1000
0000
0100
1000
0001
0000
0100
0010
,
1000
0000
0000
0001
0000
0000
0100
0000
0010
0000
1000
0000
0100
0000
0001
0100
,
1000
0000
0001
0000
0100
0000
0010
1000
0001
0000
0100
0000
0000
0000
0010
0001
,
1000
0000
0001
0000
0100
0000
0010
1000
0001
0000
0110
0000
0000
0000
0100
0000
,
1000
0000
0001
0000
0100
0000
0010
1000
0001
0000
0100
0000
0000
0000
0100
0000
,
1000
0000
0001
0000
0100
0000
0010
1000
0001
0000
0100
0000
0000
0000
0001
0000
,
1000
0000
0010
0000
0100
0000
0001
0000
1000
0000
0010
0000
1000
0001
0100
0010
,
1000
0001
0100
0010
1000
0001
0100
0010
1000
0100
0001
0010
1000
0000
0001
0000
,
0100
0000
1000
0000
0001
0000
0000
1000
0000
0000
0010
0000
0000
0000
0100
0000
,
0001
0000
0100
0000
0010
0000
0000
1000
0000
0000
0001
0000
0100
0000
0010
0000
,
1000
0000
0001
0000
0100
0000
0000
1000
0000
0000
0001
0000
0000
0000
0100
0000
,
0000
0000
1000
0000
0001
0000
0000
0100
0000
0000
0010
0000
1000
0000
0001
0000
,
0100
0000
0010
0000
1000
0000
0000
0001
0000
0000
1000
0000
0000
0000
0100
0000
,
0010
0000
1000
0000
0001
0000
0000
0100
0000
0000
0010
0000
0000
0000
1000
0000
,
0001
0000
0100
0000
0010
0000
0000
1000
0000
0000
0001
0000
0100
0000
0010
0000
,
1000
0000
0001
0000
0100
0000
0010
1000
0001
0010
1000
0001
0020
0000
0000
0000
,
0000
0000
0000
0030
;
