#TITLE:Devilz Staircase;
#ARTIST:OSTER project;
#GENRE:SYMPHONIC BREAK BEATS;
#MUSIC:Devilz Staircase.ogg;
#BANNER:Devilz Staircase.png;
#BACKGROUND:Devilz Staircase-bg.png;
#CDTITLE:./CDTitles/bm IIDX 20 tricoro.png;
#SAMPLESTART:21.861;
#SAMPLELENGTH:15;
#OFFSET:1.166;
#BPMS:0=185;
#STOPS:67.667=0.973;
#BGCHANGES:0=Devilz Staircase.mp4=1.000=0=0=0=StretchNoLoop====,
99999.000=-nosongbg-=1.000=0=0=0=StretchNoLoop====;
#BGSTAGE:33;

//--------------- dance-single - X project-bSP ----------------
#NOTES:
     dance-single:
     X project:
     Beginner:
     4:
     0,0,0,0,0:
0000
0000
0000
0000
,
0000
0000
0000
0000
,
0000
0000
0000
0000
,
0000
0000
0000
0000
,
0000
0000
0000
0000
,
0000
0000
0000
0000
,
0000
0000
0000
0000
,
0000
0000
0000
0000
,
0000
0000
0000
0000
,
0001
0000
0001
0000
,
0001
0000
0000
0000
,
1000
0000
1000
0000
,
1000
0000
0000
0000
,
0010
0000
0010
0000
,
0010
0000
0000
0000
,
0100
0000
0100
0000
,
0100
0000
0000
0000
,
0000
2002
0000
0000
,
3003
0000
0000
0220
,
0000
0000
0330
0000
,
0000
0001
0000
1000
,
0000
0100
0000
0001
,
0000
0010
0000
1000
,
0000
0010
0000
0000
,
0000
1000
0000
0001
,
0000
0100
0000
0010
,
0000
1000
0000
0001
,
0000
1000
0000
0000
,
0000
0100
0000
0010
,
0000
0100
0000
0000
,
0000
1000
0000
0100
,
0000
1000
0000
0000
,
0000
0001
0000
0010
,
0000
0001
0000
0000
,
0000
0010
0000
0100
,
0000
0010
0000
0000
,
0000
1001
0000
0000
,
0000
0000
0000
0000
,
0000
0110
0000
0000
,
0000
0000
0000
0000
,
0000
0001
0000
0010
,
0000
0100
0000
0000
,
0000
0000
0000
0000
,
0000
1000
0000
0100
,
0000
0010
0000
0000
,
0000
0000
0000
0000
,
0000
0001
0000
0010
,
0000
0100
0000
1000
,
0000
1000
0000
0100
,
0000
0010
0000
0001
,
0000
0000
0000
2002
,
0000
0000
0000
0000
,
3003
0220
0000
0000
,
0000
0330
0000
0000
,
0000
0001
0000
0010
,
0000
0100
0000
1000
,
0000
1000
0000
0100
,
0000
0010
0000
0001
,
0000
1000
0000
0001
,
0000
1000
0000
0000
,
0000
0010
0000
0100
,
0000
0010
0000
0000
,
0000
1000
0000
0010
,
0000
1000
1000
0100
,
0000
0001
0000
1000
,
0000
1001
0000
0000
,
0000
0001
0000
0001
,
0000
0010
0100
0000
,
0000
1000
0000
1000
,
0000
0100
0010
0000
,
0000
1000
0000
0001
,
0000
0001
0010
0100
,
0000
1000
0000
0000
,
0000
0001
0000
0000
,
0000
0001
0010
0100
,
1000
0001
0010
0100
,
1000
1000
0100
0010
,
0001
1000
0100
0010
,
0001
1000
0001
1000
,
0001
0110
2002
0000
,
0000
0000
0000
0000
,
0000
0000
0000
0000
,
0000
0000
0000
0000
,
0000
0000
0000
0000
0000
0000
0000
0000
0000
0000
0000
0000
0000
0000
0000
0000
0000
0000
0000
0000
0000
0000
0000
0000
0000
0000
0000
0000
0000
0000
0000
0000
0000
0000
0000
0000
0000
0000
0000
0000
0000
0000
0000
0000
0000
0000
0000
0000
3003
0000
0000
0000
0000
0000
0000
0000
0000
0000
0000
0000
0000
0000
0000
0000
0000
0000
0000
0000
0000
0000
0000
0000
0000
0000
0000
0000
0000
0000
0000
0000
0000
0000
0000
0000
0000
0000
0000
0000
0000
0000
0000
0000
0000
0000
0000
0000
;

//--------------- dance-single - X project-BSP ----------------
#NOTES:
     dance-single:
     X project:
     Easy:
     8:
     0,0,0,0,0:
0000
0000
0000
0000
,
0000
0000
0000
0000
,
0000
0000
0000
0000
,
0000
0000
0000
0000
,
0000
0000
0000
0000
,
0000
0000
0000
0000
,
0000
0000
0000
0000
,
0000
0000
0000
0000
,
0000
0000
0000
0000
,
0001
0000
0000
1000
0000
0000
,
0010
0100
0001
1000
,
0010
0000
0000
1000
0000
0000
,
0001
1000
0001
0100
,
0010
0000
0000
1000
0000
0000
,
0001
1000
0100
0001
,
1000
0000
0000
0010
0000
0000
,
1000
0001
0100
0010
,
0000
2002
3003
0220
,
0330
2020
3030
0022
,
0033
2200
3300
2002
,
0000
3003
0001
0000
1000
0000
0010
1000
,
0010
0000
0100
0000
1000
0000
0001
1000
,
0001
0000
0010
0001
0010
0000
1000
0010
,
1000
0001
1000
0001
,
0100
0000
1000
0000
0010
1000
0010
0000
,
0100
0000
1000
0000
0001
1000
0001
0000
,
0010
0000
1000
0000
0100
1000
0100
0000
,
0001
0010
1000
0001
,
0100
0000
0001
0100
0001
0000
0010
1000
,
0010
0100
1000
0001
,
1000
0000
0001
1000
0010
1000
0100
0001
,
1000
0010
0000
0000
1000
0000
0001
0000
,
0100
0000
0001
0000
0000
1000
1000
0000
,
0000
0010
0010
0000
0000
0100
0001
0000
,
1000
0001
1000
0010
,
0100
1000
0100
0000
0001
0000
0010
0000
,
0001
0000
0001
0101
0000
0000
1000
1010
,
0000
0000
0010
0110
0000
0000
2002
0000
,
3003
0000
0010
0000
1000
0000
0001
0010
,
0100
1000
0001
0000
1000
0000
1000
0100
,
0010
0001
2002
0000
0000
0000
3003
0000
,
0000
1000
0010
1000
,
0000
0000
0000
0001
,
0010
0100
0000
0000
,
0000
1000
0001
1000
,
0000
0000
0010
0100
,
0010
0001
0010
0000
1000
0000
0001
0000
,
1000
0000
0010
1000
0010
0000
0100
0000
,
1000
0000
0001
0000
1000
0001
1000
0000
,
0010
1000
0010
0000
0100
0000
0001
0000
,
1000
0001
1000
0001
,
0100
0100
0100
0010
,
0100
0000
1000
0100
0001
0000
1000
0010
,
1000
0000
0001
0010
0100
1000
0001
0010
,
0100
1000
0001
0000
1000
0000
0010
1000
,
0010
0100
1000
0001
,
0100
0001
0100
0000
0010
0000
1000
0000
,
0010
1000
0101
1010
,
0010
0000
0100
0000
1000
0010
1000
0000
,
0001
0000
0001
1000
0001
0000
1000
0000
,
0001
0000
1000
0000
0010
1000
0010
0000
,
0100
0000
0010
0000
0001
0010
0001
0000
,
1000
0000
0001
0000
1000
0010
1000
0000
,
0100
0001
0100
0000
1000
0000
0001
0000
,
0100
1000
0000
0001
,
1000
1010
0000
0101
,
0000
0000
0000
1001
0000
0000
1000
0100
0010
0001
0000
0000
,
1000
0100
0010
0001
0000
0000
1001
0000
0000
0000
0000
0000
,
0000
0000
0000
0110
0000
0000
0001
0010
0100
1000
0000
0000
,
0001
0010
0100
1000
0000
0000
0110
0000
0000
0000
0000
0000
,
0000
0001
1000
0010
,
0100
1000
0001
0100
,
0001
0100
0001
0000
0000
0000
1000
0000
,
0000
2002
0000
0000
,
0000
3003
0001
0000
1000
0000
0001
0000
,
1000
0001
1000
0001
,
0001
0000
1000
0100
0010
0001
0001
0010
,
0100
1000
1000
0100
0010
0001
0001
0010
,
0100
1000
0220
0000
0000
0000
0000
0330
,
0202
0303
2002
0000
,
0000
0000
0000
0000
,
0000
0000
0000
0000
,
0000
0000
0000
0000
,
0000
0000
3003
0000
;

//--------------- dance-single - X project-DSP ----------------
#NOTES:
     dance-single:
     X project:
     Medium:
     12:
     0,0,0,0,0:
0000
0000
0000
0000
,
0000
0000
0000
0000
,
0000
0000
0000
0000
,
0000
0000
0000
0000
,
0000
0000
0000
0000
,
0000
0000
0000
0000
,
0000
0000
0000
0000
,
0000
0000
0000
0000
,
0000
0000
0000
0000
,
0001
0010
0100
1000
0000
0000
1000
0100
0010
0001
0000
0000
,
0001
0010
0100
1000
0001
0010
0100
1000
0001
0010
0000
0000
,
1000
0100
0010
0001
0000
0000
0001
0010
0100
1000
0000
0000
,
0001
0010
0100
1000
1000
0100
0010
0001
0010
0100
0000
0000
,
1000
0100
0010
0001
0000
0000
0001
0010
0100
1000
0000
0000
,
1000
0100
0010
0001
1000
0100
0010
0001
1000
0100
0000
0000
,
0001
0010
0100
1000
0000
0000
1000
0100
0010
0001
0000
0000
,
1000
0100
0010
0001
0001
0010
0100
1000
0100
0010
0001
0010
,
0000
0000
0000
0000
0000
0000
1000
0000
0100
0000
0010
0000
0001
0000
0000
0000
0000
0000
0001
0000
0000
1000
0000
0000
,
0000
0000
0000
0000
1000
0000
0100
0000
0010
0000
0001
0000
1000
0000
0000
0100
0000
0000
0001
0000
0010
0000
0100
0000
,
1000
0000
0000
0000
0000
0000
1000
0000
0000
0001
0000
0000
0000
0000
0000
0000
0001
0000
0010
0000
0100
0000
1000
0000
,
0001
1000
0001
0010
0100
1000
0001
0010
,
0100
1000
0001
0010
0100
1000
0001
0010
,
0100
1000
1000
0100
0010
0001
1000
0100
,
0010
0001
1000
0100
0010
0001
1000
0100
,
0010
0001
0001
0010
0100
1000
0001
0010
,
0100
1000
0001
0010
0100
1000
0001
0010
,
0100
1000
1000
0100
0010
0001
1000
0100
,
0010
0001
1000
0100
0010
0001
1000
0100
,
0010
0001
0110
0000
1000
0000
0100
0010
,
0001
0000
0010
0100
1000
0001
0000
0100
,
0001
0000
1000
0010
0100
0001
0100
0010
,
1000
0000
0001
0010
0100
0010
0000
0001
,
1000
0000
0200
0000
0301
1000
0020
0000
,
1030
0100
0002
0000
0013
0020
0000
0130
,
0200
0000
1300
0000
0001
0100
0001
1000
,
0010
0000
0100
0000
0001
0000
1000
0100
,
0010
0000
0010
2002
3003
0000
0010
2020
,
3030
0000
0010
0022
0033
0000
2002
3003
,
0001
0010
0100
1000
0001
0000
1000
0000
0001
0000
0100
0000
0001
0000
0010
0000
,
1000
0000
0010
0000
1000
0000
0001
0000
0010
0000
0100
0000
0001
0100
1000
0000
,
0010
1000
1002
0000
1000
0000
1000
0000
,
1000
0103
0010
2001
,
0001
0001
0001
3100
,
0010
0102
0100
0100
,
0100
1003
0010
0210
,
0010
0302
2003
0100
,
3100
0000
1001
0000
0000
0001
0010
0000
,
0100
0000
0110
0000
0001
1000
1000
0000
,
0000
1000
0010
0000
0110
0000
1001
0000
,
0001
0010
0200
0000
1000
0000
0010
0010
,
0310
1001
0100
0110
,
1001
0011
1001
1010
,
1001
0000
0201
0000
0001
0000
0001
0010
,
0320
0000
1030
1000
0001
1000
0200
0000
,
0010
0010
0310
0000
0001
0000
1000
0000
,
0010
0000
1000
0010
1000
0000
0001
0000
,
0100
0000
1000
0001
1000
0000
0010
1000
,
0010
0000
0001
0010
0001
0000
1000
0001
,
1000
0001
0100
1000
,
0001
0000
1000
0001
1000
0010
1000
0000
,
0010
0000
0010
0100
1000
0001
1000
0010
,
1000
0001
0100
0000
1000
0000
0001
0000
,
0100
0101
0010
1000
,
0010
1010
0001
0100
,
1000
0010
1000
0000
0001
0000
1000
0000
,
0001
2000
0000
0002
,
0000
0000
0000
1001
0000
0000
0001
0010
0100
1000
0000
0000
,
0001
0010
0100
1000
0000
0000
1100
0000
0000
2002
0000
0000
,
3003
0000
0000
0110
0000
0000
1000
0100
0010
0001
0000
0000
,
1000
0100
0010
0001
0000
0000
0101
0000
0000
0220
0000
0000
,
0330
0000
0110
0000
0001
0010
0100
1000
,
0001
0000
0010
0100
1000
0000
1000
0100
,
0010
2001
0001
3200
,
0320
0032
0000
1000
,
1003
0001
1000
0010
,
1000
0010
1000
0000
0001
0000
0100
0000
,
1000
0000
0001
0010
0100
1000
0001
0010
,
0100
1000
0001
0010
0100
1000
0001
0010
,
0100
1000
2002
0000
0000
0000
3003
0000
,
0110
1010
2002
0000
,
0000
0000
0000
0000
,
0000
0000
0000
0000
,
0000
0000
0000
0000
,
0000
0000
0000
3003
0000
0000
;

//--------------- dance-single - X project-ESP ----------------
#NOTES:
     dance-single:
     X project:
     Hard:
     17:
     0,0,0,0,0:
0000
0000
0000
0000
,
0000
0000
0000
0000
,
0000
0000
0000
0000
,
0000
0000
0000
0000
,
0000
0000
0000
0000
,
0000
0000
0000
0000
,
0000
0000
0000
0000
,
0000
0000
0000
0000
,
0000
0000
0000
0000
,
1000
0100
0010
0001
1000
0100
0010
0001
1000
0100
0010
0001
,
1000
0100
0010
0001
1000
0100
0010
0001
1000
0100
0010
0001
,
1000
0100
0010
0001
1000
0100
0010
0001
1000
0100
0010
0001
,
1000
0100
0010
0001
1000
0100
0010
0001
1000
0100
0010
0001
,
1000
0100
0010
0001
1000
0100
0010
0001
1000
0100
0010
0001
,
1000
0100
0010
0001
1000
0100
0010
0001
1000
0100
0010
0001
,
1000
0100
0010
0001
1000
0100
0010
0001
1000
0100
0010
0001
,
1000
0100
0010
0001
1000
0100
0010
0001
1000
0100
0010
0001
,
1000
0000
0000
0001
0000
0000
1000
0000
0000
0001
0000
0000
1000
0000
0000
0000
0001
0000
0000
0000
1000
0000
0000
0000
1001
0000
0000
0000
0000
0000
0000
0000
0000
0000
0000
0000
0001
0000
0000
0000
0000
0000
0011
0000
0000
0000
0000
0000
,
0000
0000
0000
0100
0000
0000
1000
0000
0010
0000
0100
0000
0001
0000
0000
0010
0000
0000
0001
0000
1000
0000
0001
0000
,
1001
0000
0000
0000
0000
0000
1000
0000
0000
1010
0000
0000
0000
0000
0000
0100
0000
0000
0001
0000
0010
0000
0100
0000
,
1000
0000
0010
0000
0001
0010
0100
1000
0001
0010
0100
1000
0001
0010
0100
1000
,
0001
0010
0100
1000
0001
0010
0100
1000
0001
0010
0100
1000
0001
0010
0100
1000
,
0001
0010
0100
1000
0001
0010
0100
1000
0001
0010
0100
1000
0001
0010
0100
1000
,
0001
0010
0100
1000
0001
0010
0100
1000
0001
0010
0100
1000
0001
0010
0100
1000
,
0001
0010
0100
1000
0001
0010
0100
1000
0001
0010
0100
1000
0001
0010
0100
1000
,
0001
0010
0100
1000
0001
0010
0100
1000
0001
0010
0100
1000
0001
0010
0100
1000
,
0001
0010
0100
1000
0001
0010
0100
1000
0001
0010
0100
1000
0001
0010
0100
1000
,
0001
0010
0100
1000
0001
0010
0100
1000
0001
0010
0100
1000
0001
0010
0100
1000
,
0001
0010
0100
1000
0001
0000
1000
0000
0010
0000
1000
0000
0010
0000
1000
0000
,
0001
0010
0001
1000
0010
1000
0001
1000
,
0001
0000
0000
0001
1000
0001
1000
0100
0001
0010
0100
0010
,
1000
0000
0100
0000
0010
0000
0001
0000
0000
1000
0000
0000
0010
0000
0000
0100
0000
0000
1000
0000
0000
0001
0000
0000
,
0010
0000
1000
0000
1000
0010
0100
0010
1000
0000
0000
0001
0200
0000
0000
0000
,
0000
0000
0310
1000
0002
0000
0000
0000
0010
0000
0023
0000
0000
0000
0130
0000
,
1000
0000
0000
0001
0000
0000
0100
0000
0010
0000
1000
0000
0100
0000
0010
0000
0001
0000
1000
0000
0100
0000
1000
0000
,
0010
0000
0000
0000
0100
0000
0000
0000
0001
0000
0000
0000
0010
0000
0000
0000
0000
0000
0001
0000
0000
0000
0000
0000
0100
0000
0000
0000
0000
0000
0010
0000
0000
1000
0000
0000
0001
0000
0000
0000
0000
0000
0100
0000
0000
0000
0000
0000
,
0110
0000
1010
1100
0000
0000
0011
0101
,
0000
0000
1001
1001
0000
0000
0110
0000
,
1000
0001
1000
0001
0100
0000
0010
0000
1000
0000
0010
0000
0100
0000
0001
0000
,
1000
0000
0001
0000
0010
0000
0100
1000
0100
0000
0010
0001
1000
0010
1000
0010
,
0100
0000
0000
0001
0000
0000
1000
0000
0000
0010
0000
0000
0100
0000
0000
0000
0001
0000
0000
0000
1000
0000
0000
0000
0100
0000
0000
0000
0010
0000
0000
0000
0001
0000
0000
0000
1000
0000
0000
0000
0010
0000
0000
0000
0100
0000
0000
0000
,
0001
0010
0001
1000
0100
1000
0001
0010
0001
0100
0010
0100
,
0001
1000
0100
1000
0010
1000
0001
0100
0001
0100
0010
1000
,
0001
0100
0010
1000
0010
1000
0010
0100
0001
1000
0100
1000
,
0010
0100
0001
0100
0010
1000
0001
0100
0001
0010
0100
0010
,
0001
1000
0010
0100
0010
1000
0010
1000
0100
0010
0100
1000
,
0010
0000
0000
0000
1000
0000
0000
0000
0010
0000
0000
0000
1001
0000
0000
0000
0000
0000
0000
0000
0000
0000
0000
0000
0000
0000
0000
0000
0000
0000
0001
0000
0000
0000
0000
0000
0001
0000
0000
0000
0000
0000
0100
0000
0000
0010
0000
0000
,
1000
0000
1100
0000
0001
0010
1001
0000
,
1000
0010
1000
0001
0100
0000
0101
0000
0000
0011
0000
0000
,
1000
0100
1100
0000
1000
0010
0001
1000
,
0100
0101
0010
1001
,
0011
1100
1010
0101
,
0011
0000
0210
0000
1000
0000
0000
1000
,
1000
0000
0000
0000
0310
0000
0010
0000
0001
0000
0010
0000
0001
1000
0001
1000
,
0100
0010
0001
1000
0010
0000
0100
0000
0001
0000
0100
0000
0010
0000
1000
0001
,
1000
0000
0000
0100
0010
0000
0001
0000
0100
0000
0001
0000
1000
0100
0010
0100
,
1000
0000
0000
0000
1010
0000
0001
0000
0100
0000
0010
0100
0010
0000
1000
0000
,
0100
0000
0000
0000
0010
0000
0001
0000
0100
0000
0001
1000
0001
0000
0010
0000
,
0100
1000
0100
1000
0002
0000
0203
0000
0320
0000
2030
0000
3020
0000
0230
0000
,
0302
2003
3002
0023
0230
2300
3200
0320
,
0032
2003
3020
0032
0023
2030
3200
0302
,
0203
2300
3020
0032
0203
2300
3020
0030
,
0001
0010
0100
1000
0001
0000
1000
0000
0001
0000
0010
0000
0100
0000
0001
0000
,
1000
0000
0100
0010
0001
0000
0010
0000
0100
0000
0001
0000
1000
0000
0010
0000
,
1000
0000
0001
0100
0010
0000
1000
0000
0001
0000
0010
0000
1000
0000
0001
0000
,
1000
0000
0001
0000
1000
0100
0010
0001
1000
0100
0010
0001
1000
0100
0010
0001
,
1000
0000
0000
0100
0000
0000
0010
0000
0000
0001
0000
0000
1001
0000
0000
0000
0000
0000
0000
0000
0000
0000
0000
0000
0001
0000
0000
0000
0010
0000
0000
0000
0100
0000
0000
0000
1000
0000
0000
0000
0000
0000
0000
0000
0000
0000
0000
0000
,
0001
0010
0100
1100
0000
0000
2001
0000
0000
0010
0000
0000
,
3100
0000
0000
1001
0000
0000
1000
0010
0100
0001
0000
0000
,
1000
0010
0100
0101
0000
0000
1002
0000
0000
0010
0000
0000
,
0103
0000
0001
0010
0100
1000
0001
0100
,
0001
0100
0010
1000
0001
1000
0010
1000
,
0010
0100
0012
0000
0000
0003
2000
0000
,
0200
0000
0000
3300
0000
0000
0010
0000
0100
0000
0001
0000
1000
0000
0100
0000
0010
0000
0100
0000
1000
0000
0010
0000
,
1000
0000
0000
0000
0001
0000
0000
0000
0100
0000
0000
0000
0001
0000
0000
0000
0000
0000
0100
0000
0000
0001
0000
0000
0010
0000
0000
0000
0000
0000
0100
0000
0000
1000
0000
0000
0010
0000
0000
0000
0000
0000
0100
0000
0000
0001
0000
0000
,
0010
0000
0100
1000
0010
0000
0100
0001
0010
0000
0100
1000
0020
0000
0230
0000
,
0302
0000
2003
0000
3001
0010
0100
1000
0001
0010
0100
1000
0001
0010
0100
1000
,
0001
0010
0100
1000
0002
0023
0230
2300
3020
0230
0302
0023
0230
2300
3020
0230
,
0302
0023
0230
2300
3001
0010
0100
1000
1000
0100
0010
0001
0001
0010
0100
1000
,
1000
0100
0010
0001
0000
0000
2002
0000
0000
0000
0000
0000
,
0000
0000
0000
0000
,
0000
0000
0000
0000
,
0000
0000
0000
0000
,
0000
0000
0000
0000
0000
0000
0000
0000
0000
0000
0000
0000
0000
0000
0000
0000
0000
0000
0000
0000
0000
0000
0000
0000
0000
0000
0000
0000
0000
0000
0000
0000
0000
0000
0000
0000
0000
0000
0000
0000
0000
0000
0000
0000
0000
0000
0000
0000
0000
0000
0000
0000
0000
0000
0000
0000
0000
0000
0000
0000
0000
0000
0000
0000
0000
0000
0000
0000
0000
0000
0000
0000
0000
0000
0000
0000
0000
0000
0000
0000
0000
0000
0000
0000
0000
0000
0000
0000
0000
0000
0000
0000
0000
0000
0000
0000
3003
0000
0000
0000
0000
0000
0000
0000
0000
0000
0000
0000
0000
0000
0000
0000
0000
0000
0000
0000
0000
0000
0000
0000
0000
0000
0000
0000
0000
0000
0000
0000
0000
0000
0000
0000
0000
0000
0000
0000
0000
0000
0000
0000
0000
0000
0000
0000
0000
0000
0000
0000
0000
0000
0000
0000
0000
0000
0000
0000
0000
0000
0000
0000
0000
0000
0000
0000
0000
0000
0000
0000
0000
0000
0000
0000
0000
0000
0000
0000
0000
0000
0000
0000
0000
0000
0000
0000
0000
0000
0000
0000
0000
0000
0000
0000
;
